osu file format v14

[General]
AudioFilename: audio.mp3
AudioLeadIn: 0
PreviewTime: 24
Countdown: 1
SampleSet: Soft
StackLeniency: 0.7
Mode: 1
LetterboxInBreaks: 0
WidescreenStoryboard: 1

[Editor]
DistanceSpacing: 1.2
BeatDivisor: 2
GridSize: 4
TimelineZoom: 1

[Metadata]
Title:Determination
TitleUnicode:Determination
Artist:toby fox
ArtistUnicode:toby fox
Creator:xXLuziFerzXx
Version:Futsuu
Source:UNDERTALE
Tags:undertale wasinkingspeedq
BeatmapID:968434
BeatmapSetID:451438

[Difficulty]
HPDrainRate:6
CircleSize:2
OverallDifficulty:5
ApproachRate:6
SliderMultiplier:1.4
SliderTickRate:1

[Events]
//Background and Video events
0,0,"bg.jpg",0,0
//Break Periods
//Storyboard Layer 0 (Background)
//Storyboard Layer 1 (Fail)
//Storyboard Layer 2 (Pass)
//Storyboard Layer 3 (Foreground)
//Storyboard Sound Samples

[TimingPoints]
24,521.739130434783,4,2,1,40,1,0
37589,-100,4,2,1,40,0,1
48545,-100,4,2,1,40,0,0

[HitObjects]
252,192,24,5,8,0:0:0:0:
252,192,545,1,0,0:0:0:0:
252,192,1067,1,8,0:0:0:0:
252,192,1589,1,0,0:0:0:0:
252,192,2110,1,0,0:0:0:0:
252,192,2632,1,8,0:0:0:0:
252,192,2893,1,0,0:0:0:0:
252,192,3154,1,8,0:0:0:0:
252,192,3676,1,0,0:0:0:0:
252,192,4197,1,8,0:0:0:0:
252,192,4719,1,8,0:0:0:0:
252,192,6284,1,8,0:0:0:0:
252,192,6806,1,8,0:0:0:0:
252,192,7328,1,8,0:0:0:0:
252,192,7850,1,0,0:0:0:0:
252,192,8371,1,0,0:0:0:0:
252,192,8893,1,8,0:0:0:0:
252,192,9154,1,0,0:0:0:0:
252,192,9415,1,8,0:0:0:0:
252,192,9937,1,8,0:0:0:0:
252,192,10458,1,0,0:0:0:0:
252,192,10980,1,8,0:0:0:0:
252,192,12545,1,8,0:0:0:0:
252,192,13067,1,0,0:0:0:0:
252,192,13589,1,8,0:0:0:0:
252,192,14110,1,8,0:0:0:0:
252,192,14632,1,0,0:0:0:0:
252,192,15154,1,8,0:0:0:0:
252,192,15415,1,0,0:0:0:0:
252,192,15676,1,8,0:0:0:0:
252,192,16197,1,0,0:0:0:0:
252,192,16719,1,8,0:0:0:0:
252,192,17241,1,8,0:0:0:0:
252,192,18806,1,8,0:0:0:0:
248,184,19328,1,0,0:0:0:0:
252,192,19850,1,8,0:0:0:0:
252,192,20371,1,8,0:0:0:0:
252,192,20893,1,0,0:0:0:0:
252,192,21415,1,8,0:0:0:0:
252,192,21676,1,0,0:0:0:0:
252,192,21937,1,8,0:0:0:0:
252,192,22458,1,8,0:0:0:0:
252,192,22980,1,0,0:0:0:0:
252,192,23502,1,8,0:0:0:0:
252,192,25067,1,0,0:0:0:0:
252,192,25589,1,8,0:0:0:0:
252,192,26110,1,0,0:0:0:0:
252,192,26632,1,0,0:0:0:0:
252,192,27154,1,8,0:0:0:0:
252,192,27676,1,0,0:0:0:0:
252,192,28197,1,8,0:0:0:0:
252,192,28719,1,0,0:0:0:0:
252,192,29241,1,0,0:0:0:0:
252,192,29763,1,0,0:0:0:0:
252,192,30806,1,0,0:0:0:0:
252,192,31328,1,8,0:0:0:0:
252,192,31850,1,8,0:0:0:0:
252,192,32371,1,8,0:0:0:0:
252,192,32893,1,0,0:0:0:0:
252,192,33415,1,0,0:0:0:0:
252,192,33937,1,0,0:0:0:0:
252,192,34197,1,0,0:0:0:0:
252,192,34458,1,0,0:0:0:0:
252,192,34980,1,0,0:0:0:0:
252,192,35502,1,8,0:0:0:0:
252,192,36024,1,8,0:0:0:0:
252,192,37589,1,8,0:0:0:0:
252,192,38110,1,8,0:0:0:0:
252,192,38632,1,0,0:0:0:0:
252,192,39154,1,8,0:0:0:0:
252,192,39676,1,0,0:0:0:0:
252,192,40197,1,0,0:0:0:0:
252,192,40719,1,8,0:0:0:0:
252,192,41241,1,8,0:0:0:0:
252,192,41763,1,0,0:0:0:0:
252,192,42284,1,8,0:0:0:0:
252,192,43328,1,0,0:0:0:0:
252,192,43850,1,8,0:0:0:0:
252,192,44371,1,8,0:0:0:0:
252,192,44893,1,8,0:0:0:0:
252,192,45415,1,0,0:0:0:0:
252,192,45937,1,0,0:0:0:0:
252,192,46458,1,0,0:0:0:0:
252,192,46719,1,8,0:0:0:0:
252,192,46980,1,0,0:0:0:0:
252,192,47502,1,0,0:0:0:0:
252,192,48024,1,0,0:0:0:0:
256,192,48545,12,0,49850,0:0:0:0:
