osu file format v14

[General]
AudioFilename: audio.mp3
AudioLeadIn: 0
PreviewTime: 25348
Countdown: 0
SampleSet: Normal
StackLeniency: 0.7
Mode: 1
LetterboxInBreaks: 0
WidescreenStoryboard: 1

[Editor]
DistanceSpacing: 1.2
BeatDivisor: 4
GridSize: 32
TimelineZoom: 1.8

[Metadata]
Title:Determination
TitleUnicode:Determination
Artist:toby fox
ArtistUnicode:toby fox
Creator:Kinpo
Version:Kantan
Source:UNDERTALE
Tags:instrumental chiptune 8bit 8-bit 8 bit video game electronic radiation roleplay role-play role play rpg ut game over 11 ost original soundtrack vgm
BeatmapID:4112421
BeatmapSetID:1980483

[Difficulty]
HPDrainRate:10
CircleSize:2
OverallDifficulty:2
ApproachRate:2
SliderMultiplier:1.4
SliderTickRate:1

[Events]
//Background and Video events
0,0,"bg.png",0,60
//Break Periods
//Storyboard Layer 0 (Background)
//Storyboard Layer 1 (Fail)
//Storyboard Layer 2 (Pass)
//Storyboard Layer 3 (Foreground)
//Storyboard Layer 4 (Overlay)
//Storyboard Sound Samples

[TimingPoints]
305,521.739130434783,3,1,0,50,1,0
25348,-100,3,1,0,60,0,1
30826,-100,3,1,0,50,0,0
37870,-100,3,1,0,60,0,1
43348,-100,3,1,0,50,0,0

[HitObjects]
256,192,305,5,8,0:0:0:0:
256,192,826,1,0,0:0:0:0:
256,192,1348,1,0,0:0:0:0:
256,192,1870,1,8,0:0:0:0:
256,192,2391,1,0,0:0:0:0:
256,192,3435,1,8,0:0:0:0:
256,192,4478,1,8,0:0:0:0:
256,192,5000,1,0,0:0:0:0:
256,192,6565,1,0,0:0:0:0:
256,192,7087,1,8,0:0:0:0:
256,192,7609,1,0,0:0:0:0:
256,192,8131,1,8,0:0:0:0:
256,192,8652,1,0,0:0:0:0:
256,192,9696,1,8,0:0:0:0:
256,192,10739,1,0,0:0:0:0:
256,192,11261,1,8,0:0:0:0:
256,192,12826,1,8,0:0:0:0:
256,192,13348,1,0,0:0:0:0:
256,192,13870,1,8,0:0:0:0:
256,192,14391,1,8,0:0:0:0:
256,192,14913,1,0,0:0:0:0:
256,192,15957,1,8,0:0:0:0:
256,192,17000,1,8,0:0:0:0:
256,192,17522,1,0,0:0:0:0:
256,192,19087,1,8,0:0:0:0:
256,192,19609,1,8,0:0:0:0:
256,192,20131,1,0,0:0:0:0:
256,192,20652,1,8,0:0:0:0:
256,192,21174,1,0,0:0:0:0:
256,192,22218,1,8,0:0:0:0:
256,192,23261,1,0,0:0:0:0:
256,192,23783,1,8,0:0:0:0:
256,192,25348,1,8,0:0:0:0:
256,192,25870,1,0,0:0:0:0:
256,192,26391,1,0,0:0:0:0:
256,192,26913,1,8,0:0:0:0:
256,192,27435,1,0,0:0:0:0:
256,192,27957,1,0,0:0:0:0:
256,192,28478,1,8,0:0:0:0:
256,192,29522,1,8,0:0:0:0:
256,192,30044,1,0,0:0:0:0:
256,192,31609,1,0,0:0:0:0:
256,192,32131,1,8,0:0:0:0:
256,192,32652,1,0,0:0:0:0:
256,192,33174,1,8,0:0:0:0:
256,192,33696,1,0,0:0:0:0:
256,192,34739,1,8,0:0:0:0:
256,192,35783,1,0,0:0:0:0:
256,192,36305,1,8,0:0:0:0:
256,192,37870,1,8,0:0:0:0:
256,192,38391,1,8,0:0:0:0:
256,192,38913,1,0,0:0:0:0:
256,192,39435,1,8,0:0:0:0:
256,192,39957,1,0,0:0:0:0:
256,192,40478,1,0,0:0:0:0:
256,192,41000,1,8,0:0:0:0:
256,192,42044,1,8,0:0:0:0:
256,192,42565,1,0,0:0:0:0:
256,192,44131,1,8,0:0:0:0:
256,192,44652,1,8,0:0:0:0:
256,192,45174,1,0,0:0:0:0:
256,192,45696,1,8,0:0:0:0:
256,192,46218,1,0,0:0:0:0:
256,192,47261,1,8,0:0:0:0:
256,192,48305,1,0,0:0:0:0:
256,192,48826,1,8,0:0:0:0:
