osu file format v14

[General]
AudioFilename: audio.mp3
AudioLeadIn: 0
PreviewTime: 91132
Countdown: 1
SampleSet: None
StackLeniency: 0.7
Mode: 1
LetterboxInBreaks: 0
WidescreenStoryboard: 1

[Editor]
DistanceSpacing: 1.2
BeatDivisor: 4
GridSize: 32
TimelineZoom: 2

[Metadata]
Title:Death by Glamour
TitleUnicode:Death by Glamour
Artist:toby fox
ArtistUnicode:toby fox
Creator:cdhsausageboy
Version:ONI
Source:UNDERTALE
Tags:soundtrack mettaton neo mtt
BeatmapID:1237187
BeatmapSetID:584332

[Difficulty]
HPDrainRate:7
CircleSize:2
OverallDifficulty:4
ApproachRate:5
SliderMultiplier:1.4
SliderTickRate:1

[Events]
//Background and Video events
0,0,"mettaton.png",0,-100
//Break Periods
//Storyboard Layer 0 (Background)
//Storyboard Layer 1 (Fail)
//Storyboard Layer 2 (Pass)
//Storyboard Layer 3 (Foreground)
//Storyboard Sound Samples

[TimingPoints]
322,405.405405405405,4,2,0,100,1,0
13294,-100,4,1,0,80,0,0
91132,-100,4,1,0,100,0,1
115457,-100,4,1,0,80,0,0

[HitObjects]
256,256,322,5,0,0:0:0:0:
256,224,727,1,0,0:0:0:0:
256,224,1132,1,0,0:0:0:0:
256,224,1436,1,0,0:0:0:0:
256,224,1740,1,0,0:0:0:0:
160,192,2146,1,0,0:0:0:0:
160,192,2349,1,0,0:0:0:0:
160,192,2754,1,0,0:0:0:0:
192,192,3058,1,0,0:0:0:0:
256,256,3565,1,0,0:0:0:0:
256,224,3970,1,0,0:0:0:0:
256,224,4375,1,0,0:0:0:0:
256,224,4679,1,0,0:0:0:0:
256,224,4983,1,0,0:0:0:0:
160,192,5389,1,0,0:0:0:0:
160,192,5592,1,0,0:0:0:0:
160,192,5997,1,0,0:0:0:0:
192,192,6301,1,0,0:0:0:0:
224,160,6808,1,0,0:0:0:0:
352,160,7112,1,8,0:0:0:0:
224,160,7213,1,0,0:0:0:0:
256,160,7416,1,0,0:0:0:0:
416,192,7619,1,8,0:0:0:0:
384,160,7821,1,0,0:0:0:0:
288,160,7923,1,0,0:0:0:0:
256,192,8024,1,8,0:0:0:0:
480,192,8227,1,0,0:0:0:0:
192,128,8632,1,0,0:0:0:0:
224,224,8835,1,8,0:0:0:0:
384,192,9038,1,0,0:0:0:0:
416,192,9240,1,8,0:0:0:0:
416,224,9342,1,8,0:0:0:0:
352,224,9544,1,8,0:0:0:0:
224,160,10051,1,0,0:0:0:0:
352,160,10355,1,8,0:0:0:0:
224,160,10456,1,0,0:0:0:0:
256,160,10659,1,0,0:0:0:0:
416,192,10862,1,8,0:0:0:0:
384,160,11064,1,0,0:0:0:0:
288,160,11166,1,0,0:0:0:0:
256,192,11267,1,8,0:0:0:0:
480,192,11470,1,0,0:0:0:0:
192,128,11875,1,0,0:0:0:0:
224,224,12078,1,8,0:0:0:0:
384,192,12281,1,0,0:0:0:0:
416,192,12483,1,8,0:0:0:0:
416,224,12585,1,8,0:0:0:0:
352,224,12787,1,0,0:0:0:0:
480,224,13092,1,8,0:0:0:0:
448,192,13294,1,0,0:0:0:0:
448,192,13700,1,0,0:0:0:0:
384,192,14105,1,8,0:0:0:0:
384,192,14207,1,8,0:0:0:0:
384,192,14409,1,8,0:0:0:0:
384,192,14511,1,8,0:0:0:0:
448,224,14713,1,0,0:0:0:0:
256,160,15119,1,0,0:0:0:0:
256,160,15321,1,0,0:0:0:0:
384,224,15727,1,8,0:0:0:0:
384,224,15828,1,8,0:0:0:0:
384,224,15930,1,8,0:0:0:0:
384,224,16031,1,8,0:0:0:0:
448,192,16538,1,0,0:0:0:0:
448,192,16944,1,0,0:0:0:0:
384,192,17349,1,8,0:0:0:0:
384,192,17451,1,8,0:0:0:0:
384,192,17653,1,8,0:0:0:0:
384,192,17755,1,8,0:0:0:0:
448,224,17957,1,0,0:0:0:0:
256,160,18363,1,0,0:0:0:0:
256,160,18565,1,0,0:0:0:0:
384,224,18971,5,8,0:0:0:0:
384,224,19072,1,8,0:0:0:0:
384,224,19173,1,0,0:0:0:0:
384,224,19275,1,8,0:0:0:0:
256,192,19781,5,0,0:0:0:0:
352,224,19984,1,8,0:0:0:0:
448,192,20186,1,0,0:0:0:0:
480,192,20389,1,8,0:0:0:0:
192,192,20592,1,0,0:0:0:0:
480,160,20693,1,8,0:0:0:0:
320,160,20794,1,8,0:0:0:0:
288,192,20997,1,0,0:0:0:0:
352,192,21200,1,8,0:0:0:0:
256,192,21403,5,0,0:0:0:0:
352,224,21606,1,8,0:0:0:0:
448,192,21808,1,0,0:0:0:0:
480,192,22011,1,8,0:0:0:0:
256,192,22213,1,0,0:0:0:0:
448,192,22315,1,8,0:0:0:0:
320,160,22416,1,8,0:0:0:0:
448,192,22517,1,8,0:0:0:0:
384,160,22619,1,0,0:0:0:0:
416,192,22821,1,8,0:0:0:0:
416,192,22923,1,8,0:0:0:0:
256,192,23024,5,0,0:0:0:0:
352,224,23227,1,8,0:0:0:0:
448,192,23429,1,0,0:0:0:0:
480,192,23632,1,8,0:0:0:0:
192,160,23835,1,0,0:0:0:0:
320,192,23936,1,8,0:0:0:0:
320,160,24037,1,8,0:0:0:0:
384,160,24240,1,0,0:0:0:0:
224,192,24443,1,8,0:0:0:0:
256,192,24646,5,0,0:0:0:0:
352,224,24849,1,8,0:0:0:0:
448,192,25051,1,0,0:0:0:0:
480,192,25254,1,8,0:0:0:0:
192,160,25457,1,0,0:0:0:0:
320,160,25659,1,8,0:0:0:0:
384,160,25862,1,0,0:0:0:0:
192,128,25963,1,0,0:0:0:0:
224,192,26065,1,8,0:0:0:0:
320,192,26166,1,8,0:0:0:0:
96,192,26267,1,0,0:0:0:0:
64,160,26470,1,0,0:0:0:0:
352,224,26673,1,8,0:0:0:0:
320,224,26876,1,0,0:0:0:0:
384,224,27078,1,8,0:0:0:0:
384,224,27281,1,0,0:0:0:0:
384,224,27382,1,8,0:0:0:0:
384,192,27585,1,8,0:0:0:0:
512,192,27686,1,0,0:0:0:0:
352,160,28092,1,0,0:0:0:0:
352,160,28193,1,0,0:0:0:0:
384,192,28294,1,8,0:0:0:0:
320,192,28497,1,0,0:0:0:0:
384,192,28700,1,8,0:0:0:0:
64,96,28801,1,0,0:0:0:0:
416,160,28902,1,8,0:0:0:0:
416,224,29004,1,0,0:0:0:0:
96,192,29511,1,0,0:0:0:0:
64,160,29714,1,0,0:0:0:0:
352,224,29917,1,8,0:0:0:0:
320,224,30120,1,0,0:0:0:0:
384,224,30322,1,8,0:0:0:0:
384,224,30525,1,0,0:0:0:0:
384,224,30626,1,8,0:0:0:0:
384,192,30829,1,8,0:0:0:0:
512,192,30930,1,0,0:0:0:0:
352,160,31336,1,0,0:0:0:0:
352,160,31437,1,0,0:0:0:0:
384,192,31538,1,8,0:0:0:0:
320,192,31741,1,0,0:0:0:0:
416,192,31944,1,8,0:0:0:0:
256,96,32044,1,0,0:0:0:0:
416,160,32147,1,0,0:0:0:0:
384,192,32247,1,0,0:0:0:0:
96,192,32754,1,0,0:0:0:0:
64,160,32957,1,0,0:0:0:0:
352,224,33160,1,8,0:0:0:0:
320,224,33363,1,0,0:0:0:0:
384,224,33565,1,8,0:0:0:0:
384,224,33768,1,0,0:0:0:0:
384,224,33869,1,8,0:0:0:0:
384,192,34072,1,8,0:0:0:0:
512,192,34173,1,0,0:0:0:0:
352,160,34579,1,0,0:0:0:0:
352,160,34680,1,0,0:0:0:0:
384,192,34781,1,8,0:0:0:0:
320,192,34984,1,0,0:0:0:0:
416,192,35187,1,8,0:0:0:0:
416,160,35288,1,0,0:0:0:0:
416,128,35390,1,8,0:0:0:0:
384,192,35491,1,0,0:0:0:0:
96,192,35998,1,0,0:0:0:0:
64,160,36201,1,0,0:0:0:0:
352,224,36404,1,8,0:0:0:0:
320,224,36607,1,0,0:0:0:0:
384,224,36809,1,8,0:0:0:0:
384,224,37012,1,0,0:0:0:0:
384,224,37113,1,8,0:0:0:0:
384,192,37316,1,8,0:0:0:0:
512,192,37417,1,0,0:0:0:0:
352,160,37823,1,0,0:0:0:0:
352,160,37924,1,0,0:0:0:0:
384,192,38025,1,8,0:0:0:0:
320,192,38228,1,0,0:0:0:0:
416,192,38431,1,8,0:0:0:0:
256,96,38531,1,0,0:0:0:0:
416,160,38634,1,0,0:0:0:0:
384,192,38734,1,0,0:0:0:0:
224,160,39038,1,8,0:0:0:0:
224,160,39139,1,8,0:0:0:0:
192,160,39240,1,0,0:0:0:0:
480,160,39443,1,8,0:0:0:0:
416,160,39646,1,0,0:0:0:0:
352,160,39747,1,0,0:0:0:0:
352,160,39950,1,0,0:0:0:0:
448,192,40457,1,8,0:0:0:0:
448,160,40659,1,8,0:0:0:0:
288,160,40862,1,0,0:0:0:0:
224,160,41065,1,8,0:0:0:0:
352,160,41267,1,0,0:0:0:0:
128,160,41369,1,8,0:0:0:0:
448,160,41571,1,0,0:0:0:0:
288,192,41774,1,8,0:0:0:0:
448,160,41876,1,8,0:0:0:0:
384,160,42078,1,0,0:0:0:0:
384,224,42484,1,0,0:0:0:0:
416,224,42585,1,0,0:0:0:0:
416,224,42686,1,0,0:0:0:0:
416,224,42788,1,0,0:0:0:0:
512,192,42889,1,8,0:0:0:0:
32,128,43294,1,0,0:0:0:0:
448,192,43395,1,0,0:0:0:0:
448,192,43497,1,0,0:0:0:0:
416,160,43700,1,8,0:0:0:0:
0,128,43903,1,0,0:0:0:0:
448,192,44105,1,8,0:0:0:0:
288,128,44409,1,8,0:0:0:0:
288,192,44511,1,0,0:0:0:0:
288,192,44713,1,0,0:0:0:0:
384,192,44916,1,8,0:0:0:0:
384,192,45119,1,8,0:0:0:0:
480,160,45321,1,0,0:0:0:0:
384,160,45524,1,0,0:0:0:0:
192,160,45727,1,0,0:0:0:0:
480,160,45930,1,8,0:0:0:0:
416,160,46133,1,0,0:0:0:0:
352,160,46234,1,0,0:0:0:0:
352,160,46437,1,0,0:0:0:0:
448,192,46944,1,8,0:0:0:0:
448,160,47146,1,8,0:0:0:0:
288,160,47349,1,0,0:0:0:0:
224,160,47552,1,8,0:0:0:0:
352,160,47754,1,0,0:0:0:0:
128,160,47856,1,8,0:0:0:0:
448,160,48058,1,0,0:0:0:0:
288,192,48261,1,8,0:0:0:0:
448,160,48363,1,8,0:0:0:0:
384,160,48565,1,0,0:0:0:0:
384,224,48971,1,0,0:0:0:0:
416,224,49072,1,0,0:0:0:0:
416,224,49173,1,0,0:0:0:0:
416,224,49275,1,0,0:0:0:0:
512,192,49376,1,8,0:0:0:0:
320,192,49781,1,0,0:0:0:0:
448,192,49882,1,0,0:0:0:0:
448,192,49984,1,0,0:0:0:0:
416,160,50187,1,8,0:0:0:0:
0,128,50390,1,0,0:0:0:0:
448,192,50592,1,8,0:0:0:0:
288,128,50896,1,8,0:0:0:0:
288,192,50998,1,0,0:0:0:0:
288,192,51200,1,0,0:0:0:0:
384,192,51403,1,8,0:0:0:0:
384,192,51606,1,8,0:0:0:0:
480,160,51808,1,0,0:0:0:0:
352,192,52011,1,8,0:0:0:0:
352,192,52112,1,8,0:0:0:0:
192,160,52213,1,0,0:0:0:0:
480,160,52416,1,8,0:0:0:0:
416,160,52619,1,0,0:0:0:0:
352,160,52720,1,0,0:0:0:0:
352,160,52923,1,0,0:0:0:0:
160,160,53126,1,0,0:0:0:0:
160,160,53227,1,0,0:0:0:0:
448,192,53430,1,8,0:0:0:0:
448,160,53632,1,8,0:0:0:0:
288,160,53835,1,0,0:0:0:0:
224,160,54038,1,8,0:0:0:0:
352,160,54240,1,0,0:0:0:0:
128,160,54342,1,8,0:0:0:0:
448,160,54544,1,0,0:0:0:0:
288,192,54747,1,8,0:0:0:0:
448,160,54849,1,8,0:0:0:0:
384,160,55051,1,0,0:0:0:0:
256,128,55254,1,8,0:0:0:0:
384,224,55457,1,0,0:0:0:0:
416,224,55558,1,0,0:0:0:0:
416,224,55659,1,0,0:0:0:0:
416,224,55761,1,0,0:0:0:0:
512,192,55862,1,8,0:0:0:0:
320,192,56064,1,0,0:0:0:0:
448,192,56165,1,0,0:0:0:0:
448,192,56368,1,0,0:0:0:0:
448,192,56470,1,0,0:0:0:0:
416,160,56673,1,8,0:0:0:0:
0,128,56876,1,0,0:0:0:0:
448,192,57078,1,8,0:0:0:0:
288,128,57382,1,8,0:0:0:0:
288,192,57484,1,0,0:0:0:0:
288,192,57686,1,0,0:0:0:0:
384,192,57889,1,8,0:0:0:0:
384,192,58092,1,8,0:0:0:0:
480,160,58294,1,0,0:0:0:0:
192,160,58700,1,0,0:0:0:0:
480,160,58903,1,8,0:0:0:0:
416,160,59106,1,0,0:0:0:0:
352,160,59207,1,0,0:0:0:0:
352,160,59410,1,0,0:0:0:0:
160,160,59613,1,0,0:0:0:0:
160,160,59714,1,0,0:0:0:0:
448,192,59917,1,8,0:0:0:0:
448,160,60119,1,8,0:0:0:0:
288,160,60322,1,0,0:0:0:0:
224,160,60525,1,8,0:0:0:0:
352,160,60727,1,0,0:0:0:0:
128,160,60829,1,8,0:0:0:0:
448,160,61031,1,0,0:0:0:0:
288,192,61234,1,8,0:0:0:0:
448,160,61336,1,8,0:0:0:0:
384,160,61538,1,0,0:0:0:0:
256,192,61741,1,8,0:0:0:0:
384,224,61944,1,0,0:0:0:0:
416,224,62045,1,0,0:0:0:0:
416,224,62146,1,0,0:0:0:0:
416,224,62248,1,0,0:0:0:0:
512,192,62349,1,8,0:0:0:0:
128,160,62754,1,0,0:0:0:0:
128,160,62855,1,0,0:0:0:0:
128,160,62957,1,0,0:0:0:0:
128,160,63058,1,0,0:0:0:0:
384,160,63159,1,8,0:0:0:0:
256,192,63565,1,0,0:0:0:0:
256,192,63666,1,0,0:0:0:0:
256,192,63767,1,0,0:0:0:0:
256,192,63869,1,0,0:0:0:0:
448,160,63970,1,8,0:0:0:0:
448,160,64071,1,0,0:0:0:0:
480,160,64173,1,0,0:0:0:0:
480,160,64274,1,0,0:0:0:0:
416,160,64376,1,8,0:0:0:0:
160,192,65186,5,4,0:0:0:0:
224,256,65592,1,8,0:0:0:0:
288,224,65794,1,0,0:0:0:0:
288,192,65896,1,0,0:0:0:0:
288,192,65997,1,0,0:0:0:0:
288,192,66200,1,0,0:0:0:0:
384,192,66403,1,8,0:0:0:0:
256,224,66605,1,0,0:0:0:0:
288,160,66808,1,4,0:0:0:0:
416,192,67213,1,8,0:0:0:0:
480,192,67416,1,0,0:0:0:0:
480,192,67517,1,0,0:0:0:0:
448,224,67619,1,8,0:0:0:0:
480,192,67821,1,0,0:0:0:0:
448,224,68024,1,8,0:0:0:0:
288,192,68227,1,8,0:0:0:0:
416,192,68430,1,4,0:0:0:0:
288,224,68734,1,8,0:0:0:0:
384,192,68835,1,0,0:0:0:0:
352,192,69038,1,8,0:0:0:0:
288,192,69240,1,4,0:0:0:0:
288,224,69544,1,8,0:0:0:0:
384,192,69645,1,0,0:0:0:0:
352,192,69848,1,8,0:0:0:0:
288,192,70050,1,4,0:0:0:0:
352,160,70457,1,4,0:0:0:0:
352,160,70862,1,4,0:0:0:0:
352,192,71267,1,8,0:0:0:0:
352,192,71470,1,8,0:0:0:0:
160,192,71673,5,4,0:0:0:0:
224,256,72079,1,8,0:0:0:0:
288,224,72281,1,0,0:0:0:0:
288,192,72383,1,0,0:0:0:0:
288,192,72484,1,0,0:0:0:0:
288,192,72687,1,0,0:0:0:0:
384,192,72890,1,8,0:0:0:0:
256,224,73092,1,0,0:0:0:0:
288,160,73295,1,4,0:0:0:0:
416,192,73700,1,8,0:0:0:0:
480,192,73903,1,0,0:0:0:0:
480,192,74004,1,0,0:0:0:0:
448,224,74106,1,8,0:0:0:0:
480,192,74308,1,0,0:0:0:0:
448,224,74511,1,8,0:0:0:0:
288,192,74714,1,8,0:0:0:0:
416,192,74917,1,4,0:0:0:0:
384,192,75221,1,0,0:0:0:0:
288,224,75322,1,8,0:0:0:0:
352,192,75525,1,8,0:0:0:0:
288,192,75727,1,4,0:0:0:0:
384,192,76031,1,0,0:0:0:0:
288,224,76132,1,8,0:0:0:0:
352,192,76335,1,0,0:0:0:0:
384,224,76538,1,12,0:0:0:0:
352,224,76943,1,12,0:0:0:0:
352,224,77349,1,12,0:0:0:0:
320,192,77754,1,8,0:0:0:0:
320,192,77855,1,8,0:0:0:0:
320,192,77957,1,8,0:0:0:0:
160,192,78159,5,4,0:0:0:0:
224,256,78565,1,8,0:0:0:0:
288,224,78767,1,0,0:0:0:0:
288,192,78869,1,0,0:0:0:0:
288,192,78970,1,0,0:0:0:0:
288,192,79173,1,0,0:0:0:0:
384,192,79376,1,8,0:0:0:0:
256,224,79578,1,0,0:0:0:0:
288,160,79781,1,4,0:0:0:0:
416,192,80186,1,8,0:0:0:0:
480,192,80389,1,0,0:0:0:0:
480,192,80490,1,0,0:0:0:0:
448,224,80592,1,8,0:0:0:0:
480,192,80794,1,0,0:0:0:0:
448,224,80997,1,8,0:0:0:0:
288,192,81200,1,8,0:0:0:0:
416,192,81403,1,4,0:0:0:0:
288,224,81707,1,8,0:0:0:0:
384,192,81808,1,0,0:0:0:0:
352,192,82011,1,8,0:0:0:0:
288,192,82213,1,4,0:0:0:0:
288,224,82517,1,8,0:0:0:0:
384,192,82618,1,0,0:0:0:0:
352,192,82821,1,8,0:0:0:0:
288,192,83023,1,4,0:0:0:0:
352,160,83430,1,4,0:0:0:0:
352,160,83835,1,4,0:0:0:0:
352,192,84240,1,8,0:0:0:0:
352,192,84443,1,8,0:0:0:0:
160,192,84646,5,4,0:0:0:0:
224,256,85052,1,8,0:0:0:0:
288,224,85254,1,0,0:0:0:0:
288,192,85356,1,0,0:0:0:0:
288,192,85457,1,0,0:0:0:0:
288,192,85660,1,0,0:0:0:0:
384,192,85863,1,8,0:0:0:0:
256,224,86065,1,0,0:0:0:0:
288,160,86268,1,4,0:0:0:0:
416,192,86673,1,8,0:0:0:0:
480,192,86876,1,0,0:0:0:0:
480,192,86977,1,0,0:0:0:0:
448,224,87079,1,8,0:0:0:0:
480,192,87281,1,0,0:0:0:0:
448,224,87484,1,8,0:0:0:0:
288,192,87687,1,8,0:0:0:0:
416,192,87890,1,4,0:0:0:0:
384,192,88194,1,0,0:0:0:0:
288,224,88295,1,8,0:0:0:0:
352,192,88498,1,8,0:0:0:0:
288,192,88700,1,4,0:0:0:0:
384,192,89004,1,0,0:0:0:0:
288,224,89105,1,8,0:0:0:0:
352,192,89308,1,0,0:0:0:0:
256,192,89511,12,0,90727,0:0:0:0:
352,288,91132,5,0,0:0:0:0:
320,192,91335,1,8,0:0:0:0:
256,160,91538,1,0,0:0:0:0:
160,128,91740,1,8,0:0:0:0:
320,128,91842,1,0,0:0:0:0:
320,128,92044,1,0,0:0:0:0:
192,128,92146,1,8,0:0:0:0:
64,192,92349,1,0,0:0:0:0:
128,192,92551,1,8,0:0:0:0:
352,288,92754,5,0,0:0:0:0:
320,192,92957,1,8,0:0:0:0:
256,160,93160,1,0,0:0:0:0:
160,128,93362,1,8,0:0:0:0:
320,128,93464,1,0,0:0:0:0:
256,128,93970,1,0,0:0:0:0:
352,192,94173,1,8,0:0:0:0:
288,192,94376,1,0,0:0:0:0:
288,192,94578,1,0,0:0:0:0:
288,192,94680,1,0,0:0:0:0:
288,192,94882,1,0,0:0:0:0:
288,192,94984,1,8,0:0:0:0:
256,224,95186,1,0,0:0:0:0:
192,192,95592,1,8,0:0:0:0:
224,192,95794,1,8,0:0:0:0:
192,160,95997,1,0,0:0:0:0:
192,192,96200,1,0,0:0:0:0:
288,192,96301,1,8,0:0:0:0:
288,160,96504,1,8,0:0:0:0:
288,160,96605,1,0,0:0:0:0:
288,192,96808,1,8,0:0:0:0:
192,192,97213,1,0,0:0:0:0:
256,192,97416,1,8,0:0:0:0:
320,192,97822,1,8,0:0:0:0:
256,160,98025,1,0,0:0:0:0:
160,128,98227,1,8,0:0:0:0:
320,128,98329,1,0,0:0:0:0:
320,128,98531,1,0,0:0:0:0:
192,128,98633,1,8,0:0:0:0:
64,192,98836,1,0,0:0:0:0:
128,192,99038,1,8,0:0:0:0:
352,288,99241,5,0,0:0:0:0:
320,192,99444,1,8,0:0:0:0:
256,160,99647,1,0,0:0:0:0:
160,128,99849,1,8,0:0:0:0:
320,128,99951,1,0,0:0:0:0:
256,128,100457,1,0,0:0:0:0:
352,192,100660,1,8,0:0:0:0:
288,192,100863,1,0,0:0:0:0:
288,192,101065,1,0,0:0:0:0:
288,192,101167,1,0,0:0:0:0:
288,192,101369,1,0,0:0:0:0:
288,192,101471,1,8,0:0:0:0:
256,224,101673,1,0,0:0:0:0:
192,192,102079,1,8,0:0:0:0:
224,192,102281,1,8,0:0:0:0:
192,160,102484,1,0,0:0:0:0:
192,192,102687,1,0,0:0:0:0:
288,192,102788,1,8,0:0:0:0:
288,160,102991,1,8,0:0:0:0:
288,160,103092,1,0,0:0:0:0:
288,192,103295,1,8,0:0:0:0:
192,192,103700,1,0,0:0:0:0:
256,192,103903,1,8,0:0:0:0:
352,288,104105,5,0,0:0:0:0:
320,192,104308,1,8,0:0:0:0:
256,160,104511,1,0,0:0:0:0:
160,128,104713,1,8,0:0:0:0:
320,128,104815,1,0,0:0:0:0:
320,128,105017,1,0,0:0:0:0:
192,128,105119,1,8,0:0:0:0:
64,192,105322,1,0,0:0:0:0:
128,192,105524,1,8,0:0:0:0:
352,288,105727,5,0,0:0:0:0:
320,192,105930,1,8,0:0:0:0:
256,160,106133,1,0,0:0:0:0:
160,128,106335,1,8,0:0:0:0:
320,128,106437,1,0,0:0:0:0:
256,128,106943,1,0,0:0:0:0:
352,192,107146,1,8,0:0:0:0:
288,192,107349,1,0,0:0:0:0:
192,96,107450,1,0,0:0:0:0:
288,192,107653,1,0,0:0:0:0:
288,192,107754,1,0,0:0:0:0:
288,192,107957,1,8,0:0:0:0:
256,224,108159,1,0,0:0:0:0:
192,192,108565,1,8,0:0:0:0:
224,192,108767,1,0,0:0:0:0:
192,192,108970,1,0,0:0:0:0:
192,160,109071,1,0,0:0:0:0:
288,192,109274,1,8,0:0:0:0:
288,160,109376,1,8,0:0:0:0:
288,160,109578,1,0,0:0:0:0:
288,192,109781,1,8,0:0:0:0:
192,192,110186,1,0,0:0:0:0:
256,192,110389,1,8,0:0:0:0:
320,192,110795,1,8,0:0:0:0:
256,160,110998,1,0,0:0:0:0:
160,128,111200,1,8,0:0:0:0:
320,128,111302,1,0,0:0:0:0:
320,128,111504,1,0,0:0:0:0:
192,128,111606,1,8,0:0:0:0:
64,192,111809,1,0,0:0:0:0:
128,192,112011,1,8,0:0:0:0:
352,288,112214,5,0,0:0:0:0:
320,192,112417,1,8,0:0:0:0:
256,160,112620,1,0,0:0:0:0:
160,128,112822,1,8,0:0:0:0:
320,128,112924,1,0,0:0:0:0:
256,128,113430,1,0,0:0:0:0:
352,192,113633,1,8,0:0:0:0:
288,192,113836,1,0,0:0:0:0:
192,96,113937,1,0,0:0:0:0:
288,192,114140,1,0,0:0:0:0:
288,192,114241,1,0,0:0:0:0:
288,192,114444,1,8,0:0:0:0:
256,224,114646,1,0,0:0:0:0:
192,192,115052,1,8,0:0:0:0:
224,192,115254,1,0,0:0:0:0:
192,192,115457,1,0,0:0:0:0:
192,160,115761,1,0,0:0:0:0:
288,160,116065,5,0,0:0:0:0:
288,192,116268,1,8,0:0:0:0:
192,192,116673,1,0,0:0:0:0:
256,192,116876,1,8,0:0:0:0:
32,192,117078,5,0,0:0:0:0:
32,192,117281,1,0,0:0:0:0:
64,192,117382,1,0,0:0:0:0:
416,192,117484,1,8,0:0:0:0:
512,160,117686,1,0,0:0:0:0:
448,192,117889,1,8,0:0:0:0:
480,192,118092,1,0,0:0:0:0:
416,192,118193,1,8,0:0:0:0:
416,192,118396,1,8,0:0:0:0:
480,192,118497,1,0,0:0:0:0:
192,160,118903,1,0,0:0:0:0:
416,160,119105,1,8,0:0:0:0:
384,160,119308,1,0,0:0:0:0:
352,192,119511,1,8,0:0:0:0:
192,192,119612,1,8,0:0:0:0:
192,192,119815,1,8,0:0:0:0:
32,192,120321,5,0,0:0:0:0:
32,192,120524,1,0,0:0:0:0:
64,192,120625,1,0,0:0:0:0:
416,192,120727,1,8,0:0:0:0:
512,160,120929,1,0,0:0:0:0:
448,192,121132,1,8,0:0:0:0:
480,192,121335,1,0,0:0:0:0:
416,192,121436,1,8,0:0:0:0:
416,192,121639,1,8,0:0:0:0:
480,192,121740,1,0,0:0:0:0:
192,160,122146,1,0,0:0:0:0:
416,160,122348,1,8,0:0:0:0:
384,160,122551,1,0,0:0:0:0:
352,192,122754,1,8,0:0:0:0:
192,192,122855,1,8,0:0:0:0:
256,96,122957,1,0,0:0:0:0:
192,192,123058,1,8,0:0:0:0:
32,192,123565,5,0,0:0:0:0:
32,192,123768,1,0,0:0:0:0:
64,192,123869,1,0,0:0:0:0:
416,192,123971,1,8,0:0:0:0:
448,192,124173,1,8,0:0:0:0:
480,192,124376,1,0,0:0:0:0:
416,192,124477,1,8,0:0:0:0:
416,192,124680,1,8,0:0:0:0:
480,192,124781,1,0,0:0:0:0:
480,160,124984,1,8,0:0:0:0:
384,192,125186,1,0,0:0:0:0:
192,160,125390,1,0,0:0:0:0:
288,192,125490,1,0,0:0:0:0:
416,160,125592,1,8,0:0:0:0:
384,160,125795,1,0,0:0:0:0:
352,192,125998,1,8,0:0:0:0:
192,192,126099,1,8,0:0:0:0:
192,192,126302,1,8,0:0:0:0:
32,192,126808,5,0,0:0:0:0:
32,192,127011,1,0,0:0:0:0:
64,192,127112,1,0,0:0:0:0:
416,192,127214,1,8,0:0:0:0:
448,192,127416,1,8,0:0:0:0:
480,192,127619,1,0,0:0:0:0:
416,192,127720,1,8,0:0:0:0:
416,192,127923,1,8,0:0:0:0:
480,192,128024,1,0,0:0:0:0:
480,160,128227,1,8,0:0:0:0:
384,192,128429,1,0,0:0:0:0:
192,160,128633,1,0,0:0:0:0:
288,192,128733,1,0,0:0:0:0:
416,160,128835,1,8,0:0:0:0:
384,160,129038,1,0,0:0:0:0:
352,192,129241,1,8,0:0:0:0:
192,192,129342,1,8,0:0:0:0:
64,160,129443,1,0,0:0:0:0:
192,192,129545,1,8,0:0:0:0:
96,192,130051,2,0,L|128:224,28,35
