osu file format v14

[General]
AudioFilename: audio.mp3
AudioLeadIn: 0
PreviewTime: 91132
Countdown: 1
SampleSet: Normal
StackLeniency: 0.7
Mode: 1
LetterboxInBreaks: 0
WidescreenStoryboard: 0

[Editor]
DistanceSpacing: 1.2
BeatDivisor: 4
GridSize: 32
TimelineZoom: 2.2

[Metadata]
Title:Death by Glamour
TitleUnicode:Death by Glamour
Artist:toby fox
ArtistUnicode:toby fox
Creator:cdhsausageboy
Version:MTTAIKO
Source:UNDERTALE
Tags:soundtrack mettaton neo mtt
BeatmapID:1236209
BeatmapSetID:584332

[Difficulty]
HPDrainRate:6
CircleSize:2
OverallDifficulty:6
ApproachRate:5
SliderMultiplier:1.4
SliderTickRate:1

[Events]
//Background and Video events
0,0,"mettaton.png",0,-100
//Break Periods
//Storyboard Layer 0 (Background)
//Storyboard Layer 1 (Fail)
//Storyboard Layer 2 (Pass)
//Storyboard Layer 3 (Foreground)
//Storyboard Sound Samples

[TimingPoints]
322,405.405405405405,4,2,0,100,1,0
322,-133.333333333333,4,2,0,100,0,0
6808,-100,4,2,0,100,0,0
13294,-80,4,1,0,60,0,0
90321,-86.2068965517241,4,1,0,75,0,0
90727,-92.5925925925926,4,1,0,75,0,0
91132,-100,4,1,0,80,0,1
115457,-100,4,1,0,75,0,0
116673,-92.5925925925926,4,1,0,75,0,0
116876,-86.2068965517241,4,1,0,75,0,0
117078,-80,4,1,0,75,0,0

[HitObjects]
320,224,322,5,0,0:0:0:0:
256,160,727,1,0,0:0:0:0:
256,160,1132,1,0,0:0:0:0:
224,128,1436,1,0,0:0:0:0:
224,128,1740,1,0,0:0:0:0:
256,128,2146,1,0,0:0:0:0:
224,128,2349,1,0,0:0:0:0:
224,128,2754,1,0,0:0:0:0:
224,128,3058,1,0,0:0:0:0:
320,224,3565,1,0,0:0:0:0:
256,160,3970,1,0,0:0:0:0:
256,160,4375,1,0,0:0:0:0:
224,128,4679,1,0,0:0:0:0:
224,128,4983,1,0,0:0:0:0:
256,128,5389,1,0,0:0:0:0:
224,128,5592,1,0,0:0:0:0:
224,128,5997,1,0,0:0:0:0:
224,128,6301,1,0,0:0:0:0:
224,96,6808,1,0,0:0:0:0:
256,160,7112,1,8,0:0:0:0:
96,192,7213,1,0,0:0:0:0:
192,160,7416,1,0,0:0:0:0:
128,160,7619,1,8,0:0:0:0:
160,192,7821,1,0,0:0:0:0:
160,192,7923,1,0,0:0:0:0:
224,160,8024,1,8,0:0:0:0:
320,160,8227,1,0,0:0:0:0:
64,160,8632,1,0,0:0:0:0:
96,160,8734,1,0,0:0:0:0:
288,192,8835,1,8,0:0:0:0:
128,192,9038,1,0,0:0:0:0:
320,160,9240,1,8,0:0:0:0:
384,160,9342,1,0,0:0:0:0:
352,160,9443,1,0,0:0:0:0:
352,192,9544,1,8,0:0:0:0:
224,128,9849,1,8,0:0:0:0:
224,96,10051,1,0,0:0:0:0:
256,160,10355,1,8,0:0:0:0:
96,192,10456,1,0,0:0:0:0:
192,160,10659,1,0,0:0:0:0:
128,160,10862,1,8,0:0:0:0:
160,192,11064,1,0,0:0:0:0:
160,192,11166,1,0,0:0:0:0:
224,160,11267,1,8,0:0:0:0:
320,160,11470,1,0,0:0:0:0:
64,160,11875,1,0,0:0:0:0:
96,160,11977,1,0,0:0:0:0:
288,192,12078,1,8,0:0:0:0:
128,192,12281,1,0,0:0:0:0:
320,160,12483,1,8,0:0:0:0:
384,160,12585,1,8,0:0:0:0:
352,192,12686,1,8,0:0:0:0:
352,160,12787,1,0,0:0:0:0:
224,128,13092,1,8,0:0:0:0:
224,96,13294,1,0,0:0:0:0:
160,192,13497,1,0,0:0:0:0:
160,192,13599,1,0,0:0:0:0:
224,160,13700,1,8,0:0:0:0:
320,160,13903,1,0,0:0:0:0:
256,192,14105,1,8,0:0:0:0:
64,160,14308,1,0,0:0:0:0:
288,192,14410,1,8,0:0:0:0:
96,160,14612,1,0,0:0:0:0:
224,160,14713,1,8,0:0:0:0:
384,160,14916,1,0,0:0:0:0:
320,160,15119,1,8,0:0:0:0:
352,160,15220,1,0,0:0:0:0:
352,192,15321,1,8,0:0:0:0:
224,128,15525,1,0,0:0:0:0:
288,192,15727,1,8,0:0:0:0:
224,96,15828,1,0,0:0:0:0:
160,160,15930,1,0,0:0:0:0:
96,192,16031,1,8,0:0:0:0:
256,192,16335,1,8,0:0:0:0:
224,96,16538,1,0,0:0:0:0:
160,192,16741,1,0,0:0:0:0:
160,192,16843,1,0,0:0:0:0:
224,160,16944,1,8,0:0:0:0:
320,160,17147,1,0,0:0:0:0:
256,192,17349,1,8,0:0:0:0:
64,160,17551,1,0,0:0:0:0:
288,192,17654,1,8,0:0:0:0:
96,160,17855,1,0,0:0:0:0:
224,160,17957,1,8,0:0:0:0:
384,160,18160,1,0,0:0:0:0:
320,160,18363,1,8,0:0:0:0:
352,160,18464,1,0,0:0:0:0:
352,192,18565,1,8,0:0:0:0:
224,128,18767,1,0,0:0:0:0:
288,192,18971,1,8,0:0:0:0:
224,96,19072,1,0,0:0:0:0:
224,128,19173,1,0,0:0:0:0:
96,192,19275,1,8,0:0:0:0:
475,169,19578,1,8,0:0:0:0:
256,160,19781,1,0,0:0:0:0:
448,160,19882,1,8,0:0:0:0:
352,160,19984,1,8,0:0:0:0:
320,160,20186,1,0,0:0:0:0:
384,192,20389,1,8,0:0:0:0:
193,164,20490,1,8,0:0:0:0:
320,160,20592,1,0,0:0:0:0:
214,142,20693,1,8,0:0:0:0:
416,224,20794,1,8,0:0:0:0:
256,192,20997,1,0,0:0:0:0:
352,224,21200,1,8,0:0:0:0:
256,160,21403,1,0,0:0:0:0:
448,160,21504,1,8,0:0:0:0:
352,160,21606,1,8,0:0:0:0:
320,160,21808,1,0,0:0:0:0:
384,192,22011,1,8,0:0:0:0:
206,87,22112,1,8,0:0:0:0:
320,160,22214,1,0,0:0:0:0:
288,224,22315,1,8,0:0:0:0:
416,224,22416,1,8,0:0:0:0:
384,192,22518,1,8,0:0:0:0:
256,192,22619,1,0,0:0:0:0:
352,224,22822,1,8,0:0:0:0:
256,160,23024,1,0,0:0:0:0:
448,160,23125,1,8,0:0:0:0:
352,160,23227,1,8,0:0:0:0:
320,160,23429,1,0,0:0:0:0:
384,192,23632,1,8,0:0:0:0:
250,100,23734,1,8,0:0:0:0:
320,160,23835,1,0,0:0:0:0:
384,192,23936,1,8,0:0:0:0:
416,224,24037,1,8,0:0:0:0:
256,192,24240,1,0,0:0:0:0:
352,224,24443,1,8,0:0:0:0:
256,160,24646,1,0,0:0:0:0:
448,160,24747,1,8,0:0:0:0:
352,160,24849,1,8,0:0:0:0:
320,160,25051,1,0,0:0:0:0:
384,192,25254,1,8,0:0:0:0:
384,160,25355,1,8,0:0:0:0:
320,160,25457,1,0,0:0:0:0:
384,160,25558,1,8,0:0:0:0:
384,192,25659,1,8,0:0:0:0:
96,224,25862,5,0,0:0:0:0:
96,192,25930,1,0,0:0:0:0:
128,192,25997,1,0,0:0:0:0:
288,160,26065,1,8,0:0:0:0:
352,160,26166,1,8,0:0:0:0:
416,192,26267,1,0,0:0:0:0:
288,160,26470,1,0,0:0:0:0:
64,128,26673,1,8,0:0:0:0:
224,160,26876,1,0,0:0:0:0:
384,192,26977,1,0,0:0:0:0:
352,160,27078,1,8,0:0:0:0:
160,160,27281,1,0,0:0:0:0:
160,128,27382,1,8,0:0:0:0:
96,160,27585,1,8,0:0:0:0:
192,160,27686,1,0,0:0:0:0:
187,162,27889,1,0,0:0:0:0:
163,179,28092,1,8,0:0:0:0:
285,179,28193,1,8,0:0:0:0:
244,171,28294,1,0,0:0:0:0:
232,169,28497,1,0,0:0:0:0:
123,181,28700,1,8,0:0:0:0:
141,104,28801,1,0,0:0:0:0:
293,197,28903,1,8,0:0:0:0:
252,180,29004,1,0,0:0:0:0:
213,130,29105,1,0,0:0:0:0:
254,183,29308,1,8,0:0:0:0:
416,192,29511,1,0,0:0:0:0:
288,160,29714,1,0,0:0:0:0:
64,128,29917,1,8,0:0:0:0:
224,160,30120,1,0,0:0:0:0:
384,192,30221,1,0,0:0:0:0:
352,160,30322,1,8,0:0:0:0:
160,160,30525,1,0,0:0:0:0:
160,128,30626,1,8,0:0:0:0:
96,160,30829,1,8,0:0:0:0:
192,160,30930,1,0,0:0:0:0:
187,162,31133,1,0,0:0:0:0:
163,179,31336,1,8,0:0:0:0:
285,179,31437,1,8,0:0:0:0:
244,171,31538,1,0,0:0:0:0:
232,169,31741,1,0,0:0:0:0:
123,181,31944,1,8,0:0:0:0:
114,172,32045,1,8,0:0:0:0:
293,197,32147,1,8,0:0:0:0:
252,180,32248,1,0,0:0:0:0:
159,192,32349,1,0,0:0:0:0:
316,188,32551,1,8,0:0:0:0:
416,192,32754,1,0,0:0:0:0:
288,160,32957,1,0,0:0:0:0:
64,128,33160,1,8,0:0:0:0:
224,160,33363,1,0,0:0:0:0:
384,192,33464,1,0,0:0:0:0:
352,160,33565,1,8,0:0:0:0:
352,160,33667,1,8,0:0:0:0:
160,160,33768,1,0,0:0:0:0:
160,128,33869,1,8,0:0:0:0:
64,160,33971,1,0,0:0:0:0:
96,160,34072,1,8,0:0:0:0:
192,160,34173,1,0,0:0:0:0:
187,162,34376,1,0,0:0:0:0:
163,179,34579,1,8,0:0:0:0:
285,179,34680,1,8,0:0:0:0:
244,171,34781,1,0,0:0:0:0:
232,169,34984,1,0,0:0:0:0:
123,181,35187,1,8,0:0:0:0:
114,172,35288,1,0,0:0:0:0:
293,197,35390,1,8,0:0:0:0:
252,180,35491,1,0,0:0:0:0:
238,197,35592,1,0,0:0:0:0:
221,176,35794,1,8,0:0:0:0:
416,192,35997,1,0,0:0:0:0:
288,160,36200,1,0,0:0:0:0:
64,128,36403,1,8,0:0:0:0:
224,160,36606,1,0,0:0:0:0:
384,192,36707,1,0,0:0:0:0:
352,160,36808,1,8,0:0:0:0:
352,160,36910,1,8,0:0:0:0:
160,160,37011,1,0,0:0:0:0:
160,128,37112,1,8,0:0:0:0:
64,160,37214,1,0,0:0:0:0:
96,160,37315,1,8,0:0:0:0:
192,160,37416,1,0,0:0:0:0:
187,162,37619,1,0,0:0:0:0:
163,179,37822,1,8,0:0:0:0:
285,179,37923,1,8,0:0:0:0:
244,171,38024,1,0,0:0:0:0:
232,169,38227,1,0,0:0:0:0:
123,181,38430,1,8,0:0:0:0:
114,172,38531,1,8,0:0:0:0:
293,197,38633,1,8,0:0:0:0:
252,180,38734,1,0,0:0:0:0:
416,160,38835,5,0,0:0:0:0:
416,160,38903,1,0,0:0:0:0:
416,192,38970,1,0,0:0:0:0:
192,192,39038,1,8,0:0:0:0:
256,192,39139,1,8,0:0:0:0:
448,160,39240,5,0,0:0:0:0:
448,160,39443,1,8,0:0:0:0:
352,160,39646,1,0,0:0:0:0:
448,192,39747,1,8,0:0:0:0:
288,192,39950,1,0,0:0:0:0:
288,192,40153,1,0,0:0:0:0:
448,192,40254,1,0,0:0:0:0:
448,192,40457,1,8,0:0:0:0:
362,173,40659,1,8,0:0:0:0:
416,160,40862,1,0,0:0:0:0:
320,160,41065,1,8,0:0:0:0:
416,192,41267,1,0,0:0:0:0:
384,192,41369,1,8,0:0:0:0:
320,192,41571,1,0,0:0:0:0:
448,192,41774,1,8,0:0:0:0:
416,224,41876,1,8,0:0:0:0:
480,192,41977,1,0,0:0:0:0:
448,192,42078,1,0,0:0:0:0:
192,160,42484,1,0,0:0:0:0:
192,160,42585,1,0,0:0:0:0:
192,160,42686,1,0,0:0:0:0:
352,192,42788,1,0,0:0:0:0:
352,192,42889,1,8,0:0:0:0:
160,160,43092,1,0,0:0:0:0:
448,192,43193,1,0,0:0:0:0:
352,192,43396,1,8,0:0:0:0:
352,192,43498,1,0,0:0:0:0:
224,224,43700,1,8,0:0:0:0:
352,192,43903,1,0,0:0:0:0:
32,288,44004,5,0,0:0:0:0:
384,192,44105,1,8,0:0:0:0:
384,192,44409,1,8,0:0:0:0:
352,192,44511,1,0,0:0:0:0:
320,224,44713,1,0,0:0:0:0:
352,224,44916,1,8,0:0:0:0:
256,160,45119,1,8,0:0:0:0:
384,192,45321,1,0,0:0:0:0:
224,192,45524,1,8,0:0:0:0:
448,160,45727,5,0,0:0:0:0:
448,160,45930,1,8,0:0:0:0:
352,160,46133,1,0,0:0:0:0:
448,192,46234,1,8,0:0:0:0:
288,192,46437,1,0,0:0:0:0:
288,192,46640,1,0,0:0:0:0:
448,192,46741,1,0,0:0:0:0:
448,192,46944,1,8,0:0:0:0:
384,192,47146,1,8,0:0:0:0:
416,160,47349,1,0,0:0:0:0:
320,160,47552,1,8,0:0:0:0:
416,192,47754,1,0,0:0:0:0:
384,192,47856,1,8,0:0:0:0:
320,192,48058,1,0,0:0:0:0:
448,192,48261,1,8,0:0:0:0:
416,224,48363,1,8,0:0:0:0:
480,192,48463,1,8,0:0:0:0:
448,192,48565,1,0,0:0:0:0:
192,160,48971,1,0,0:0:0:0:
192,160,49072,1,0,0:0:0:0:
192,160,49173,1,0,0:0:0:0:
352,192,49275,1,0,0:0:0:0:
352,192,49376,1,8,0:0:0:0:
160,160,49578,1,0,0:0:0:0:
448,192,49680,1,0,0:0:0:0:
160,128,49882,1,8,0:0:0:0:
352,192,49985,1,0,0:0:0:0:
224,224,50187,1,8,0:0:0:0:
352,192,50390,1,0,0:0:0:0:
32,288,50491,5,0,0:0:0:0:
384,192,50592,1,8,0:0:0:0:
384,192,50896,5,8,0:0:0:0:
352,192,50998,1,0,0:0:0:0:
320,224,51200,1,0,0:0:0:0:
352,224,51403,1,8,0:0:0:0:
256,160,51606,1,8,0:0:0:0:
384,192,51808,1,0,0:0:0:0:
256,192,51876,1,0,0:0:0:0:
224,192,51943,1,0,0:0:0:0:
224,192,52011,1,8,0:0:0:0:
448,160,52112,1,8,0:0:0:0:
384,192,52213,1,0,0:0:0:0:
448,160,52416,1,8,0:0:0:0:
352,160,52619,1,0,0:0:0:0:
448,192,52720,1,8,0:0:0:0:
288,192,52923,1,0,0:0:0:0:
288,192,53126,1,0,0:0:0:0:
448,192,53227,1,0,0:0:0:0:
384,160,53328,1,0,0:0:0:0:
448,192,53430,1,8,0:0:0:0:
416,192,53632,1,8,0:0:0:0:
416,160,53835,1,0,0:0:0:0:
320,160,54038,1,8,0:0:0:0:
416,192,54240,1,0,0:0:0:0:
384,192,54342,1,8,0:0:0:0:
320,192,54544,1,0,0:0:0:0:
448,192,54747,1,8,0:0:0:0:
448,192,54849,1,0,0:0:0:0:
480,192,54950,1,0,0:0:0:0:
416,224,55051,1,8,0:0:0:0:
288,224,55254,1,8,0:0:0:0:
192,160,55457,1,0,0:0:0:0:
192,160,55558,1,0,0:0:0:0:
192,160,55659,1,0,0:0:0:0:
352,192,55761,1,0,0:0:0:0:
352,192,55862,1,8,0:0:0:0:
192,96,56065,1,0,0:0:0:0:
448,192,56166,1,0,0:0:0:0:
352,192,56369,1,8,0:0:0:0:
352,192,56471,1,0,0:0:0:0:
224,224,56673,1,8,0:0:0:0:
352,192,56876,1,0,0:0:0:0:
32,288,56977,5,0,0:0:0:0:
64,288,57028,1,0,0:0:0:0:
384,192,57078,1,8,0:0:0:0:
320,192,57281,1,0,0:0:0:0:
384,192,57382,1,8,0:0:0:0:
224,192,57484,1,0,0:0:0:0:
160,160,57686,1,0,0:0:0:0:
352,192,57889,1,8,0:0:0:0:
352,192,57990,1,0,0:0:0:0:
416,192,58092,1,8,0:0:0:0:
384,192,58294,1,0,0:0:0:0:
352,192,58497,1,8,0:0:0:0:
96,160,58700,1,0,0:0:0:0:
448,160,58903,1,8,0:0:0:0:
352,160,59106,1,0,0:0:0:0:
448,192,59207,1,8,0:0:0:0:
288,192,59410,1,0,0:0:0:0:
288,192,59613,1,0,0:0:0:0:
448,192,59714,1,0,0:0:0:0:
384,160,59815,1,0,0:0:0:0:
448,192,59917,1,8,0:0:0:0:
416,192,60119,1,8,0:0:0:0:
416,160,60322,1,0,0:0:0:0:
320,160,60525,1,8,0:0:0:0:
416,192,60727,1,0,0:0:0:0:
384,192,60829,1,8,0:0:0:0:
320,192,61031,1,0,0:0:0:0:
448,192,61234,1,8,0:0:0:0:
448,192,61336,1,0,0:0:0:0:
480,192,61437,1,0,0:0:0:0:
416,224,61538,1,8,0:0:0:0:
288,224,61741,1,8,0:0:0:0:
288,160,61943,5,0,0:0:0:0:
288,160,62044,1,0,0:0:0:0:
288,160,62146,1,0,0:0:0:0:
352,160,62247,1,0,0:0:0:0:
160,160,62349,1,8,0:0:0:0:
160,192,62551,1,0,0:0:0:0:
160,160,62754,1,0,0:0:0:0:
160,160,62855,1,0,0:0:0:0:
224,160,62957,1,8,0:0:0:0:
352,192,63058,1,0,0:0:0:0:
256,160,63159,1,8,0:0:0:0:
192,128,63362,1,0,0:0:0:0:
192,128,63565,1,0,0:0:0:0:
192,128,63666,1,0,0:0:0:0:
256,160,63767,1,8,0:0:0:0:
256,160,63869,1,8,0:0:0:0:
256,160,63970,5,0,0:0:0:0:
288,224,64038,1,0,0:0:0:0:
320,192,64105,1,0,0:0:0:0:
320,192,64173,1,8,0:0:0:0:
352,192,64274,1,0,0:0:0:0:
288,160,64376,5,8,0:0:0:0:
192,224,65186,1,4,0:0:0:0:
224,96,65389,1,0,0:0:0:0:
352,160,65490,1,8,0:0:0:0:
192,192,65592,1,0,0:0:0:0:
288,192,65794,1,8,0:0:0:0:
280,185,65896,1,0,0:0:0:0:
133,142,65997,1,0,0:0:0:0:
207,175,66200,1,0,0:0:0:0:
416,192,66403,1,8,0:0:0:0:
384,192,66605,1,0,0:0:0:0:
160,160,66808,1,12,0:0:0:0:
416,160,67011,1,0,0:0:0:0:
416,160,67112,1,0,0:0:0:0:
416,160,67213,1,0,0:0:0:0:
416,160,67416,1,8,0:0:0:0:
416,160,67619,1,0,0:0:0:0:
232,178,67720,1,0,0:0:0:0:
352,160,67821,1,0,0:0:0:0:
244,176,67923,1,0,0:0:0:0:
256,192,68024,1,8,0:0:0:0:
358,190,68227,1,8,0:0:0:0:
160,192,68430,1,4,0:0:0:0:
241,154,68632,1,0,0:0:0:0:
240,158,68734,1,0,0:0:0:0:
352,160,68835,1,0,0:0:0:0:
384,160,69038,1,0,0:0:0:0:
128,192,69240,1,12,0:0:0:0:
256,144,69443,1,0,0:0:0:0:
261,143,69544,1,0,0:0:0:0:
409,164,69646,1,8,0:0:0:0:
315,169,69849,1,0,0:0:0:0:
320,160,70051,1,0,0:0:0:0:
224,160,70254,1,0,0:0:0:0:
160,160,70355,1,0,0:0:0:0:
224,160,70457,1,8,0:0:0:0:
320,160,70659,1,8,0:0:0:0:
384,160,70761,1,8,0:0:0:0:
448,192,70862,1,0,0:0:0:0:
480,192,71267,1,8,0:0:0:0:
416,192,71369,1,8,0:0:0:0:
416,192,71470,1,8,0:0:0:0:
192,224,71673,1,4,0:0:0:0:
224,96,71876,1,0,0:0:0:0:
352,160,71977,1,8,0:0:0:0:
192,192,72079,1,0,0:0:0:0:
288,192,72281,1,8,0:0:0:0:
280,185,72383,1,0,0:0:0:0:
133,142,72484,1,0,0:0:0:0:
207,175,72687,1,0,0:0:0:0:
416,192,72890,1,8,0:0:0:0:
384,192,73092,1,0,0:0:0:0:
160,160,73295,1,12,0:0:0:0:
416,160,73498,1,0,0:0:0:0:
416,160,73599,1,0,0:0:0:0:
416,160,73700,1,0,0:0:0:0:
416,160,73903,1,8,0:0:0:0:
416,160,74106,1,0,0:0:0:0:
232,178,74207,1,0,0:0:0:0:
352,160,74308,1,0,0:0:0:0:
244,176,74410,1,0,0:0:0:0:
256,192,74511,1,8,0:0:0:0:
358,190,74714,1,8,0:0:0:0:
160,192,74917,1,4,0:0:0:0:
241,154,75119,1,0,0:0:0:0:
240,158,75221,1,0,0:0:0:0:
352,160,75322,1,0,0:0:0:0:
384,160,75525,5,0,0:0:0:0:
128,192,75727,1,12,0:0:0:0:
256,144,75930,1,0,0:0:0:0:
261,143,76031,1,0,0:0:0:0:
409,164,76133,1,8,0:0:0:0:
315,169,76336,1,0,0:0:0:0:
320,192,76538,5,0,0:0:0:0:
288,160,76740,1,8,0:0:0:0:
288,160,76842,1,8,0:0:0:0:
384,160,76943,1,8,0:0:0:0:
320,192,77146,1,8,0:0:0:0:
416,192,77349,1,0,0:0:0:0:
288,224,77754,5,0,0:0:0:0:
288,224,77821,1,0,0:0:0:0:
288,224,77889,1,0,0:0:0:0:
320,160,77957,1,8,0:0:0:0:
352,224,78058,1,8,0:0:0:0:
384,192,78159,1,0,0:0:0:0:
224,96,78362,1,0,0:0:0:0:
352,160,78463,1,8,0:0:0:0:
192,192,78565,1,0,0:0:0:0:
288,192,78767,1,8,0:0:0:0:
384,192,78970,1,0,0:0:0:0:
288,192,79072,1,0,0:0:0:0:
96,160,79173,1,8,0:0:0:0:
128,160,79274,1,8,0:0:0:0:
416,192,79376,1,0,0:0:0:0:
384,192,79578,1,0,0:0:0:0:
179,160,79680,1,0,0:0:0:0:
346,166,79781,1,8,0:0:0:0:
416,160,79984,1,0,0:0:0:0:
416,160,80085,1,0,0:0:0:0:
416,160,80186,1,0,0:0:0:0:
416,160,80389,1,0,0:0:0:0:
416,160,80592,1,8,0:0:0:0:
456,162,80693,1,8,0:0:0:0:
352,160,80794,1,0,0:0:0:0:
279,160,80896,1,0,0:0:0:0:
256,192,80997,1,8,0:0:0:0:
352,160,81200,1,8,0:0:0:0:
160,192,81403,1,4,0:0:0:0:
212,159,81605,1,0,0:0:0:0:
212,159,81707,1,0,0:0:0:0:
348,219,81808,1,8,0:0:0:0:
160,128,81909,1,8,0:0:0:0:
384,160,82011,1,0,0:0:0:0:
128,192,82213,1,12,0:0:0:0:
328,172,82416,1,0,0:0:0:0:
297,183,82517,1,8,0:0:0:0:
288,160,82619,1,8,0:0:0:0:
225,139,82720,1,8,0:0:0:0:
301,181,82821,1,0,0:0:0:0:
320,160,83024,1,0,0:0:0:0:
166,122,83126,1,0,0:0:0:0:
248,65,83227,1,8,0:0:0:0:
160,160,83328,1,8,0:0:0:0:
145,91,83430,1,0,0:0:0:0:
204,100,83531,1,0,0:0:0:0:
320,160,83632,1,8,0:0:0:0:
448,192,83734,1,0,0:0:0:0:
384,160,83835,1,8,0:0:0:0:
333,174,84038,1,8,0:0:0:0:
247,121,84240,1,0,0:0:0:0:
372,166,84342,1,0,0:0:0:0:
416,192,84443,1,8,0:0:0:0:
429,171,84544,1,8,0:0:0:0:
192,224,84646,1,0,0:0:0:0:
224,96,84849,1,0,0:0:0:0:
352,160,84950,1,8,0:0:0:0:
192,192,85052,1,0,0:0:0:0:
288,192,85254,1,8,0:0:0:0:
384,192,85457,1,0,0:0:0:0:
288,192,85559,1,0,0:0:0:0:
96,160,85660,1,8,0:0:0:0:
128,160,85761,1,8,0:0:0:0:
416,192,85863,1,0,0:0:0:0:
384,192,86065,1,0,0:0:0:0:
318,208,86166,1,0,0:0:0:0:
160,160,86268,1,8,0:0:0:0:
416,160,86471,1,0,0:0:0:0:
416,160,86572,1,0,0:0:0:0:
416,160,86673,1,0,0:0:0:0:
416,160,86876,1,0,0:0:0:0:
416,160,87079,1,8,0:0:0:0:
374,173,87180,1,8,0:0:0:0:
352,160,87281,1,0,0:0:0:0:
322,177,87382,5,0,0:0:0:0:
256,192,87484,1,8,0:0:0:0:
352,160,87687,1,8,0:0:0:0:
160,192,87890,1,4,0:0:0:0:
280,187,88092,1,0,0:0:0:0:
463,173,88193,1,8,0:0:0:0:
352,160,88295,1,0,0:0:0:0:
207,182,88396,1,0,0:0:0:0:
384,160,88498,1,0,0:0:0:0:
128,192,88700,1,12,0:0:0:0:
218,155,88903,1,0,0:0:0:0:
182,152,89004,1,8,0:0:0:0:
416,160,89106,1,8,0:0:0:0:
352,160,89208,1,0,0:0:0:0:
288,160,89309,1,0,0:0:0:0:
320,192,89511,5,8,0:0:0:0:
128,160,89815,1,8,0:0:0:0:
160,160,90119,1,8,0:0:0:0:
320,192,90321,1,12,0:0:0:0:
320,192,90727,1,12,0:0:0:0:
96,160,91132,1,0,0:0:0:0:
480,160,91335,1,8,0:0:0:0:
416,160,91538,1,0,0:0:0:0:
224,160,91740,1,8,0:0:0:0:
288,192,91842,1,0,0:0:0:0:
320,192,92044,1,8,0:0:0:0:
256,192,92146,1,0,0:0:0:0:
352,192,92349,1,0,0:0:0:0:
352,192,92551,1,8,0:0:0:0:
448,192,92754,1,0,0:0:0:0:
352,192,92957,1,8,0:0:0:0:
288,192,93159,1,0,0:0:0:0:
288,192,93362,1,8,0:0:0:0:
288,192,93463,1,0,0:0:0:0:
288,192,93666,1,0,0:0:0:0:
320,192,93767,1,0,0:0:0:0:
320,192,93869,1,8,0:0:0:0:
128,192,93970,1,0,0:0:0:0:
288,192,94173,1,0,0:0:0:0:
288,128,94376,1,8,0:0:0:0:
192,160,94578,1,0,0:0:0:0:
288,128,94680,1,8,0:0:0:0:
192,160,94882,1,0,0:0:0:0:
352,192,94984,1,8,0:0:0:0:
320,192,95186,1,8,0:0:0:0:
160,192,95389,1,0,0:0:0:0:
384,160,95490,1,0,0:0:0:0:
288,160,95592,1,8,0:0:0:0:
192,192,95794,1,0,0:0:0:0:
288,160,95997,1,0,0:0:0:0:
320,192,96201,1,8,0:0:0:0:
288,192,96302,1,0,0:0:0:0:
256,160,96504,1,8,0:0:0:0:
192,160,96605,1,0,0:0:0:0:
32,192,96808,1,8,0:0:0:0:
320,192,97011,1,0,0:0:0:0:
416,160,97112,1,8,0:0:0:0:
224,160,97213,1,0,0:0:0:0:
320,160,97416,1,8,0:0:0:0:
480,160,97822,1,8,0:0:0:0:
416,160,98025,1,0,0:0:0:0:
224,160,98227,1,8,0:0:0:0:
288,192,98329,1,0,0:0:0:0:
256,192,98531,1,0,0:0:0:0:
320,192,98632,1,8,0:0:0:0:
352,192,98836,1,0,0:0:0:0:
352,192,99038,1,8,0:0:0:0:
448,192,99241,1,0,0:0:0:0:
352,192,99444,1,8,0:0:0:0:
288,192,99646,1,0,0:0:0:0:
288,192,99849,1,8,0:0:0:0:
288,192,99950,1,0,0:0:0:0:
288,192,100153,1,0,0:0:0:0:
320,192,100254,1,8,0:0:0:0:
320,192,100356,1,8,0:0:0:0:
128,192,100457,1,0,0:0:0:0:
288,192,100660,1,0,0:0:0:0:
288,128,100863,1,8,0:0:0:0:
192,160,101065,1,0,0:0:0:0:
288,128,101167,1,8,0:0:0:0:
192,160,101369,1,0,0:0:0:0:
352,192,101471,1,8,0:0:0:0:
320,192,101673,1,8,0:0:0:0:
160,192,101876,1,0,0:0:0:0:
384,160,101977,1,0,0:0:0:0:
288,160,102079,1,8,0:0:0:0:
288,160,102281,1,8,0:0:0:0:
192,192,102484,1,0,0:0:0:0:
32,192,102686,1,8,0:0:0:0:
192,160,102788,1,0,0:0:0:0:
320,192,102991,1,8,0:0:0:0:
288,192,103092,1,0,0:0:0:0:
224,160,103294,1,8,0:0:0:0:
320,192,103498,1,0,0:0:0:0:
416,160,103599,1,8,0:0:0:0:
224,160,103700,1,0,0:0:0:0:
320,160,103903,1,8,0:0:0:0:
96,160,104105,1,0,0:0:0:0:
480,160,104308,1,8,0:0:0:0:
416,160,104511,1,0,0:0:0:0:
224,160,104713,1,8,0:0:0:0:
288,192,104815,1,0,0:0:0:0:
256,192,105017,1,0,0:0:0:0:
256,192,105119,1,0,0:0:0:0:
320,192,105220,1,8,0:0:0:0:
352,192,105322,1,0,0:0:0:0:
352,192,105524,1,8,0:0:0:0:
448,192,105727,1,0,0:0:0:0:
480,192,105828,1,0,0:0:0:0:
352,192,105930,1,8,0:0:0:0:
288,192,106132,1,0,0:0:0:0:
288,192,106335,1,8,0:0:0:0:
288,192,106436,1,0,0:0:0:0:
288,192,106639,1,0,0:0:0:0:
320,192,106740,1,8,0:0:0:0:
320,192,106842,1,8,0:0:0:0:
128,192,106943,1,0,0:0:0:0:
288,192,107146,1,0,0:0:0:0:
288,128,107349,1,8,0:0:0:0:
192,160,107450,1,0,0:0:0:0:
288,128,107653,1,8,0:0:0:0:
192,160,107754,1,0,0:0:0:0:
352,192,107957,1,8,0:0:0:0:
256,192,108058,1,0,0:0:0:0:
320,192,108159,1,8,0:0:0:0:
160,192,108362,1,0,0:0:0:0:
384,160,108463,1,0,0:0:0:0:
288,160,108565,1,8,0:0:0:0:
192,192,108767,1,0,0:0:0:0:
288,160,108970,1,0,0:0:0:0:
224,160,109072,1,8,0:0:0:0:
288,192,109275,1,0,0:0:0:0:
288,160,109376,1,8,0:0:0:0:
192,160,109578,1,0,0:0:0:0:
224,160,109680,1,8,0:0:0:0:
32,192,109781,1,8,0:0:0:0:
320,192,109984,1,0,0:0:0:0:
416,160,110085,1,8,0:0:0:0:
224,160,110186,1,0,0:0:0:0:
320,160,110389,1,8,0:0:0:0:
96,160,110592,1,0,0:0:0:0:
480,160,110795,1,8,0:0:0:0:
416,160,110998,1,0,0:0:0:0:
224,160,111200,1,8,0:0:0:0:
288,192,111302,1,0,0:0:0:0:
256,192,111504,1,0,0:0:0:0:
256,192,111606,1,0,0:0:0:0:
320,192,111707,1,8,0:0:0:0:
352,192,111809,1,0,0:0:0:0:
352,192,112011,1,8,0:0:0:0:
448,192,112214,1,0,0:0:0:0:
480,192,112315,1,0,0:0:0:0:
352,192,112417,1,8,0:0:0:0:
288,192,112619,1,0,0:0:0:0:
288,192,112822,1,8,0:0:0:0:
288,192,112923,1,0,0:0:0:0:
288,192,113126,1,0,0:0:0:0:
320,192,113227,1,8,0:0:0:0:
320,192,113329,1,8,0:0:0:0:
128,192,113430,1,0,0:0:0:0:
288,192,113633,1,0,0:0:0:0:
288,128,113836,1,8,0:0:0:0:
192,160,113937,1,0,0:0:0:0:
288,128,114140,1,8,0:0:0:0:
192,160,114241,1,0,0:0:0:0:
352,192,114444,1,8,0:0:0:0:
256,192,114545,1,0,0:0:0:0:
320,192,114646,1,8,0:0:0:0:
160,192,114849,1,0,0:0:0:0:
384,160,114950,1,0,0:0:0:0:
288,160,115052,1,8,0:0:0:0:
192,192,115254,1,0,0:0:0:0:
128,224,115457,5,0,0:0:0:0:
128,224,115761,5,0,0:0:0:0:
128,224,116065,5,0,0:0:0:0:
320,192,116267,1,8,0:0:0:0:
320,192,116673,1,0,0:0:0:0:
320,192,116875,1,8,0:0:0:0:
128,128,117078,1,0,0:0:0:0:
192,128,117281,1,0,0:0:0:0:
192,128,117382,1,0,0:0:0:0:
320,128,117484,1,8,0:0:0:0:
192,160,117686,1,0,0:0:0:0:
192,160,117788,1,0,0:0:0:0:
128,160,117889,1,8,0:0:0:0:
224,160,117990,1,0,0:0:0:0:
256,160,118092,1,0,0:0:0:0:
416,160,118193,1,8,0:0:0:0:
256,192,118294,1,0,0:0:0:0:
256,192,118396,1,0,0:0:0:0:
96,192,118497,1,8,0:0:0:0:
384,160,118700,1,0,0:0:0:0:
288,160,118903,1,8,0:0:0:0:
320,160,119004,1,0,0:0:0:0:
320,160,119105,1,0,0:0:0:0:
320,160,119308,1,0,0:0:0:0:
384,160,119511,1,8,0:0:0:0:
256,160,119612,1,0,0:0:0:0:
384,160,119713,1,0,0:0:0:0:
192,192,119815,1,8,0:0:0:0:
224,160,120119,1,8,0:0:0:0:
128,128,120321,1,0,0:0:0:0:
192,128,120524,1,0,0:0:0:0:
192,128,120625,1,0,0:0:0:0:
320,128,120727,1,8,0:0:0:0:
192,160,120929,1,0,0:0:0:0:
128,160,121132,1,8,0:0:0:0:
224,160,121233,1,0,0:0:0:0:
256,160,121335,1,0,0:0:0:0:
416,160,121436,1,8,0:0:0:0:
256,192,121537,1,0,0:0:0:0:
256,192,121639,1,0,0:0:0:0:
96,192,121740,1,8,0:0:0:0:
384,160,121943,1,0,0:0:0:0:
288,160,122146,1,8,0:0:0:0:
320,160,122348,1,0,0:0:0:0:
320,160,122450,1,0,0:0:0:0:
320,160,122551,1,8,0:0:0:0:
384,160,122754,1,8,0:0:0:0:
192,192,122855,1,8,0:0:0:0:
384,160,122957,1,8,0:0:0:0:
256,160,123058,1,0,0:0:0:0:
192,160,123362,1,8,0:0:0:0:
224,160,123565,1,0,0:0:0:0:
224,128,123767,1,0,0:0:0:0:
288,160,123970,1,8,0:0:0:0:
288,192,124173,1,0,0:0:0:0:
352,160,124376,5,0,0:0:0:0:
384,192,124443,1,8,0:0:0:0:
416,160,124511,1,8,0:0:0:0:
352,160,124578,1,0,0:0:0:0:
384,160,124646,1,8,0:0:0:0:
416,160,124713,1,8,0:0:0:0:
224,192,124781,1,0,0:0:0:0:
352,192,124849,1,8,0:0:0:0:
288,160,124916,1,8,0:0:0:0:
352,192,124984,1,8,0:0:0:0:
288,160,125051,1,8,0:0:0:0:
352,192,125119,1,8,0:0:0:0:
192,96,125186,1,0,0:0:0:0:
160,192,125288,1,0,0:0:0:0:
480,224,125389,1,8,0:0:0:0:
480,192,125490,1,8,0:0:0:0:
224,192,125592,1,0,0:0:0:0:
256,192,125693,1,0,0:0:0:0:
256,192,125794,1,0,0:0:0:0:
256,192,125896,1,8,0:0:0:0:
96,192,125997,1,0,0:0:0:0:
256,192,126200,1,8,0:0:0:0:
416,192,126301,1,0,0:0:0:0:
256,128,126504,1,0,0:0:0:0:
192,192,126605,1,8,0:0:0:0:
192,192,126707,1,8,0:0:0:0:
160,224,126808,1,0,0:0:0:0:
320,192,127011,1,0,0:0:0:0:
320,160,127112,1,0,0:0:0:0:
416,160,127213,1,8,0:0:0:0:
224,160,127315,1,0,0:0:0:0:
352,192,127416,1,8,0:0:0:0:
320,192,127517,1,8,0:0:0:0:
320,192,127619,1,8,0:0:0:0:
320,192,127720,1,0,0:0:0:0:
320,192,127821,1,0,0:0:0:0:
352,192,127923,1,8,0:0:0:0:
384,192,128024,1,8,0:0:0:0:
384,192,128126,1,0,0:0:0:0:
384,192,128227,1,8,0:0:0:0:
480,192,128328,1,8,0:0:0:0:
448,192,128430,1,8,0:0:0:0:
448,160,128531,1,0,0:0:0:0:
384,192,128734,1,8,0:0:0:0:
480,192,128835,1,8,0:0:0:0:
416,192,128936,1,0,0:0:0:0:
448,192,129038,1,8,0:0:0:0:
352,192,129139,1,0,0:0:0:0:
480,192,129240,5,8,0:0:0:0:
448,192,129342,1,8,0:0:0:0:
448,192,129443,1,8,0:0:0:0:
416,192,129544,1,0,0:0:0:0:
416,192,129646,1,0,0:0:0:0:
416,192,129747,1,0,0:0:0:0:
416,192,129849,1,8,0:0:0:0:
288,160,130051,5,8,0:0:0:0:
288,160,130153,1,0,0:0:0:0:
320,160,130254,1,8,0:0:0:0:
352,192,130355,1,8,0:0:0:0:
256,192,130457,1,0,0:0:0:0:
256,192,130558,1,0,0:0:0:0:
288,224,130659,1,8,0:0:0:0:
224,192,130761,1,0,0:0:0:0:
288,192,130862,1,8,0:0:0:0:
288,192,130963,1,0,0:0:0:0:
288,192,131065,1,0,0:0:0:0:
320,192,131166,1,8,0:0:0:0:
224,224,131267,1,0,0:0:0:0:
224,224,131369,1,0,0:0:0:0:
320,192,131470,1,8,0:0:0:0:
320,192,131571,1,8,0:0:0:0:
384,256,131673,1,8,0:0:0:0:
384,256,131774,1,8,0:0:0:0:
288,224,131977,1,8,0:0:0:0:
224,192,132078,1,0,0:0:0:0:
288,192,132281,1,0,0:0:0:0:
288,224,132484,1,8,0:0:0:0:
288,192,132686,1,8,0:0:0:0:
320,192,132889,1,4,0:0:0:0:
