osu file format v14

[General]
AudioFilename: audio.mp3
AudioLeadIn: 0
PreviewTime: 64094
Countdown: 0
SampleSet: Soft
StackLeniency: 0
Mode: 0
LetterboxInBreaks: 0
WidescreenStoryboard: 1

[Editor]
Bookmarks: 19499,38959,65006,90851,116797,129770
DistanceSpacing: 0.56
BeatDivisor: 4
GridSize: 32
TimelineZoom: 2.7

[Metadata]
Title:Death by Glamour
TitleUnicode:Death by Glamour
Artist:toby fox
ArtistUnicode:toby fox
Creator:Velamy
Version:sukii's Hidden Extra
Source:UNDERTALE
Tags:themagicanimals the magic animals arphimigon deglegneg deg leg neg take sinyus20 sukii vetoed penta -penta pentacoilz yoshiman01 thecosmicchef the cosmic chef an3 -_sandy spxderweeb andrai ai_haibara mettaton undertale indie game rpg jrpg video videogame vgm instrumental soundtrack
BeatmapID:4413369
BeatmapSetID:2036330

[Difficulty]
HPDrainRate:0
CircleSize:0
OverallDifficulty:0
ApproachRate:0
SliderMultiplier:2.22
SliderTickRate:1

[Events]
//Background and Video events
0,0,"thumb-1920-731367.png",0,0
//Break Periods
//Storyboard Layer 0 (Background)
//Storyboard Layer 1 (Fail)
//Storyboard Layer 2 (Pass)
//Storyboard Layer 3 (Foreground)
//Storyboard Layer 4 (Overlay)
//Storyboard Sound Samples

[TimingPoints]
40,405.406385737439,4,2,0,40,1,0
25986,-81.9672131147541,4,2,0,40,0,0
38959,-75.187969924812,4,2,0,40,0,0
51932,-60.2409638554217,4,2,0,40,0,0
64905,-45.045045045045,4,2,0,40,0,1
65411,-81.9672131147541,4,2,0,40,0,1
65715,-45.045045045045,4,2,0,40,0,1
66323,-69.4444444444444,4,2,0,40,0,1
66932,-47.39336492891,4,2,0,40,0,1
68756,-53.1914893617021,4,2,0,40,0,1
68959,-64.5161290322581,4,2,0,40,0,1
70580,-39.2156862745098,4,2,0,40,0,1
71391,-45.045045045045,4,2,0,40,0,1
71897,-81.9672131147541,4,2,0,40,0,1
72201,-45.045045045045,4,2,0,40,0,1
72809,-69.4444444444444,4,2,0,40,0,1
73418,-47.39336492891,4,2,0,40,0,1
75242,-53.1914893617021,4,2,0,40,0,1
75445,-64.5161290322581,4,2,0,40,0,1
76256,-45.045045045045,4,2,0,40,0,1
77066,-39.2156862745098,4,2,0,40,0,1
77472,-81.9672131147541,4,2,0,40,0,1
77878,-45.045045045045,4,2,0,40,0,1
78486,-81.9672131147541,4,2,0,40,0,1
78688,-45.045045045045,4,2,0,40,0,1
79296,-69.4444444444444,4,2,0,40,0,1
79905,-47.39336492891,4,2,0,40,0,1
81729,-53.1914893617021,4,2,0,40,0,1
81932,-47.39336492891,4,2,0,40,0,1
83553,-39.2156862745098,4,2,0,40,0,1
84364,-45.045045045045,4,2,0,40,0,1
84972,-81.9672131147541,4,2,0,40,0,1
85174,-45.045045045045,4,2,0,40,0,1
85782,-69.4444444444444,4,2,0,40,0,1
86391,-47.39336492891,4,2,0,40,0,1
88215,-53.1914893617021,4,2,0,40,0,1
88418,-64.5161290322581,4,2,0,40,0,1
89229,-64.5161290322581,4,2,0,40,0,0
90039,-39.2156862745098,4,2,0,40,0,0
90851,-75.187969924812,4,2,0,40,0,0
116797,-39.2156862745098,4,2,0,40,0,0
119026,-53.1914893617021,4,2,0,40,0,0
119229,-39.2156862745098,4,2,0,40,0,0
122270,-53.1914893617021,4,2,0,40,0,0
122472,-39.2156862745098,4,2,0,40,0,0
122776,-37.593984962406,4,2,0,40,0,0
123486,-39.2156862745098,4,2,0,40,0,0

[Colours]
Combo1 : 255,255,0
Combo2 : 0,255,0
Combo3 : 0,128,255
Combo4 : 255,0,0

[HitObjects]
0,196,19499,6,0,L|66:180,1,55.5,2|0,1:2|0:0,0:0:0:0:
87,214,19702,2,0,L|153:230,1,55.5,0|2,3:2|3:2,0:0:0:0:
250,191,19904,5,10,1:2:0:0:
237,175,20107,5,0,3:2:0:0:
240,164,20208,1,0,3:2:0:0:
245,152,20310,2,0,L|311:136,1,55.5,2|0,1:2|3:2,0:0:0:0:
332,170,20513,2,0,L|398:186,1,55.5,0|2,3:2|3:2,0:0:0:0:
495,147,20715,5,8,1:2:0:0:
492,263,20918,1,2,3:2:0:0:
284,346,21323,6,0,L|350:330,1,55.5,2|0,3:2|0:0,0:0:0:0:
447,369,21525,1,10,1:2:0:0:
262,320,21729,5,0,3:2:0:0:
259,331,21830,1,0,3:2:0:0:
254,343,21932,2,0,L|188:359,1,55.5,2|0,1:2|3:2,0:0:0:0:
167,325,22135,2,0,L|101:309,1,55.5,0|2,3:2|3:2,0:0:0:0:
4,348,22337,5,8,1:2:0:0:
0,186,22742,6,0,L|66:202,1,55.5,2|0,1:2|0:0,0:0:0:0:
87,168,22945,2,0,L|153:152,1,55.5,0|2,3:2|3:2,0:0:0:0:
253,173,23147,5,10,1:2:0:0:
240,189,23350,5,0,3:2:0:0:
243,200,23451,1,0,3:2:0:0:
248,212,23553,2,0,L|314:228,1,55.5,2|0,1:2|3:2,0:0:0:0:
335,194,23756,2,0,L|401:178,1,55.5,0|2,3:2|3:2,0:0:0:0:
495,237,23958,5,8,1:2:0:0:
492,121,24161,1,2,3:2:0:0:
284,38,24566,6,0,L|350:54,1,55.5,2|0,3:2|0:0,0:0:0:0:
447,15,24768,1,10,1:2:0:0:
262,64,24972,5,0,3:2:0:0:
259,53,25073,1,0,3:2:0:0:
254,41,25175,2,0,L|188:25,1,55.5,2|0,1:2|3:2,0:0:0:0:
167,59,25378,2,0,L|101:75,1,55.5,0|2,3:2|3:2,0:0:0:0:
8,43,25580,6,0,L|19:0,2,27.75,8|8|8,1:2|0:0|3:2,0:0:0:0:
23,155,25783,5,8,3:1:0:0:
28,173,25884,1,8,2:1:0:0:
8,287,25986,6,0,L|152:326,1,135.419994420868,4|2,1:2|3:2,0:0:0:0:
162,309,26290,1,0,3:2:0:0:
151,185,26391,6,0,L|295:224,1,135.419994420868,10|2,1:2|3:2,0:0:0:0:
495,345,26796,6,0,L|512:255,1,67.7099972104341,2|0,1:2|3:2,0:0:0:0:
406,229,26999,1,2,3:2:0:0:
392,248,27100,2,0,L|375:338,1,67.7099972104341,2|8,3:2|1:2,0:0:0:0:
493,157,27303,1,2,0:0:0:0:
485,129,27404,1,2,3:2:0:0:
176,41,27810,6,0,L|260:11,1,67.7099972104341,2|0,3:2|0:0,0:0:0:0:
266,125,28013,2,0,L|182:155,1,67.7099972104341,10|0,1:2|0:0,0:0:0:0:
129,237,28215,2,0,L|213:267,1,67.7099972104341,2|0,3:2|3:2,0:0:0:0:
162,369,28418,2,0,L|78:339,1,67.7099972104341,2|0,1:2|3:2,0:0:0:0:
280,348,28621,5,2,3:2:0:0:
296,355,28722,2,0,L|372:325,1,67.7099972104341,2|8,3:2|1:2,0:0:0:0:
512,187,28925,1,2,0:0:0:0:
509,171,29026,2,0,L|351:235,1,135.419994420868,2|0,3:2|1:2,0:0:0:0:
252,24,29431,6,0,L|283:111,1,67.7099972104341,2|0,3:2|3:2,0:0:0:0:
228,239,29634,2,0,L|257:70,1,135.419994420868,10|2,1:2|3:2,0:0:0:0:
0,36,30040,6,0,L|90:19,1,67.7099972104341,2|0,1:2|3:2,0:0:0:0:
116,125,30243,1,2,3:2:0:0:
97,139,30344,2,0,L|7:156,1,67.7099972104341,2|8,3:2|1:2,0:0:0:0:
8,265,30547,1,2,0:0:0:0:
36,273,30648,1,2,3:2:0:0:
171,366,31053,6,0,L|141:282,1,67.7099972104341,2|0,3:2|0:0,0:0:0:0:
255,276,31256,2,0,L|285:360,1,67.7099972104341,10|0,1:2|0:0,0:0:0:0:
380,281,31458,2,0,L|410:197,1,67.7099972104341,2|0,3:2|3:2,0:0:0:0:
512,248,31661,2,0,L|482:332,1,67.7099972104341,2|0,1:2|3:2,0:0:0:0:
487,135,31864,5,2,3:2:0:0:
494,119,31965,2,0,L|464:43,1,67.7099972104341,2|8,3:2|1:2,0:0:0:0:
358,30,32168,1,2,0:0:0:0:
354,47,32269,1,2,3:2:0:0:
238,274,32472,6,0,L|277:130,1,135.419994420868,0|2,1:2|3:2,0:0:0:0:
260,120,32776,1,0,3:2:0:0:
134,139,32877,6,0,L|173:-5,1,135.419994420868,10|2,1:2|3:2,0:0:0:0:
0,168,33282,6,0,L|14:258,1,67.7099972104341,2|0,1:2|3:2,0:0:0:0:
123,246,33485,1,2,3:2:0:0:
129,223,33586,2,0,L|114:132,1,67.7099972104341,2|8,3:2|1:2,0:0:0:0:
59,337,33789,1,2,0:0:0:0:
76,361,33890,1,2,3:2:0:0:
268,254,34296,6,0,L|352:224,1,67.7099972104341,2|0,3:2|0:0,0:0:0:0:
358,338,34499,2,0,L|274:368,1,67.7099972104341,10|0,1:2|0:0,0:0:0:0:
434,222,34701,2,0,L|518:252,1,67.7099972104341,2|0,3:2|3:2,0:0:0:0:
467,354,34904,2,0,L|383:324,1,67.7099972104341,2|0,1:2|3:2,0:0:0:0:
279,80,35107,5,2,3:2:0:0:
296,78,35208,2,0,L|372:108,1,67.7099972104341,2|8,3:2|1:2,0:0:0:0:
512,119,35411,1,2,0:0:0:0:
509,135,35512,2,0,L|351:71,1,135.419994420868,2|0,3:2|1:2,0:0:0:0:
123,240,35917,6,0,L|154:153,1,67.7099972104341,2|0,3:2|3:2,0:0:0:0:
152,20,36120,2,0,L|181:189,1,135.419994420868,10|2,1:2|3:2,0:0:0:0:
238,240,36526,6,0,L|255:330,1,67.7099972104341,2|0,1:2|3:2,0:0:0:0:
149,356,36729,1,2,3:2:0:0:
135,337,36830,2,0,L|118:247,1,67.7099972104341,2|8,3:2|1:2,0:0:0:0:
9,248,37033,1,2,0:0:0:0:
1,276,37134,1,2,3:2:0:0:
152,20,37539,6,0,L|122:104,1,67.7099972104341,2|0,3:2|0:0,0:0:0:0:
236,110,37742,2,0,L|266:26,1,67.7099972104341,10|0,1:2|0:0,0:0:0:0:
475,39,37944,2,0,L|497:102,1,67.7099972104341,2|0,3:2|3:2,0:0:0:0:
388,133,38147,2,0,L|365:69,1,67.7099972104341,2|0,1:2|3:2,0:0:0:0:
305,204,38350,1,2,3:2:0:0:
300,222,38452,1,2,3:2:0:0:
217,299,38553,6,0,L|160:280,2,33.854998605217,8|8|8,1:2|0:0|3:2,0:0:0:0:
294,373,38756,5,8,3:1:0:0:
316,364,38857,1,0,0:0:0:0:
370,348,38959,6,0,L|397:255,1,73.8149969589158,6|0,1:2|0:0,0:0:0:0:
498,302,39161,2,0,L|471:395,1,73.8149969589158,2|0,3:2|3:2,0:0:0:0:
230,328,39364,5,10,1:2:0:0:
222,340,39465,2,0,L|182:218,1,73.8149969589158,2|0,0:0|3:2,0:0:0:0:
152,81,39668,6,0,B|202:69|202:69|229:175,1,147.629993917832,2|2,3:2|3:2,0:0:0:0:
61,202,39972,5,2,3:2:0:0:
46,197,40073,1,2,0:0:0:0:
0,160,40175,2,0,L|42:-39,1,147.629993917832,10|2,1:2|3:2,0:0:0:0:
342,70,40580,5,2,1:2:0:0:
459,34,40783,1,2,3:2:0:0:
436,146,40986,5,10,1:2:0:0:
441,163,41087,1,2,0:0:0:0:
236,17,41290,6,0,L|204:186,1,147.629993917832,2|2,3:2|0:0,0:0:0:0:
184,180,41594,1,2,3:2:0:0:
255,371,41796,5,10,1:2:0:0:
276,264,41999,1,2,3:2:0:0:
14,333,42202,5,2,1:2:0:0:
36,344,42303,1,2,0:0:0:0:
140,302,42404,5,2,3:2:0:0:
157,298,42506,1,2,0:0:0:0:
262,357,42607,5,10,1:2:0:0:
68,9,43722,5,2,0:0:0:0:
63,23,43773,5,2,0:0:0:0:
58,36,43823,6,0,L|288:118,1,221.444990876748,2|2,1:2|3:2,0:0:0:0:
509,42,44431,5,2,3:2:0:0:
346,15,44633,5,2,1:2:0:0:
394,123,44837,1,2,3:2:0:0:
265,346,45040,1,10,1:2:0:0:
301,224,45242,1,2,3:2:0:0:
512,302,45445,6,0,L|485:395,1,73.8149969589158,6|0,1:2|0:0,0:0:0:0:
384,346,45647,2,0,L|411:253,1,73.8149969589158,2|0,3:2|3:2,0:0:0:0:
249,359,45850,5,10,1:2:0:0:
241,371,45951,2,0,L|201:249,1,73.8149969589158,2|0,0:0|3:2,0:0:0:0:
17,285,46154,6,0,B|14:336|14:336|120:358,1,147.629993917832,2|2,3:2|3:2,0:0:0:0:
207,161,46458,5,2,3:2:0:0:
202,146,46559,1,2,0:0:0:0:
165,100,46661,2,0,L|-34:142,1,147.629993917832,10|2,1:2|3:2,0:0:0:0:
319,208,47066,5,2,1:2:0:0:
238,299,47269,1,2,3:2:0:0:
119,221,47472,5,10,1:2:0:0:
124,238,47573,1,2,0:0:0:0:
340,189,47776,6,0,L|525:227,1,147.629993917832,2|2,3:2|0:0,0:0:0:0:
503,241,48080,1,2,3:2:0:0:
257,7,48282,5,10,1:2:0:0:
231,124,48485,1,2,3:2:0:0:
391,353,48688,5,2,1:2:0:0:
402,331,48789,1,2,0:0:0:0:
357,224,48890,5,2,3:2:0:0:
353,207,48992,1,2,0:0:0:0:
421,88,49093,5,10,1:2:0:0:
33,367,50209,5,2,0:0:0:0:
28,353,50259,5,2,0:0:0:0:
23,340,50309,6,0,L|253:258,1,221.444990876748,2|2,1:2|3:2,0:0:0:0:
24,49,50917,5,2,3:2:0:0:
133,17,51121,5,2,1:2:0:0:
166,120,51323,1,2,3:2:0:0:
394,177,51526,6,0,L|384:125,2,36.9074984794579,8|8|8,1:2|0:0|3:2,0:0:0:0:
475,57,51728,1,8,3:1:0:0:
460,40,51830,1,8,2:1:0:0:
476,10,51932,6,0,L|522:273,1,184.260002671005,6|2,1:2|3:2,0:0:0:0:
437,372,52337,1,10,1:2:0:0:
421,370,52438,2,0,L|442:258,1,92.1300013355027,2|0,0:0|3:2,0:0:0:0:
270,141,52641,2,0,L|295:266,1,92.1300013355027,2|0,3:2|1:2,0:0:0:0:
145,355,52844,5,2,3:2:0:0:
112,343,52945,1,2,3:2:0:0:
83,333,53046,1,2,0:0:0:0:
22,352,53148,6,0,L|88:168,1,184.260002671005,10|2,1:2|3:2,0:0:0:0:
262,372,53553,5,2,1:2:0:0:
303,252,53756,1,2,3:2:0:0:
202,23,53959,5,10,1:2:0:0:
196,39,54060,1,2,0:0:0:0:
472,74,54263,6,0,L|294:123,1,184.260002671005,2|2,3:2|0:0,0:0:0:0:
268,137,54567,1,2,3:2:0:0:
22,32,54769,5,10,1:2:0:0:
59,158,54972,1,2,3:2:0:0:
234,370,55175,5,2,1:2:0:0:
223,348,55276,1,2,0:0:0:0:
317,275,55377,5,2,3:2:0:0:
321,258,55479,1,2,0:0:0:0:
245,154,55580,5,10,1:2:0:0:
468,14,56695,5,2,0:0:0:0:
481,16,56746,5,2,0:0:0:0:
496,18,56796,6,0,L|441:336,1,276.390004006508,2|2,1:2|3:2,0:0:0:0:
280,26,57405,5,2,3:2:0:0:
80,122,57607,5,2,1:2:0:0:
28,21,57810,1,2,3:2:0:0:
231,165,58013,5,10,1:2:0:0:
46,363,58418,6,0,L|0:100,1,184.260002671005,6|2,1:2|3:2,0:0:0:0:
202,176,58823,1,10,1:2:0:0:
213,190,58924,2,0,L|192:302,1,92.1300013355027,2|0,0:0|3:2,0:0:0:0:
346,348,59127,2,0,L|321:223,1,92.1300013355027,2|0,3:2|1:2,0:0:0:0:
390,148,59330,5,2,3:2:0:0:
423,157,59431,1,2,3:2:0:0:
453,164,59532,1,2,0:0:0:0:
512,140,59634,6,0,L|462:329,1,184.260002671005,10|2,1:2|3:2,0:0:0:0:
230,175,60039,5,2,1:2:0:0:
271,55,60242,1,2,3:2:0:0:
455,16,60445,5,10,1:2:0:0:
449,32,60546,1,2,0:0:0:0:
213,190,60749,6,0,L|35:141,1,184.260002671005,2|2,3:2|0:0,0:0:0:0:
9,127,61053,1,2,3:2:0:0:
337,152,61255,5,10,1:2:0:0:
345,291,61458,1,2,3:2:0:0:
96,298,61661,5,2,1:2:0:0:
118,287,61762,1,2,0:0:0:0:
208,365,61863,5,2,3:2:0:0:
225,369,61965,1,2,0:0:0:0:
326,308,62066,5,10,1:2:0:0:
424,50,62472,5,2,1:2:0:0:
402,39,62573,1,2,3:2:0:0:
315,132,62674,5,2,3:2:0:0:
298,136,62776,1,2,3:2:0:0:
194,60,62877,5,10,1:2:0:0:
47,65,63283,5,2,1:2:0:0:
31,117,63384,1,2,3:2:0:0:
15,170,63486,1,2,3:2:0:0:
0,223,63587,1,2,3:2:0:0:
90,327,63688,5,8,1:2:0:0:
74,275,63789,1,10,3:2:0:0:
58,222,63891,1,8,3:1:0:0:
43,169,63992,1,8,3:1:0:0:
167,75,64094,5,4,0:0:0:0:
244,365,64499,5,2,3:2:0:0:
238,353,64600,1,2,0:0:0:0:
275,248,64702,1,2,0:0:0:0:
279,233,64803,1,2,0:0:0:0:
167,196,64905,6,0,B|184:272|184:272|348:302|348:302|492:212|492:212|460:95,1,492.840012032227,6|8,1:2|1:2,0:0:0:0:
400,59,65411,2,0,B|371:79|371:79|365:141,2,67.7099972104341,2|2|2,0:0|3:2|3:2,0:0:0:0:
512,154,65715,6,0,B|186:89|186:89|160:45,1,369.63000902417,2|0,1:2|0:0,0:0:0:0:
278,60,66121,1,8,1:2:0:0:
152,73,66323,6,0,L|158:152,1,79.9200019511719,2|0,3:2|3:2,0:0:0:0:
502,14,66526,1,6,1:2:0:0:
30,370,66932,6,0,L|434:295,1,351.315007236866,10|0,1:2|3:2,0:0:0:0:
456,220,67337,1,2,1:2:0:0:
478,231,67438,2,0,B|495:255|495:255|494:354,2,117.105002412289,0|0|0,3:2|0:0|0:0,0:0:0:0:
411,118,67742,1,10,1:2:0:0:
23,41,68148,6,0,B|139:28|139:28|193:69|193:69|219:240|219:240|214:251|214:251|73:281,1,468.420009649155,6|8,1:2|1:2,0:0:0:0:
98,269,68756,6,0,L|88:162,1,104.339998407898,2|0,3:2|3:2,0:0:0:0:
369,6,68959,6,0,B|368:44|368:44|311:370,1,344.100002625275,6|8,1:2|1:2,0:0:0:0:
308,364,69567,6,0,L|281:268,1,86.0250006563187,2|0,3:2|3:2,0:0:0:0:
254,33,69769,5,6,1:2:0:0:
420,110,69871,1,2,0:0:0:0:
307,131,69972,1,2,3:2:0:0:
235,47,70175,5,14,1:2:0:0:
302,248,70277,1,2,0:0:0:0:
202,172,70378,1,2,3:2:0:0:
212,38,70580,6,0,L|154:347,1,283.049996220875,6|0,1:2|0:0,0:0:0:0:
485,347,70986,6,0,L|421:17,1,283.049996220875,8|2,1:2|3:2,0:0:0:0:
458,69,71290,5,2,3:2:0:0:
509,173,71391,2,0,B|502:248|502:248|343:297|343:297|182:226|182:226|199:142,1,492.840012032227,6|8,1:2|1:2,0:0:0:0:
76,152,71898,2,0,B|57:126|57:126|-22:118,2,67.7099972104341,2|2|2,0:0|3:2|3:2,0:0:0:0:
0,230,72202,6,0,B|39:209|39:209|374:344,1,369.63000902417,2|0,1:2|0:0,0:0:0:0:
280,238,72607,1,8,1:2:0:0:
370,312,72810,6,0,L|461:287,1,79.9200019511719,2|0,3:2|3:2,0:0:0:0:
502,14,73013,1,6,1:2:0:0:
8,106,73418,6,0,L|410:15,1,351.315007236866,10|0,1:2|3:2,0:0:0:0:
474,25,73823,1,2,1:2:0:0:
459,20,73925,2,0,B|448:109|448:109|422:158,2,117.105002412289,0|0|0,3:2|0:0|0:0,0:0:0:0:
328,148,74229,1,10,1:2:0:0:
239,370,74634,6,0,B|255:360|255:360|285:72|285:72|274:62|274:62|142:86|142:86|98:119,1,468.420009649155,6|8,1:2|1:2,0:0:0:0:
109,113,75242,6,0,L|130:229,1,104.339998407898,2|0,3:2|3:2,0:0:0:0:
502,14,75445,6,0,L|458:385,1,344.100002625275,6|8,1:2|1:2,0:0:0:0:
446,369,76053,6,0,P|373:355|329:348,1,86.0250006563187,2|0,3:2|3:2,0:0:0:0:
12,233,76256,6,0,B|34:223|34:223|279:171,1,246.420006016113,6|2,1:2|3:2,0:0:0:0:
349,228,76560,1,2,3:2:0:0:
264,142,76661,1,14,1:2:0:0:
136,371,76864,5,2,3:2:0:0:
480,99,77067,2,0,B|369:86|369:86|321:33|321:33|212:24,1,283.049996220875,6|0,1:2|0:0,0:0:0:0:
253,369,77472,6,0,L|247:321,2,33.854998605217,8|8|10,1:2|0:0|3:2,0:0:0:0:
137,263,77675,5,8,3:1:0:0:
141,239,77776,1,8,3:1:0:0:
217,155,77878,6,0,B|232:160|232:160|263:215|263:215|448:229|448:229|464:221|464:221|474:110|474:110|466:97|466:97|393:89|393:89|372:106,1,492.840012032227,6|8,1:2|1:2,0:0:0:0:
358,210,78384,1,2,0:0:0:0:
349,228,78486,2,0,L|372:333,1,67.7099972104341,2|2,3:2|3:2,0:0:0:0:
66,9,78688,6,0,B|55:28|55:28|17:340|17:340|-2:379,1,369.63000902417,2|0,1:2|0:0,0:0:0:0:
79,286,79094,1,8,1:2:0:0:
90,272,79296,6,0,L|233:241,1,79.9200019511719,2|0,3:2|3:2,0:0:0:0:
502,370,79499,1,6,1:2:0:0:
425,8,79905,6,0,B|338:31|338:31|303:85|303:85|59:141,1,351.315007236866,10|0,1:2|3:2,0:0:0:0:
12,194,80310,1,2,1:2:0:0:
1,179,80411,2,0,L|21:304,2,117.105002412289,0|0|0,3:2|0:0|0:0,0:0:0:0:
30,53,80715,1,10,1:2:0:0:
262,371,81121,6,0,B|278:354|278:354|300:93,1,234.210004824577,6|0,1:2|3:2,0:0:0:0:
323,123,81425,1,0,3:2:0:0:
422,194,81526,1,8,1:2:0:0:
238,45,81729,6,0,B|183:46|183:46|105:-17,1,104.339998407898,2|0,3:2|3:2,0:0:0:0:
439,205,81932,6,0,B|396:198|396:198|87:294,1,351.315007236866,6|0,1:2|0:0,0:0:0:0:
165,204,82337,1,8,1:2:0:0:
394,359,82540,5,2,3:2:0:0:
37,203,82742,5,6,1:2:0:0:
152,176,82844,1,2,0:0:0:0:
87,310,82945,1,2,3:2:0:0:
212,62,83148,5,14,1:2:0:0:
304,139,83249,1,2,0:0:0:0:
139,159,83351,1,2,3:2:0:0:
412,22,83553,6,0,L|489:333,1,283.049996220875,6|0,1:2|0:0,0:0:0:0:
489,323,83857,1,0,0:0:0:0:
406,373,83959,6,0,L|468:54,1,283.049996220875,8|2,1:2|3:2,0:0:0:0:
487,79,84263,1,2,3:2:0:0:
397,20,84364,6,0,B|269:75|269:75|192:257|192:257|22:344,1,492.840012032227,6|8,1:2|1:2,0:0:0:0:
17,228,84871,1,2,0:0:0:0:
28,214,84972,2,0,L|143:235,1,67.7099972104341,2|2,3:2|3:2,0:0:0:0:
288,369,85175,6,0,B|272:357|272:357|235:27|235:27|212:14,1,369.63000902417,2|0,1:2|0:0,0:0:0:0:
302,99,85580,1,8,1:2:0:0:
315,109,85783,6,0,L|292:235,1,79.9200019511719,2|0,3:2|3:2,0:0:0:0:
15,13,85986,1,6,1:2:0:0:
308,367,86391,6,0,B|328:252|328:252|331:244|331:244|417:199|417:199|423:191|423:191|446:41,1,351.315007236866,10|0,1:2|3:2,0:0:0:0:
340,36,86796,1,2,1:2:0:0:
327,22,86898,2,0,L|191:55,2,117.105002412289,0|0|0,3:2|0:0|0:0,0:0:0:0:
501,160,87202,1,10,1:2:0:0:
34,358,87607,6,0,B|57:337|57:337|425:266,1,351.315007236866,6|0,1:2|3:2,0:0:0:0:
446,356,88013,1,8,1:2:0:0:
472,364,88215,6,0,B|500:327|500:327|495:253,1,104.339998407898,2|0,3:2|3:2,0:0:0:0:
161,356,88418,6,0,B|171:316|171:316|110:54|110:54|120:-3,1,344.100002625275,6|8,1:2|1:2,0:0:0:0:
276,217,89128,5,2,0:0:0:0:
272,230,89178,5,2,0:0:0:0:
269,241,89229,5,2,0:0:0:0:
384,159,89533,5,2,0:0:0:0:
159,190,89837,5,2,0:0:0:0:
372,315,90040,5,2,0:0:0:0:
385,307,90141,1,2,0:0:0:0:
257,22,90344,5,2,0:0:0:0:
245,38,90445,1,2,0:0:0:0:
512,46,90851,6,0,P|402:30|320:-6,1,147.629993917832,2|0,0:2|3:2,0:0:0:0:
280,156,91256,6,0,P|321:144|370:133,1,73.8149969589158,10|0,0:2|0:0,0:0:0:0:
496,317,91459,5,2,3:2:0:0:
491,343,91560,2,0,P|409:316|247:279,1,221.444990876748,2|0,3:2|3:2,0:0:0:0:
19,306,92067,5,10,0:2:0:0:
140,369,92269,1,2,3:2:0:0:
15,189,92472,5,2,0:2:0:0:
136,252,92674,1,2,3:2:0:0:
1,63,92878,6,0,P|79:42|104:28,1,73.8149969589158,10|0,0:2|0:0,0:0:0:0:
255,118,93080,5,2,3:2:0:0:
250,144,93181,2,0,P|168:117|19:77,1,221.444990876748,2|0,3:2|3:2,0:0:0:0:
338,43,93688,6,0,P|370:25|404:11,1,73.8149969589158,10|0,0:2|0:0,0:0:0:0:
431,118,93891,2,0,P|479:138|530:168,1,73.8149969589158,2|0,3:2|3:2,0:0:0:0:
376,208,94094,2,0,P|344:328|258:368,1,221.444990876748,2|2,0:2|3:2,0:0:0:0:
257,204,94702,5,2,3:2:0:0:
268,187,94803,1,0,3:2:0:0:
239,154,94905,2,0,P|226:82|203:12,1,147.629993917832,2|0,0:0|3:2,0:0:0:0:
14,137,95310,6,0,P|57:118|131:102,1,73.8149969589158,10|0,0:2|0:0,0:0:0:0:
118,224,95513,2,0,P|155:251|206:307,1,73.8149969589158,2|0,3:2|3:2,0:0:0:0:
115,371,95715,2,0,P|189:291|296:354,2,221.444990876748,2|2|2,0:2|0:0|3:2,0:0:0:0:
0,238,96526,6,0,P|23:102|31:-17,1,221.444990876748,2|0,0:0|3:2,0:0:0:0:
54,10,96932,6,0,P|66:58|81:93,1,73.8149969589158,10|0,0:2|0:0,0:0:0:0:
22,254,97134,1,2,3:2:0:0:
46,266,97540,6,0,P|58:314|73:349,1,73.8149969589158,2|0,3:2|3:2,0:0:0:0:
169,166,97742,2,0,P|181:118|196:83,1,73.8149969589158,10|0,0:2|0:0,0:0:0:0:
265,291,97945,1,2,3:2:0:0:
285,269,98046,2,0,P|372:239|517:220,1,221.444990876748,2|0,3:2|3:2,0:0:0:0:
365,9,98553,5,10,0:2:0:0:
486,72,98755,1,2,3:2:0:0:
369,126,98958,5,2,0:2:0:0:
490,189,99160,1,2,3:2:0:0:
355,331,99364,6,0,P|433:352|458:366,1,73.8149969589158,10|0,0:2|0:0,0:0:0:0:
354,184,99566,5,2,3:2:0:0:
349,158,99667,2,0,P|267:185|118:225,1,221.444990876748,2|0,3:2|3:2,0:0:0:0:
8,365,100174,6,0,P|32:318|52:262,1,73.8149969589158,10|0,0:2|0:0,0:0:0:0:
172,310,100377,2,0,P|151:261|121:210,1,73.8149969589158,2|0,3:2|3:2,0:0:0:0:
3,21,100580,2,0,P|85:90|193:86,1,221.444990876748,2|2,0:2|3:2,0:0:0:0:
474,68,101188,5,2,3:2:0:0:
457,79,101289,1,0,3:2:0:0:
425,50,101391,2,0,P|352:37|282:14,1,147.629993917832,2|0,0:0|3:2,0:0:0:0:
86,116,101796,6,0,P|59:155|31:225,1,73.8149969589158,10|0,0:2|0:0,0:0:0:0:
153,233,101999,2,0,P|173:275|220:335,1,73.8149969589158,2|0,3:2|3:2,0:0:0:0:
319,176,102201,2,0,P|254:263|271:370,2,221.444990876748,2|2|2,0:2|0:0|3:2,0:0:0:0:
512,334,103012,6,0,P|376:357|257:365,1,221.444990876748,2|0,0:0|3:2,0:0:0:0:
329,162,103418,6,0,P|377:174|412:189,1,73.8149969589158,10|0,0:2|0:0,0:0:0:0:
499,297,103620,1,2,3:2:0:0:
512,46,103824,6,0,P|402:30|320:-6,1,147.629993917832,2|0,0:2|3:2,0:0:0:0:
228,103,104229,6,0,P|192:111|156:122,1,73.8149969589158,10|0,0:2|0:0,0:0:0:0:
40,47,104432,5,2,3:2:0:0:
45,21,104533,2,0,P|127:48|289:85,1,221.444990876748,2|0,3:2|3:2,0:0:0:0:
147,342,105040,5,10,0:2:0:0:
210,221,105242,1,2,3:2:0:0:
30,346,105445,5,2,0:2:0:0:
93,225,105647,1,2,3:2:0:0:
369,310,105851,6,0,P|390:232|404:207,1,73.8149969589158,10|0,0:2|0:0,0:0:0:0:
314,56,106053,5,2,3:2:0:0:
288,61,106154,2,0,P|315:143|355:292,1,221.444990876748,2|0,3:2|3:2,0:0:0:0:
95,33,106661,6,0,P|66:77|42:131,1,73.8149969589158,10|0,0:2|0:0,0:0:0:0:
172,119,106864,2,0,P|187:168|213:221,1,73.8149969589158,2|0,3:2|3:2,0:0:0:0:
279,93,107067,2,0,P|403:100|476:40,1,221.444990876748,2|2,0:2|3:2,0:0:0:0:
191,310,107675,5,2,3:2:0:0:
174,321,107776,1,0,3:2:0:0:
142,292,107878,2,0,P|69:279|-1:256,1,147.629993917832,2|0,0:0|3:2,0:0:0:0:
337,365,108283,6,0,P|318:322|302:248,1,73.8149969589158,10|0,0:2|0:0,0:0:0:0:
442,239,108486,2,0,P|405:211|354:156,1,73.8149969589158,2|0,3:2|3:2,0:0:0:0:
375,64,108688,2,0,P|272:108|171:174,2,221.444990876748,2|2|2,0:2|0:0|3:2,0:0:0:0:
37,48,109499,6,0,P|173:71|185:165,1,221.444990876748,2|0,0:0|3:2,0:0:0:0:
166,181,109905,6,0,P|178:229|193:264,1,73.8149969589158,10|0,0:2|0:0,0:0:0:0:
273,26,110107,1,2,3:2:0:0:
292,24,110513,6,0,P|340:36|375:51,1,73.8149969589158,2|0,3:2|3:2,0:0:0:0:
504,139,110715,2,0,P|456:151|421:166,1,73.8149969589158,10|0,0:2|0:0,0:0:0:0:
294,367,110918,1,2,3:2:0:0:
309,341,111019,2,0,P|389:296|528:252,1,221.444990876748,2|0,3:2|3:2,0:0:0:0:
186,237,111526,5,10,0:2:0:0:
123,358,111728,1,2,3:2:0:0:
69,241,111931,5,2,0:2:0:0:
6,362,112133,1,2,3:2:0:0:
308,321,112337,6,0,P|386:342|411:356,1,73.8149969589158,10|0,0:2|0:0,0:0:0:0:
251,69,112540,5,2,3:2:0:0:
231,92,112641,2,0,P|144:121|-2:141,1,221.444990876748,2|0,3:2|3:2,0:0:0:0:
343,165,113147,6,0,P|367:118|387:62,1,73.8149969589158,10|0,0:2|0:0,0:0:0:0:
176,231,113350,2,0,P|155:182|125:131,1,73.8149969589158,2|0,3:2|3:2,0:0:0:0:
394,279,113553,2,0,P|280:288|214:373,1,221.444990876748,2|2,0:2|3:2,0:0:0:0:
40,28,114161,5,2,3:2:0:0:
57,17,114262,1,0,3:2:0:0:
89,46,114364,2,0,P|162:59|232:82,1,147.629993917832,2|0,0:0|3:2,0:0:0:0:
41,296,114769,6,0,P|29:250|26:175,1,73.8149969589158,10|0,0:2|0:0,0:0:0:0:
147,244,114972,2,0,P|180:211|244:171,1,73.8149969589158,2|0,3:2|3:2,0:0:0:0:
284,363,115175,5,2,3:2:0:0:
289,335,115378,1,2,0:0:0:0:
228,21,115580,5,0,3:2:0:0:
223,49,115783,1,2,0:0:0:0:
407,291,115986,5,2,3:2:0:0:
412,263,116189,1,2,0:0:0:0:
81,75,116391,5,2,3:2:0:0:
76,102,116594,1,2,0:0:0:0:
500,92,116797,6,0,B|458:89|458:89|160:200,1,283.049996220875,4|8,1:2|3:2,0:0:0:0:
219,191,117101,1,2,3:2:0:0:
319,112,117202,1,6,1:2:0:0:
184,372,117405,5,8,3:2:0:0:
273,308,117506,1,0,3:2:0:0:
380,316,117607,2,0,B|395:324|395:324|541:356,1,141.524998110437,6|0,1:2|0:0,0:0:0:0:
206,164,117810,5,8,3:2:0:0:
136,272,117911,2,0,B|122:282|122:282|-1:320,1,141.524998110437,6|2,3:2|1:2,0:0:0:0:
249,11,118114,5,0,3:2:0:0:
328,94,118215,1,14,3:2:0:0:
341,109,118621,5,14,3:2:0:0:
411,16,118722,1,0,3:2:0:0:
503,77,118824,2,0,L|474:265,1,141.524998110437,6|0,1:2|0:0,0:0:0:0:
68,60,119026,2,0,L|90:161,1,104.339998407898,8|0,3:2|3:2,0:0:0:0:
371,303,119229,6,0,B|380:288|380:288|533:232,1,141.524998110437,6|0,1:2|0:0,0:0:0:0:
202,200,119432,5,8,3:2:0:0:
133,297,119533,2,0,B|63:268|63:268|35:188|35:188|73:84|73:84|168:51|168:51|230:88,1,424.574994331312,6|8,3:2|3:2,0:0:0:0:
256,352,120040,5,4,1:2:0:0:
331,139,120242,6,0,B|319:160|319:160|196:218,1,141.524998110437,8|2,3:2|3:2,0:0:0:0:
149,318,120445,1,6,1:2:0:0:
349,131,120648,5,8,3:2:0:0:
442,211,120749,1,0,3:2:0:0:
395,315,120851,2,0,B|377:315|377:315|263:368,1,141.524998110437,6|0,1:2|0:0,0:0:0:0:
134,10,121053,5,8,3:2:0:0:
33,63,121155,2,0,B|28:131|28:131|86:195,1,141.524998110437,6|2,3:2|1:2,0:0:0:0:
464,87,121357,5,0,3:2:0:0:
378,15,121459,1,14,3:2:0:0:
360,9,121864,5,14,3:2:0:0:
321,124,121965,1,0,3:2:0:0:
204,144,122067,2,0,B|179:123|179:123|136:-16,1,141.524998110437,6|0,1:2|0:0,0:0:0:0:
454,203,122270,2,0,B|474:187|474:187|500:84,1,104.339998407898,8|0,3:2|3:2,0:0:0:0:
140,297,122472,6,0,B|128:315|128:315|-14:387,1,141.524998110437,6|0,1:2|0:0,0:0:0:0:
335,154,122675,5,8,3:2:0:0:
443,210,122776,2,0,B|454:199|454:199|472:115|472:115|378:40|378:40|258:37|258:37|212:98|212:98|210:162,1,442.889981753495,6|8,3:2|3:2,0:0:0:0:
256,352,123283,5,4,1:2:0:0:
399,15,123486,6,0,B|378:29|378:29|340:161,1,141.524998110437,10|2,3:2|3:2,0:0:0:0:
369,304,123688,1,6,1:2:0:0:
240,17,123891,5,10,3:2:0:0:
119,8,123993,1,2,3:2:0:0:
22,80,124094,2,0,B|36:100|36:100|81:222,1,141.524998110437,6|2,1:2|0:0,0:0:0:0:
462,210,124297,5,10,3:2:0:0:
357,146,124398,2,0,B|289:141|289:141|218:217,1,141.524998110437,6|2,3:2|1:2,0:0:0:0:
4,328,124601,5,2,3:2:0:0:
69,224,124702,1,14,3:2:0:0:
77,209,125107,6,0,B|105:199|105:199|246:216,1,141.524998110437,14|2,3:2|3:2,0:0:0:0:
479,362,125310,2,0,B|456:362|456:362|307:282,1,141.524998110437,6|2,1:2|0:0,0:0:0:0:
118,18,125513,2,0,B|139:17|139:17|246:122,1,141.524998110437,10|0,3:2|3:2,0:0:0:0:
125,357,125715,6,0,B|73:306|73:306|76:216,1,141.524998110437,4|2,1:2|0:0,0:0:0:0:
479,252,125918,5,10,3:2:0:0:
494,147,126020,2,0,B|476:132|476:132|95:68|95:68|61:30,1,424.574994331312,6|8,3:2|3:2,0:0:0:0:
256,352,126526,5,6,1:2:0:0:
362,175,126729,5,10,3:2:0:0:
359,197,126830,1,2,3:2:0:0:
249,217,126932,2,0,B|236:189|236:189|93:164,1,141.524998110437,6|2,1:2|0:0,0:0:0:0:
28,210,127134,5,10,3:2:0:0:
36,238,127236,1,2,3:2:0:0:
9,342,127337,2,0,B|49:359|49:359|167:304,1,141.524998110437,6|2,1:2|0:0,0:0:0:0:
246,328,127540,5,10,3:2:0:0:
274,351,127641,2,0,B|375:309|375:309|430:326,1,141.524998110437,6|2,3:2|1:2,0:0:0:0:
469,226,127844,5,2,3:2:0:0:
485,207,127945,2,0,B|493:109|493:109|426:92,1,141.524998110437,14|2,3:2|0:0,0:0:0:0:
387,12,128148,5,2,1:2:0:0:
351,21,128249,1,2,0:0:0:0:
339,58,128351,1,14,3:2:0:0:
302,72,128452,1,2,3:2:0:0:
362,175,128553,2,0,B|354:188|354:188|227:214,1,141.524998110437,6|2,1:2|0:0,0:0:0:0:
125,176,128756,5,10,3:2:0:0:
133,145,128857,1,2,3:2:0:0:
181,37,128959,2,0,B|63:26|63:26|27:0,1,141.524998110437,6|2,1:2|0:0,0:0:0:0:
11,146,129161,5,10,3:2:0:0:
0,191,129263,2,0,L|39:358,1,141.524998110437,6|2,3:2|1:2,0:0:0:0:
165,373,129465,1,2,3:2:0:0:
220,352,129567,2,0,L|250:198,1,141.524998110437,10|2,3:2|0:0,0:0:0:0:
352,323,129770,5,2,3:2:0:0:
500,216,130175,5,2,3:2:0:0:
428,40,130580,5,2,3:2:0:0:
391,158,130884,5,2,3:2:0:0:
485,235,131188,5,2,3:2:0:0:
356,152,131594,5,0,3:2:0:0:
455,34,131797,5,2,3:2:0:0:
504,262,132202,5,2,3:2:0:0:
500,287,132405,5,2,0:0:0:0:
356,347,132607,5,2,0:0:0:0:
