osu file format v14

[General]
AudioFilename: audio.mp3
AudioLeadIn: 0
PreviewTime: 64094
Countdown: 0
SampleSet: Soft
StackLeniency: 0.6
Mode: 0
LetterboxInBreaks: 0
WidescreenStoryboard: 1

[Editor]
Bookmarks: 19499,38959,65006,90851,116797,129770
DistanceSpacing: 1.1
BeatDivisor: 4
GridSize: 8
TimelineZoom: 2.7

[Metadata]
Title:Death by Glamour
TitleUnicode:Death by Glamour
Artist:toby fox
ArtistUnicode:toby fox
Creator:Velamy
Version:an3's Extra
Source:UNDERTALE
Tags:themagicanimals the magic animals arphimigon deglegneg deg leg neg take sinyus20 sukii vetoed penta -penta pentacoilz yoshiman01 thecosmicchef the cosmic chef an3 -_sandy spxderweeb andrai ai_haibara mettaton undertale indie game rpg jrpg video videogame vgm instrumental soundtrack
BeatmapID:4349269
BeatmapSetID:2036330

[Difficulty]
HPDrainRate:5
CircleSize:5
OverallDifficulty:9
ApproachRate:9
SliderMultiplier:1.8
SliderTickRate:1

[Events]
//Background and Video events
0,0,"thumb-1920-731367.png",0,0
//Break Periods
2,89429,90251
//Storyboard Layer 0 (Background)
//Storyboard Layer 1 (Fail)
//Storyboard Layer 2 (Pass)
//Storyboard Layer 3 (Foreground)
//Storyboard Layer 4 (Overlay)
//Storyboard Sound Samples

[TimingPoints]
40,405.406385737439,4,2,0,40,1,0
40,-133.333333333333,4,2,0,40,0,0
9364,-263.157894736842,4,2,0,40,0,0
9769,-133.333333333333,4,2,0,40,0,0
12607,-263.157894736842,4,2,0,40,0,0
13012,-133.333333333333,4,2,0,40,0,0
15040,-263.157894736842,4,2,0,40,0,0
15445,-133.333333333333,4,2,0,40,0,0
18992,-263.157894736842,4,2,0,40,0,0
19495,-80,4,2,0,40,0,0
25982,-71.4285714285714,4,2,0,40,0,0
38959,-62.5,4,2,0,40,0,0
57405,-62.5,4,2,0,40,0,0
64905,-55.5555555555556,4,2,0,40,0,1
70580,-53.763440860215,4,2,0,40,0,1
70986,-55.5555555555556,4,2,0,40,0,1
83553,-37.037037037037,4,2,0,40,0,1
84060,-55.5555555555556,4,2,0,40,0,1
89229,-100,4,2,0,40,0,0
90847,-76.9230769230769,4,2,0,40,0,0
91560,-153.846153846154,4,2,0,40,0,0
92472,-76.9230769230769,4,2,0,40,0,0
93182,-153.846153846154,4,2,0,40,0,0
94094,-76.9230769230769,4,2,0,40,0,0
94905,-153.846153846154,4,2,0,40,0,0
95715,-76.9230769230769,4,2,0,40,0,0
96526,-153.846153846154,4,2,0,40,0,0
96932,-76.9230769230769,4,2,0,40,0,0
98046,-153.846153846154,4,2,0,40,0,0
98959,-76.9230769230769,4,2,0,40,0,0
99668,-153.846153846154,4,2,0,40,0,0
100580,-76.9230769230769,4,2,0,40,0,0
101391,-153.846153846154,4,2,0,40,0,0
102202,-76.9230769230769,4,2,0,40,0,0
103013,-153.846153846154,4,2,0,40,0,0
103418,-76.9230769230769,4,2,0,40,0,0
104533,-153.846153846154,4,2,0,40,0,0
105445,-76.9230769230769,4,2,0,40,0,0
106155,-153.846153846154,4,2,0,40,0,0
107067,-76.9230769230769,4,2,0,40,0,0
107878,-153.846153846154,4,2,0,40,0,0
108688,-76.9230769230769,4,2,0,40,0,0
109499,-153.846153846154,4,2,0,40,0,0
109905,-76.9230769230769,4,2,0,40,0,0
111019,-153.846153846154,4,2,0,40,0,0
111932,-76.9230769230769,4,2,0,40,0,0
112641,-153.846153846154,4,2,0,40,0,0
113553,-76.9230769230769,4,2,0,40,0,0
114364,-153.846153846154,4,2,0,40,0,0
115175,-100,4,2,0,40,0,0
116797,-55.5555555555556,4,2,0,40,0,0
123283,-50,4,2,0,40,0,0
129770,-100,4,2,0,40,0,0

[Colours]
Combo1 : 255,255,0
Combo2 : 0,255,0
Combo3 : 0,128,255
Combo4 : 255,0,0

[HitObjects]
26,35,40,6,0,L|164:24,1,135.000005149841,2|2,1:2|1:2,0:0:0:0:
286,72,850,2,0,L|393:63,1,101.250003862381,2|2,1:2|0:0,0:0:0:0:
415,161,1458,2,0,L|253:173,1,135.000005149841,2|2,0:0|0:0,0:0:0:0:
213,180,2067,1,2,1:2:0:0:
143,295,2472,2,0,L|42:303,1,101.250003862381,2|2,1:2|0:0,0:0:0:0:
329,356,3283,6,0,L|323:214,1,135.000005149841,2|2,1:2|1:2,0:0:0:0:
209,148,4094,2,0,L|204:29,1,101.250003862381,2|2,1:2|0:0,0:0:0:0:
302,21,4702,2,0,L|308:172,1,135.000005149841,2|2,0:0|0:0,0:0:0:0:
312,223,5310,1,2,1:2:0:0:
439,378,5715,2,0,L|435:277,1,101.250003862381,2|2,1:2|0:0,0:0:0:0:
507,102,6526,6,0,L|392:92,1,101.250003862381,2|2,1:2|0:0,0:0:0:0:
356,47,6931,2,0,L|276:53,1,67.5000025749207,2|2,1:2|0:0,0:0:0:0:
182,136,7337,1,2,1:2:0:0:
135,87,7540,2,0,L|138:53,1,33.7500012874604,2|2,0:0|0:0,0:0:0:0:
81,128,7742,1,2,1:2:0:0:
128,177,7945,6,0,L|113:320,1,135.000005149841,2|2,0:0|0:0,0:0:0:0:
239,362,8553,1,2,1:2:0:0:
303,343,8756,1,2,0:0:0:0:
436,359,8958,2,0,L|428:284,1,67.5000025749207,2|2,1:2|0:0,0:0:0:0:
378,246,9262,1,2,0:0:0:0:
378,246,9364,2,0,L|374:208,1,34.1999995825195,0|2,1:2|0:0,0:0:0:0:
243,126,9769,6,0,L|247:25,1,101.250003862381,2|2,1:2|0:0,0:0:0:0:
192,171,10175,2,0,L|195:251,1,67.5000025749208,2|2,1:2|0:0,0:0:0:0:
69,288,10580,1,2,1:2:0:0:
29,232,10783,2,0,L|30:198,1,33.7500012874604,2|2,0:0|0:0,0:0:0:0:
77,149,10985,1,2,1:2:0:0:
37,93,11188,6,0,B|24:74|24:74|154:84,1,135.000005149842,2|2,0:0|0:0,0:0:0:0:
258,25,11796,1,2,1:2:0:0:
325,31,11999,1,2,0:0:0:0:
399,143,12202,2,0,L|319:149,1,67.5000025749208,2|2,1:2|0:0,0:0:0:0:
286,198,12506,1,2,0:0:0:0:
286,198,12607,2,0,L|246:201,1,34.1999995825195,0|2,1:2|0:0,0:0:0:0:
38,263,13013,6,0,L|33:161,1,101.250003862381,2|2,1:2|0:0,0:0:0:0:
97,141,13418,2,0,L|101:39,1,101.250003862381,2|0,1:2|0:0,0:0:0:0:
36,19,13823,2,0,L|33:86,1,67.5000025749208,2|0,1:2|0:0,0:0:0:0:
33,154,14127,2,0,L|35:221,1,67.5000025749208,2|0,0:0|0:0,0:0:0:0:
88,340,14431,1,2,0:0:0:0:
88,340,14837,1,2,0:0:0:0:
222,322,15040,2,0,L|220:272,1,34.1999995825195,2|0,1:2|0:0,0:0:0:0:
321,203,15445,6,0,L|317:114,1,67.5000025749208,2|0,1:2|0:0,0:0:0:0:
381,111,15749,2,0,L|386:-3,1,101.250003862381,2|0,0:0|0:0,0:0:0:0:
493,166,16256,6,0,L|496:233,1,67.5000025749208,2|0,1:2|0:0,0:0:0:0:
446,279,16560,1,2,0:0:0:0:
446,279,16661,2,0,L|442:346,1,67.5000025749208,2|0,1:2|0:0,0:0:0:0:
346,377,17067,2,0,L|342:309,1,67.5000025749208,2|0,1:2|0:0,0:0:0:0:
289,268,17371,2,0,L|292:200,1,67.5000025749208,2|0,0:0|0:0,0:0:0:0:
349,164,17675,2,0,L|342:27,1,135.000005149842,2|2,0:0|0:0,0:0:0:0:
225,1,18283,1,2,1:2:0:0:
163,164,18688,6,0,L|166:77,1,67.5000025749208,2|0,1:2|0:0,0:0:0:0:
98,93,18992,2,0,L|94:160,1,68.3999991650391,2|0,0:0|0:0,0:0:0:0:
14,310,19499,6,0,L|80:303,1,56.25,2|0,1:2|0:0,0:0:0:0:
126,330,19702,2,0,L|181:335,1,56.25,0|2,3:2|3:2,0:0:0:0:
274,253,19904,2,0,B|327:235|327:235|377:272,1,112.5,10|0,1:2|3:2,0:0:0:0:
472,341,20208,1,0,3:2:0:0:
472,341,20310,2,0,L|416:346,1,56.25,2|0,1:2|3:2,0:0:0:0:
430,223,20513,1,0,3:2:0:0:
430,223,20614,1,2,3:2:0:0:
430,223,20715,2,0,L|485:217,1,56.25,8|0,1:2|0:0,0:0:0:0:
415,115,20918,6,0,B|336:88|336:88|261:143,1,168.75,2|0,3:2|0:0,0:0:0:0:
216,173,21323,2,0,L|160:167,1,56.25,2|0,3:2|0:0,0:0:0:0:
61,91,21526,2,0,L|5:96,1,56.25,10|0,1:2|0:0,0:0:0:0:
10,158,21729,1,0,3:2:0:0:
12,176,21830,1,0,3:2:0:0:
14,194,21931,2,0,L|19:257,1,56.25,2|0,1:2|3:2,0:0:0:0:
112,330,22134,2,0,L|116:273,1,56.25,0|2,3:2|3:2,0:0:0:0:
218,240,22337,5,8,1:2:0:0:
231,269,22438,1,2,0:0:0:0:
275,247,22540,1,2,3:2:0:0:
322,292,22641,1,2,3:2:0:0:
399,247,22742,6,0,L|454:241,1,56.25,2|0,1:2|0:0,0:0:0:0:
461,303,22945,2,0,L|405:308,1,56.25,0|2,3:2|3:2,0:0:0:0:
284,298,23148,2,0,B|238:331|238:331|185:313,1,112.5,10|0,1:2|3:2,0:0:0:0:
84,241,23452,1,0,3:2:0:0:
84,241,23553,2,0,L|28:246,1,56.25,2|0,1:2|3:2,0:0:0:0:
64,128,23756,1,0,3:2:0:0:
64,128,23857,1,2,3:2:0:0:
64,128,23958,2,0,L|119:133,1,56.25,8|0,1:2|0:0,0:0:0:0:
223,203,24161,6,0,B|301:229|301:229|376:174,1,168.75,2|0,3:2|0:0,0:0:0:0:
441,76,24567,2,0,L|497:81,1,56.25,2|0,3:2|0:0,0:0:0:0:
340,3,24769,2,0,L|284:9,1,56.25,10|0,1:2|0:0,0:0:0:0:
163,36,24972,5,0,3:2:0:0:
163,36,25073,1,0,3:2:0:0:
163,36,25175,2,0,L|107:41,1,56.25,2|0,1:2|3:2,0:0:0:0:
108,162,25377,1,0,3:2:0:0:
108,162,25479,1,2,3:2:0:0:
108,162,25580,2,0,L|148:164,1,28.125,8|8,1:2|0:0,0:0:0:0:
105,204,25681,2,0,L|145:206,1,28.125,8|8,3:2|0:0,0:0:0:0:
102,246,25782,1,8,3:1:0:0:
99,288,25884,1,8,2:1:0:0:
96,330,25985,1,4,1:2:0:0:
234,316,26188,6,0,L|304:308,1,62.9999980773926,2|0,3:2|3:2,0:0:0:0:
370,200,26391,2,0,L|345:258,1,62.9999980773926,10|0,1:2|0:0,0:0:0:0:
402,375,26594,2,0,L|364:324,1,62.9999980773926,2|0,3:2|3:2,0:0:0:0:
216,232,26796,6,0,L|278:239,1,62.9999980773926,2|0,1:2|3:2,0:0:0:0:
163,186,26999,1,2,3:2:0:0:
163,186,27100,2,0,L|93:194,1,62.9999980773926,2|8,3:2|1:2,0:0:0:0:
45,65,27303,1,2,0:0:0:0:
108,72,27404,1,2,3:2:0:0:
381,21,27810,6,0,L|369:93,1,62.9999980773926,2|0,3:2|0:0,0:0:0:0:
447,186,28013,2,0,L|399:146,1,62.9999980773926,10|0,1:2|0:0,0:0:0:0:
270,161,28215,2,0,L|329:139,1,62.9999980773926,2|0,3:2|3:2,0:0:0:0:
412,249,28418,6,0,L|424:321,1,62.9999980773926,2|0,1:2|3:2,0:0:0:0:
276,280,28621,1,2,3:2:0:0:
276,280,28722,2,0,L|287:343,1,62.9999980773926,2|8,3:2|1:2,0:0:0:0:
140,311,28925,1,2,0:0:0:0:
150,373,29026,1,2,3:2:0:0:
91,350,29127,1,2,3:2:0:0:
30,151,29431,6,0,L|40:66,1,62.9999980773926,2|0,3:2|3:2,0:0:0:0:
101,60,29634,2,0,L|169:111,1,62.9999980773926,10|0,1:2|0:0,0:0:0:0:
144,166,29837,2,0,L|86:190,1,62.9999980773926,2|0,3:2|3:2,0:0:0:0:
210,144,30040,6,0,L|217:206,1,62.9999980773926,2|0,1:2|3:2,0:0:0:0:
90,261,30242,1,2,3:2:0:0:
90,261,30344,2,0,L|82:323,1,62.9999980773926,2|8,3:2|1:2,0:0:0:0:
218,351,30546,1,2,0:0:0:0:
210,288,30647,1,2,3:2:0:0:
404,89,31053,6,0,L|483:102,1,62.9999980773926,2|0,3:2|0:0,0:0:0:0:
436,162,31256,2,0,L|385:223,1,62.9999980773926,10|0,1:2|0:0,0:0:0:0:
356,153,31458,2,0,L|333:94,1,62.9999980773926,2|0,3:2|3:2,0:0:0:0:
408,281,31661,6,0,L|470:291,1,62.9999980773926,2|0,1:2|3:2,0:0:0:0:
284,323,31864,1,2,3:2:0:0:
284,323,31965,2,0,L|347:313,1,62.9999980773926,2|8,3:2|1:2,0:0:0:0:
240,217,32168,1,2,0:0:0:0:
230,280,32269,1,2,3:2:0:0:
219,342,32370,1,2,3:2:0:0:
27,193,32675,6,0,L|89:178,1,62.9999980773926,2|0,3:2|3:2,0:0:0:0:
149,63,32877,2,0,L|132:124,1,62.9999980773926,10|0,1:2|0:0,0:0:0:0:
201,232,33080,2,0,L|157:186,1,62.9999980773926,2|0,3:2|3:2,0:0:0:0:
262,116,33283,6,0,L|201:132,1,62.9999980773926,2|0,1:2|3:2,0:0:0:0:
371,81,33486,1,2,3:2:0:0:
371,81,33587,2,0,L|310:66,1,62.9999980773926,2|8,3:2|1:2,0:0:0:0:
482,104,33790,1,2,0:0:0:0:
434,62,33891,1,2,3:2:0:0:
450,337,34296,6,0,L|379:357,1,62.9999980773926,2|0,3:2|0:0,0:0:0:0:
319,361,34499,2,0,L|337:289,1,62.9999980773926,10|0,1:2|0:0,0:0:0:0:
363,235,34702,2,0,L|415:286,1,62.9999980773926,2|0,3:2|3:2,0:0:0:0:
269,280,34904,6,0,L|198:300,1,62.9999980773926,2|0,1:2|3:2,0:0:0:0:
88,241,35107,1,2,3:2:0:0:
88,241,35209,2,0,L|149:259,1,62.9999980773926,2|8,3:2|1:2,0:0:0:0:
58,380,35412,1,2,0:0:0:0:
126,373,35513,1,2,3:2:0:0:
194,366,35614,1,2,3:2:0:0:
267,151,35918,6,0,L|250:80,1,62.9999980773926,2|0,3:2|3:2,0:0:0:0:
178,71,36121,2,0,L|125:121,1,62.9999980773926,10|0,1:2|0:0,0:0:0:0:
153,188,36323,2,0,L|222:208,1,62.9999980773926,2|0,3:2|3:2,0:0:0:0:
280,84,36526,6,0,L|294:145,1,62.9999980773926,2|0,1:2|3:2,0:0:0:0:
424,194,36729,1,2,3:2:0:0:
424,194,36830,2,0,L|438:255,1,62.9999980773926,2|8,3:2|1:2,0:0:0:0:
346,358,37033,1,2,0:0:0:0:
331,297,37134,1,2,3:2:0:0:
57,345,37540,6,0,L|31:280,1,62.9999980773926,2|0,3:2|0:0,0:0:0:0:
123,180,37742,2,0,L|192:189,1,62.9999980773926,10|0,1:2|0:0,0:0:0:0:
232,319,37945,2,0,L|193:368,1,62.9999980773926,2|0,3:2|3:2,0:0:0:0:
316,208,38148,6,0,L|339:266,1,62.9999980773926,2|0,1:2|3:2,0:0:0:0:
465,324,38350,1,2,3:2:0:0:
465,324,38452,1,2,3:2:0:0:
465,324,38553,2,0,L|412:333,1,31.4999990386963,8|8,1:2|0:0,0:0:0:0:
457,270,38654,2,0,L|409:280,1,31.4999990386963,8|8,3:2|0:0,0:0:0:0:
451,230,38755,1,8,3:1:0:0:
444,183,38857,1,8,2:1:0:0:
437,137,38959,6,0,B|450:127|450:127|393:136,1,72,6|0,1:2|0:0,0:0:0:0:
247,80,39161,2,0,B|233:69|233:69|291:78,1,72,2|0,3:2|3:2,0:0:0:0:
435,18,39364,2,0,B|421:-4|421:-4|292:176,1,216,10|2,1:2|3:2,0:0:0:0:
158,196,39871,1,2,3:2:0:0:
158,196,39972,1,2,3:2:0:0:
170,266,40073,1,2,0:0:0:0:
182,336,40175,2,0,L|111:352,1,72,10|0,1:2|0:0,0:0:0:0:
336,298,40377,2,0,L|406:281,1,72,2|0,3:2|3:2,0:0:0:0:
133,275,40580,5,2,1:2:0:0:
385,359,40783,1,2,3:2:0:0:
272,275,40986,1,10,1:2:0:0:
257,352,41087,2,0,L|269:182,1,144,2|2,0:0|3:2,0:0:0:0:
267,208,41492,1,2,0:0:0:0:
323,151,41594,2,0,L|312:70,1,72,2|2,3:2|3:2,0:0:0:0:
157,87,41796,2,0,L|167:16,1,72,10|0,1:2|0:0,0:0:0:0:
380,72,41999,1,2,3:2:0:0:
98,124,42202,5,2,1:2:0:0:
107,195,42303,1,2,0:0:0:0:
83,270,42404,1,2,3:2:0:0:
154,260,42505,1,2,0:0:0:0:
129,334,42607,1,10,1:2:0:0:
414,124,43722,2,0,L|408:164,1,36,2|2,0:0|0:0,0:0:0:0:
404,195,43823,2,0,L|365:26,1,144,2|0,1:2|3:2,0:0:0:0:
294,34,44127,2,0,L|166:152,1,144,2|0,3:2|0:0,0:0:0:0:
209,210,44431,2,0,L|318:243,1,72,2|0,3:2|3:2,0:0:0:0:
346,251,44634,1,2,1:2:0:0:
141,371,44837,1,2,3:2:0:0:
21,165,45040,1,10,1:2:0:0:
227,45,45242,1,2,3:2:0:0:
141,371,45445,6,0,B|131:352|131:352|197:367,1,72,6|0,1:2|0:0,0:0:0:0:
327,303,45648,2,0,B|337:284|337:284|271:299,1,72,2|0,3:2|3:2,0:0:0:0:
138,240,45850,2,0,B|156:212|156:212|272:382,1,216,10|2,1:2|3:2,0:0:0:0:
431,207,46357,1,2,3:2:0:0:
431,207,46459,1,2,3:2:0:0:
424,287,46560,1,2,0:0:0:0:
417,367,46662,2,0,L|488:375,1,72,10|0,1:2|0:0,0:0:0:0:
361,238,46865,2,0,L|289:229,1,72,2|0,3:2|3:2,0:0:0:0:
214,252,47067,5,2,1:2:0:0:
502,284,47269,1,2,3:2:0:0:
214,252,47472,1,10,1:2:0:0:
234,175,47573,2,0,L|252:324,1,144,2|2,0:0|3:2,0:0:0:0:
251,317,47979,1,2,0:0:0:0:
195,373,48080,2,0,L|108:383,1,72,2|2,3:2|3:2,0:0:0:0:
80,262,48283,2,0,L|9:271,1,72,10|0,1:2|0:0,0:0:0:0:
165,127,48486,1,2,3:2:0:0:
502,284,48688,5,2,1:2:0:0:
454,219,48790,1,2,0:0:0:0:
421,292,48891,1,2,3:2:0:0:
373,227,48992,1,2,0:0:0:0:
299,195,49094,1,10,1:2:0:0:
10,284,50209,2,0,L|38:250,1,36,2|2,0:0|0:0,0:0:0:0:
61,228,50310,2,0,L|119:359,1,144,2|0,1:2|3:2,0:0:0:0:
41,340,50614,2,0,L|149:245,1,144,2|0,3:2|0:0,0:0:0:0:
189,313,50918,2,0,L|268:333,1,72,2|0,3:2|3:2,0:0:0:0:
336,350,51121,1,2,1:2:0:0:
502,180,51323,1,2,3:2:0:0:
332,14,51526,6,0,L|337:55,1,36,8|8,1:2|0:0,0:0:0:0:
278,19,51627,2,0,L|283:60,1,36,8|8,3:2|0:0,0:0:0:0:
224,24,51728,1,8,3:1:0:0:
170,30,51830,1,8,2:1:0:0:
117,35,51932,6,0,L|131:129,1,72,6|0,1:2|0:0,0:0:0:0:
51,228,52134,2,0,L|61:299,1,72,2|0,3:2|3:2,0:0:0:0:
198,344,52337,1,10,1:2:0:0:
258,303,52438,2,0,L|234:145,1,144,2|2,0:0|3:2,0:0:0:0:
379,136,52844,1,2,3:2:0:0:
436,178,52945,2,0,L|446:249,1,72,2|2,3:2|0:0,0:0:0:0:
322,94,53148,2,0,L|311:22,1,72,10|0,1:2|0:0,0:0:0:0:
460,55,53350,1,2,3:2:0:0:
461,341,53553,6,0,L|451:270,1,72,2|0,1:2|3:2,0:0:0:0:
318,361,53756,2,0,L|308:290,1,72,2|0,3:2|3:2,0:0:0:0:
406,184,53959,1,10,1:2:0:0:
464,142,54060,2,0,L|436:-44,1,144,2|2,0:0|3:2,0:0:0:0:
299,21,54465,1,2,0:0:0:0:
246,70,54567,2,0,L|256:141,1,72,2|2,3:2|3:2,0:0:0:0:
186,155,54769,2,0,L|175:83,1,72,10|0,1:2|0:0,0:0:0:0:
109,52,54972,1,2,3:2:0:0:
22,249,55175,5,2,1:2:0:0:
75,297,55276,1,2,0:0:0:0:
139,265,55378,1,2,3:2:0:0:
192,313,55479,1,2,0:0:0:0:
256,281,55581,1,10,1:2:0:0:
256,281,56695,6,0,L|313:289,1,36,2|2,0:0|0:0,0:0:0:0:
313,314,56796,2,0,L|291:171,1,144,2|0,1:2|3:2,0:0:0:0:
220,158,57100,2,0,L|198:15,1,144,2|0,3:2|0:0,0:0:0:0:
265,44,57405,1,2,3:2:0:0:
15,87,57607,1,2,1:2:0:0:
58,337,57810,1,2,3:2:0:0:
308,294,58013,1,10,1:2:0:0:
488,30,58418,6,0,L|477:101,1,72,6|0,1:2|0:0,0:0:0:0:
341,52,58621,2,0,L|330:123,1,72,2|0,3:2|3:2,0:0:0:0:
444,210,58824,1,10,1:2:0:0:
377,240,58925,2,0,L|360:355,1,72,2|0,0:0|3:2,0:0:0:0:
319,188,59127,2,0,L|298:331,1,144,2|2,3:2|3:2,0:0:0:0:
176,197,59432,2,0,L|166:269,1,72,2|2,3:2|0:0,0:0:0:0:
257,78,59634,2,0,L|247:150,1,72,10|0,1:2|0:0,0:0:0:0:
95,102,59837,1,2,3:2:0:0:
235,266,60040,6,0,L|224:337,1,72,2|0,1:2|3:2,0:0:0:0:
376,288,60242,2,0,L|366:360,1,72,2|0,3:2|3:2,0:0:0:0:
263,199,60445,1,10,1:2:0:0:
207,153,60547,2,0,L|228:10,1,144,2|2,0:0|3:2,0:0:0:0:
155,356,60952,1,2,0:0:0:0:
99,310,61054,2,0,L|109:238,1,72,2|2,3:2|3:2,0:0:0:0:
53,192,61256,2,0,L|43:264,1,72,10|0,1:2|0:0,0:0:0:0:
197,238,61459,1,2,3:2:0:0:
384,28,61661,5,2,1:2:0:0:
384,80,61763,1,2,0:0:0:0:
384,132,61864,1,2,3:2:0:0:
384,184,61965,1,2,0:0:0:0:
384,236,62067,1,10,1:2:0:0:
128,28,62472,5,2,1:2:0:0:
128,80,62574,1,2,3:2:0:0:
128,132,62675,1,2,3:2:0:0:
128,184,62776,1,2,3:2:0:0:
128,236,62878,1,10,1:2:0:0:
288,368,63283,5,2,1:2:0:0:
288,304,63384,1,2,3:2:0:0:
224,304,63486,1,2,3:2:0:0:
224,368,63587,1,2,3:2:0:0:
256,248,63688,6,0,L|212:248,1,36,8|8,1:2|0:0,0:0:0:0:
256,216,63790,2,0,L|300:216,1,36,10|8,3:2|0:0,0:0:0:0:
256,184,63891,1,8,3:1:0:0:
256,120,63992,1,8,3:1:0:0:
256,56,64094,1,4,0:0:0:0:
44,208,64499,5,2,3:2:0:0:
40,243,64600,1,2,0:0:0:0:
37,279,64701,1,2,0:0:0:0:
34,315,64803,1,2,0:0:0:0:
32,352,64905,2,0,B|174:269|174:269|337:347,1,323.999990112305,6|8,1:2|1:2,0:0:0:0:
405,251,65411,5,2,0:0:0:0:
401,286,65512,1,2,3:2:0:0:
398,322,65613,1,2,3:2:0:0:
395,358,65715,2,0,B|368:202|368:202|488:62,1,323.999990112305,2|8,1:2|1:2,0:0:0:0:
319,32,66323,1,2,3:2:0:0:
158,9,66526,6,0,B|178:127|178:127|87:234,1,242.999992584229,6|2,1:2|3:2,0:0:0:0:
23,189,66932,2,0,L|48:354,1,161.999995056153,10|0,1:2|3:2,0:0:0:0:
289,369,67337,6,0,B|251:361|251:361|321:265|321:265|240:220,1,242.999992584229,2|0,1:2|0:0,0:0:0:0:
217,148,67742,2,0,B|248:158|248:158|208:50|208:50|324:28,1,242.999992584229,10|0,1:2|3:2,0:0:0:0:
462,13,68148,6,0,B|497:115|497:115|341:376,1,404.999987640381,6|0,1:2|0:0,0:0:0:0:
269,337,68756,2,0,L|178:302,1,80.9999975280763,2|0,3:2|3:2,0:0:0:0:
39,362,68959,6,0,B|115:315|115:315|40:75,1,323.999990112305,6|8,1:2|1:2,0:0:0:0:
200,44,69567,2,0,L|229:130,1,80.9999975280763,2|0,3:2|3:2,0:0:0:0:
184,189,69769,5,6,1:2:0:0:
256,224,69871,1,2,0:0:0:0:
328,189,69972,1,2,3:2:0:0:
328,296,70175,5,14,1:2:0:0:
256,331,70276,1,2,0:0:0:0:
184,296,70378,1,2,3:2:0:0:
320,128,70580,6,0,B|352:80|352:80|256:24|256:24|160:80|160:80|192:128,1,334.800010472718,6|8,1:2|1:2,0:0:0:0:
256,160,71087,2,0,L|256:248,2,80.9999975280763,2|2|2,0:0|3:2|3:2,0:0:0:0:
417,141,71391,6,0,B|368:298|368:298|207:374,1,323.999990112305,6|8,1:2|1:2,0:0:0:0:
44,313,71898,1,2,0:0:0:0:
78,328,71999,1,2,3:2:0:0:
110,343,72101,1,2,3:2:0:0:
142,359,72202,2,0,B|46:225|46:225|82:51,1,323.999990112305,2|8,1:2|1:2,0:0:0:0:
232,18,72810,1,2,3:2:0:0:
394,18,73013,2,0,B|463:114|463:114|437:240,1,242.999992584229,6|2,1:2|3:2,0:0:0:0:
363,205,73418,2,0,L|397:363,1,161.999995056153,10|0,1:2|3:2,0:0:0:0:
235,366,73823,6,0,B|216:344|216:344|318:303|318:303|198:266,1,242.999992584229,2|0,1:2|0:0,0:0:0:0:
255,199,74229,2,0,B|224:185|224:185|321:145|321:145|275:94|275:94|279:46,1,242.999992584229,10|0,1:2|3:2,0:0:0:0:
120,19,74634,6,0,B|23:45|23:45|90:365,1,404.999987640381,6|0,1:2|0:0,0:0:0:0:
165,326,75242,2,0,L|146:223,1,80.9999975280763,2|0,3:2|3:2,0:0:0:0:
212,96,75445,6,0,B|292:81|292:81|352:340,1,323.999990112305,6|8,1:2|1:2,0:0:0:0:
458,199,76053,2,0,L|439:96,1,80.9999975280763,2|0,3:2|3:2,0:0:0:0:
256,32,76256,5,6,1:2:0:0:
184,224,76459,1,2,3:2:0:0:
256,192,76560,1,2,3:2:0:0:
328,224,76661,1,14,1:2:0:0:
256,352,76864,1,2,3:2:0:0:
64,280,77067,1,6,1:2:0:0:
437,265,77472,2,0,L|397:273,1,40.4999987640381,8|8,1:2|0:0,0:0:0:0:
439,270,77573,2,0,L|399:278,1,40.4999987640381,10|8,3:2|0:0,0:0:0:0:
448,280,77675,1,8,3:1:0:0:
448,280,77776,1,8,3:1:0:0:
448,280,77878,6,0,B|431:120|431:120|288:31,1,323.999990112305,6|8,1:2|1:2,0:0:0:0:
94,48,78384,1,2,0:0:0:0:
134,50,78485,1,2,3:2:0:0:
174,53,78587,1,2,3:2:0:0:
211,37,78688,2,0,B|89:145|89:145|100:306,1,323.999990112305,2|8,1:2|1:2,0:0:0:0:
251,362,79296,1,2,3:2:0:0:
410,334,79499,2,0,L|439:165,1,161.999995056153,6|0,1:2|3:2,0:0:0:0:
363,118,79803,2,0,L|354:169,1,40.4999987640381,2|2,3:2|0:0,0:0:0:0:
376,120,79905,2,0,L|348:279,1,161.999995056153,10|0,1:2|3:2,0:0:0:0:
136,120,80310,2,0,L|163:279,1,161.999995056153,2|0,1:2|0:0,0:0:0:0:
437,174,80715,2,0,L|410:334,1,161.999995056153,10|0,1:2|3:2,0:0:0:0:
102,334,81121,6,0,B|74:173|74:173|256:8,1,404.999987640381,6|0,1:2|0:0,0:0:0:0:
334,19,81729,2,0,L|436:37,1,80.9999975280763,2|0,3:2|3:2,0:0:0:0:
494,173,81932,2,0,B|375:284|375:284|217:210,1,323.999990112305,6|8,1:2|1:2,0:0:0:0:
107,108,82540,2,0,L|45:160,1,80.9999975280763,2|0,3:2|3:2,0:0:0:0:
57,321,82742,5,6,1:2:0:0:
130,354,82843,1,2,0:0:0:0:
203,321,82944,1,2,3:2:0:0:
455,320,83148,5,14,1:2:0:0:
382,354,83249,1,2,0:0:0:0:
309,321,83350,1,2,3:2:0:0:
192,192,83553,6,0,B|136:112|136:112|256:28|256:28|376:112|376:112|320:192,1,486.000001853943,6|8,1:2|1:2,0:0:0:0:
256,240,84060,2,0,L|256:152,2,80.9999975280763,2|2|2,0:0|3:2|3:2,0:0:0:0:
136,344,84364,6,0,B|39:220|39:220|87:52,1,323.999990112305,6|8,1:2|1:2,0:0:0:0:
257,53,84871,1,2,0:0:0:0:
216,47,84972,1,2,3:2:0:0:
176,41,85073,1,2,3:2:0:0:
151,12,85175,2,0,B|272:16|272:16|344:122,1,242.999992584229,2|0,1:2|0:0,0:0:0:0:
420,123,85580,2,0,L|393:320,1,161.999995056153,8|2,1:2|3:2,0:0:0:0:
340,341,85884,5,0,3:2:0:0:
340,341,85986,2,0,L|146:315,1,161.999995056153,6|0,1:2|3:2,0:0:0:0:
334,248,86290,2,0,L|288:241,1,40.4999987640381,2|2,3:2|0:0,0:0:0:0:
332,265,86391,2,0,L|138:239,1,161.999995056153,10|0,1:2|3:2,0:0:0:0:
179,64,86796,6,0,L|340:43,1,161.999995056153,2|0,1:2|0:0,0:0:0:0:
443,168,87202,2,0,L|381:317,1,161.999995056153,10|0,1:2|3:2,0:0:0:0:
221,344,87607,2,0,B|48:256|48:256|64:31,1,404.999987640381,6|0,1:2|0:0,0:0:0:0:
139,17,88215,2,0,L|249:25,1,80.9999975280763,2|0,3:2|3:2,0:0:0:0:
381,36,88418,2,0,B|297:177|297:177|124:156,1,323.999990112305,6|8,1:2|1:2,0:0:0:0:
240,283,89026,1,2,3:2:0:0:
240,283,89128,2,0,L|299:290,2,40.4999987640381,2|2|2,3:2|0:0|0:0,0:0:0:0:
24,106,90851,6,0,P|31:43|142:73,1,175.499991966248,2|0,0:2|3:2,0:0:0:0:
163,91,91256,2,0,P|242:118|292:93,1,116.999994644165,10|2,0:2|3:2,0:0:0:0:
320,67,91560,2,0,P|378:68|426:129,1,116.999994644165,2|0,3:2|3:2,0:0:0:0:
431,132,92067,1,10,0:2:0:0:
416,194,92269,1,2,3:2:0:0:
509,323,92472,5,2,0:2:0:0:
392,377,92675,1,2,3:2:0:0:
275,323,92878,1,10,0:2:0:0:
158,377,93080,1,2,3:2:0:0:
101,346,93182,2,0,P|132:296|182:244,1,116.999994644165,2|0,3:2|3:2,0:0:0:0:
171,253,93688,1,10,0:2:0:0:
171,253,93891,1,2,3:2:0:0:
162,118,94094,6,0,P|104:134|30:263,1,175.499991966248,2|2,0:2|3:2,0:0:0:0:
34,221,94499,2,0,P|41:153|34:102,1,116.999994644165,8|2,0:2|3:2,0:0:0:0:
133,22,94905,2,0,P|201:23|224:47,1,87.749995983124,2|0,0:0|3:2,0:0:0:0:
236,55,95310,1,10,0:2:0:0:
234,119,95513,1,2,3:2:0:0:
338,7,95715,6,0,P|332:75|275:133,1,116.999994644165,2|0,0:2|3:2,0:0:0:0:
277,172,96019,2,0,P|269:254|299:289,1,116.999994644165,2|0,0:0|0:0,0:0:0:0:
348,298,96324,1,2,3:2:0:0:
452,229,96526,2,0,P|455:182|416:139,1,87.749995983124,2|0,0:0|3:2,0:0:0:0:
427,84,96932,2,0,P|446:66|486:56,1,58.4999973220826,10|0,0:2|0:0,0:0:0:0:
388,199,97134,2,0,P|369:181|329:171,1,58.4999973220826,2|0,3:2|3:2,0:0:0:0:
60,155,97540,5,2,3:2:0:0:
60,155,97742,2,0,P|79:211|90:283,1,116.999994644165,10|2,0:2|3:2,0:0:0:0:
72,330,98046,2,0,P|116:284|184:293,1,116.999994644165,2|0,3:2|3:2,0:0:0:0:
196,295,98553,1,10,0:2:0:0:
257,274,98756,1,2,3:2:0:0:
379,375,98959,5,2,0:2:0:0:
500,332,99161,1,2,3:2:0:0:
485,205,99364,1,10,0:2:0:0:
378,132,99567,1,2,3:2:0:0:
415,79,99668,2,0,P|443:113|421:181,1,116.999994644165,2|0,3:2|3:2,0:0:0:0:
437,207,100175,1,10,0:2:0:0:
425,270,100378,1,2,3:2:0:0:
312,330,100580,6,0,P|248:328|215:383,1,116.999994644165,2|0,0:2|3:2,0:0:0:0:
168,324,100884,2,0,P|107:292|101:237,1,116.999994644165,2|0,3:2|0:0,0:0:0:0:
144,203,101188,1,2,3:2:0:0:
220,99,101391,2,0,P|175:63|129:78,1,87.749995983124,2|0,0:0|3:2,0:0:0:0:
121,84,101797,1,10,0:2:0:0:
103,145,101999,1,2,3:2:0:0:
25,247,102202,6,0,P|96:264|151:294,1,116.999994644165,2|0,0:2|3:2,0:0:0:0:
158,343,102506,2,0,P|240:341|295:320,1,116.999994644165,2|0,0:0|0:0,0:0:0:0:
317,285,102810,1,2,3:2:0:0:
348,160,103013,2,0,P|425:211|424:237,1,116.999994644165,2|10,0:0|0:2,0:0:0:0:
425,224,103621,1,2,3:2:0:0:
356,365,103824,6,0,P|315:313|190:324,1,175.499991966248,2|0,0:2|3:2,0:0:0:0:
159,345,104229,2,0,P|135:290|185:254,1,116.999994644165,10|2,0:2|3:2,0:0:0:0:
231,233,104533,2,0,P|235:174|230:116,1,116.999994644165,2|0,3:2|3:2,0:0:0:0:
219,86,105040,1,10,0:2:0:0:
180,35,105242,1,2,3:2:0:0:
80,174,105445,5,2,0:2:0:0:
95,301,105648,1,2,3:2:0:0:
185,208,105851,1,10,0:2:0:0:
160,82,106053,1,2,3:2:0:0:
112,43,106155,2,0,P|179:62|230:22,1,116.999994644165,2|0,3:2|3:2,0:0:0:0:
240,18,106661,1,10,0:2:0:0:
304,13,106864,1,2,3:2:0:0:
425,55,107067,6,0,P|373:109|424:185,1,175.499991966248,2|2,0:2|3:2,0:0:0:0:
419,183,107472,2,0,P|449:130|492:87,1,116.999994644165,8|2,0:2|3:2,0:0:0:0:
494,218,107878,2,0,P|457:259|411:271,1,87.749995983124,2|0,0:0|3:2,0:0:0:0:
396,260,108283,1,10,0:2:0:0:
331,260,108486,1,2,3:2:0:0:
221,193,108688,6,0,P|182:248|191:317,1,116.999994644165,2|0,0:2|3:2,0:0:0:0:
222,345,108992,2,0,P|288:333|330:278,1,116.999994644165,2|0,0:0|0:0,0:0:0:0:
321,298,109297,1,2,3:2:0:0:
286,174,109499,2,0,P|260:138|202:133,1,87.749995983124,2|0,0:0|3:2,0:0:0:0:
350,152,109905,2,0,P|360:188|382:208,1,58.4999973220826,10|0,0:2|0:0,0:0:0:0:
196,68,110107,2,0,P|214:45|220:17,1,58.4999973220826,2|0,3:2|3:2,0:0:0:0:
243,324,110513,5,2,3:2:0:0:
243,324,110715,2,0,P|180:335|123:371,1,116.999994644165,10|2,0:2|3:2,0:0:0:0:
74,335,111019,2,0,P|81:291|73:197,1,116.999994644165,2|0,3:2|3:2,0:0:0:0:
73,190,111526,1,10,0:2:0:0:
136,181,111729,1,2,3:2:0:0:
35,66,111932,5,2,0:2:0:0:
158,30,112134,1,2,3:2:0:0:
260,108,112337,1,10,0:2:0:0:
383,144,112539,1,2,3:2:0:0:
435,106,112641,2,0,P|448:168|422:239,1,116.999994644165,2|0,3:2|3:2,0:0:0:0:
420,248,113148,1,10,0:2:0:0:
424,312,113351,1,2,3:2:0:0:
316,242,113553,6,0,P|302:333|329:361,1,116.999994644165,2|0,0:2|3:2,0:0:0:0:
253,374,113857,2,0,P|216:330|159:324,1,116.999994644165,2|0,3:2|0:0,0:0:0:0:
99,348,114161,1,2,3:2:0:0:
18,247,114364,2,0,P|23:189|53:126,1,116.999994644165,2|10,0:0|0:2,0:0:0:0:
46,135,114972,1,2,3:2:0:0:
304,112,115175,5,2,3:2:0:0:
208,112,115378,1,2,0:0:0:0:
304,112,115580,1,0,3:2:0:0:
208,112,115783,1,2,0:0:0:0:
304,112,115986,1,2,3:2:0:0:
208,112,116189,1,2,0:0:0:0:
304,112,116391,1,2,3:2:0:0:
208,112,116594,1,2,0:0:0:0:
258,330,116797,6,0,L|92:349,1,161.999995056153,4|8,1:2|3:2,0:0:0:0:
79,206,117101,1,2,3:2:0:0:
79,206,117202,2,0,L|239:187,1,161.999995056153,6|8,1:2|3:2,0:0:0:0:
367,62,117505,1,0,3:2:0:0:
367,62,117607,2,0,L|447:70,1,80.9999975280763,6|0,1:2|0:0,0:0:0:0:
206,10,117810,1,8,3:2:0:0:
206,10,117911,2,0,L|287:19,1,80.9999975280763,6|2,3:2|1:2,0:0:0:0:
36,65,118114,1,0,3:2:0:0:
36,65,118215,2,0,L|116:73,1,80.9999975280763,14|0,3:2|0:0,0:0:0:0:
476,319,118621,6,0,L|367:330,1,80.9999975280763,14|0,3:2|3:2,0:0:0:0:
311,296,118824,2,0,L|231:305,1,80.9999975280763,6|0,1:2|0:0,0:0:0:0:
78,365,119026,1,8,3:2:0:0:
78,365,119128,1,0,3:2:0:0:
78,365,119229,2,0,L|159:357,1,80.9999975280763,6|0,1:2|0:0,0:0:0:0:
297,179,119432,1,8,3:2:0:0:
297,179,119533,1,6,3:2:0:0:
297,179,119634,2,0,L|216:187,1,80.9999975280763,0|0,1:2|3:2,0:0:0:0:
76,32,119837,5,8,3:2:0:0:
78,52,119938,1,0,0:0:0:0:
80,72,120040,2,0,L|250:90,1,161.999995056153,4|8,1:2|3:2,0:0:0:0:
227,221,120344,1,2,3:2:0:0:
227,221,120445,2,0,L|65:203,1,161.999995056153,6|8,1:2|3:2,0:0:0:0:
191,343,120749,1,0,3:2:0:0:
191,343,120850,2,0,L|271:351,1,80.9999975280763,6|0,1:2|0:0,0:0:0:0:
431,318,121053,1,8,3:2:0:0:
431,318,121154,2,0,L|350:309,1,80.9999975280763,6|2,3:2|1:2,0:0:0:0:
198,244,121357,1,0,3:2:0:0:
198,244,121459,2,0,L|279:253,1,80.9999975280763,14|0,3:2|0:0,0:0:0:0:
478,75,121864,6,0,L|397:84,1,80.9999975280763,14|0,3:2|3:2,0:0:0:0:
232,62,122067,2,0,L|313:53,1,80.9999975280763,6|0,1:2|0:0,0:0:0:0:
423,193,122270,1,8,3:2:0:0:
423,193,122371,1,0,3:2:0:0:
423,193,122472,2,0,L|504:202,1,80.9999975280763,6|0,1:2|0:0,0:0:0:0:
267,233,122675,1,8,3:2:0:0:
267,233,122776,1,6,3:2:0:0:
267,233,122878,2,0,L|348:242,1,80.9999975280763,0|0,1:2|3:2,0:0:0:0:
112,161,123080,2,0,L|193:152,1,80.9999975280763,8|0,3:2|0:0,0:0:0:0:
344,278,123283,6,0,L|333:371,1,90,4|0,1:2|0:0,0:0:0:0:
235,353,123486,2,0,L|244:263,1,90,10|2,3:2|3:2,0:0:0:0:
431,196,123688,2,0,L|408:398,1,180,6|10,1:2|3:2,0:0:0:0:
313,116,123993,1,2,3:2:0:0:
313,116,124094,2,0,L|304:206,1,90,6|2,1:2|0:0,0:0:0:0:
194,287,124297,1,10,3:2:0:0:
194,287,124398,2,0,L|204:198,1,90,6|2,3:2|1:2,0:0:0:0:
113,100,124601,1,2,3:2:0:0:
113,100,124702,2,0,L|104:190,1,90,14|2,3:2|0:0,0:0:0:0:
359,39,125107,6,0,L|370:140,1,90,14|2,3:2|3:2,0:0:0:0:
455,280,125310,2,0,L|446:191,1,90,6|2,1:2|0:0,0:0:0:0:
275,89,125513,1,10,3:2:0:0:
275,89,125614,1,0,3:2:0:0:
275,89,125715,2,0,L|286:190,1,90,4|2,1:2|0:0,0:0:0:0:
214,250,125919,1,10,3:2:0:0:
214,250,126020,1,6,3:2:0:0:
214,250,126121,2,0,L|225:351,1,90,2|2,1:2|3:2,0:0:0:0:
119,219,126324,2,0,L|129:309,1,90,8|0,3:2|0:0,0:0:0:0:
18,144,126526,6,0,L|27:54,1,90,6|2,1:2|0:0,0:0:0:0:
121,88,126729,1,10,3:2:0:0:
121,88,126830,1,2,3:2:0:0:
121,88,126932,2,0,L|130:-1,1,90,6|2,1:2|0:0,0:0:0:0:
219,83,127134,2,0,L|209:172,1,90,10|2,3:2|3:2,0:0:0:0:
412,42,127337,6,0,L|403:132,1,90,6|2,1:2|0:0,0:0:0:0:
236,240,127540,2,0,L|226:329,1,90,10|6,3:2|3:2,0:0:0:0:
423,349,127743,2,0,L|432:259,1,90,2|2,1:2|3:2,0:0:0:0:
206,112,127945,2,0,L|216:23,1,90,14|2,3:2|0:0,0:0:0:0:
16,192,128148,5,2,1:2:0:0:
88,208,128249,1,2,0:0:0:0:
136,264,128351,1,14,3:2:0:0:
152,336,128452,1,2,3:2:0:0:
207,288,128553,2,0,L|322:275,1,90,6|2,1:2|0:0,0:0:0:0:
470,318,128756,2,0,L|381:329,1,90,10|2,3:2|3:2,0:0:0:0:
208,168,128959,5,6,1:2:0:0:
168,136,129060,1,2,0:0:0:0:
168,88,129161,1,10,3:2:0:0:
208,56,129262,1,6,3:2:0:0:
304,56,129364,5,2,1:2:0:0:
344,88,129465,1,2,3:2:0:0:
344,136,129566,1,10,3:2:0:0:
304,168,129667,1,2,0:0:0:0:
256,304,129770,5,2,3:2:0:0:
208,264,129871,1,2,0:0:0:0:
256,248,129972,1,2,0:0:0:0:
288,232,130074,1,2,3:2:0:0:
256,216,130175,1,2,3:2:0:0:
232,200,130276,1,2,0:0:0:0:
256,192,130378,1,2,3:2:0:0:
264,184,130479,1,2,0:0:0:0:
256,176,130580,1,2,3:2:0:0:
260,172,130682,1,2,0:0:0:0:
264,164,130783,1,2,0:0:0:0:
288,156,130885,1,2,3:2:0:0:
264,140,130986,1,2,3:2:0:0:
232,124,131087,1,2,0:0:0:0:
264,108,131189,1,2,3:2:0:0:
312,92,131290,1,2,0:0:0:0:
264,52,131391,6,0,L|200:52,1,45,2|2,0:0|0:0,0:0:0:0:
248,332,131695,2,0,L|312:332,1,45,2|2,0:0|3:2,0:0:0:0:
380,288,131999,5,2,3:2:0:0:
132,288,132202,1,2,3:2:0:0:
320,240,132405,5,2,0:0:0:0:
192,240,132607,1,2,0:0:0:0:
