osu file format v14

[General]
AudioFilename: audio.mp3
AudioLeadIn: 0
PreviewTime: 64094
Countdown: 0
SampleSet: None
StackLeniency: 0
Mode: 2
LetterboxInBreaks: 0
WidescreenStoryboard: 1

[Editor]
Bookmarks: 19499,38959,65006,90851,116797,129770
DistanceSpacing: 0.6
BeatDivisor: 4
GridSize: 32
TimelineZoom: 2.400001

[Metadata]
Title:Death by Glamour
TitleUnicode:Death by Glamour
Artist:toby fox
ArtistUnicode:toby fox
Creator:Velamy
Version:an3 hitsounding uwu
Source:UNDERTALE
Tags:penta -penta pentacoilz yoshiman01 mettaton undertale indie game rpg jrpg video videogame vgm soundtrack
BeatmapID:4537646
BeatmapSetID:2036330

[Difficulty]
HPDrainRate:0
CircleSize:2
OverallDifficulty:0
ApproachRate:10
SliderMultiplier:2
SliderTickRate:1

[Events]
//Background and Video events
0,0,"969432.jpg",0,0
//Break Periods
//Storyboard Layer 0 (Background)
//Storyboard Layer 1 (Fail)
//Storyboard Layer 2 (Pass)
//Storyboard Layer 3 (Foreground)
//Storyboard Layer 4 (Overlay)
//Storyboard Sound Samples

[TimingPoints]
44,405.406385737439,4,2,0,40,1,0
19499,-66.6666666666667,4,2,0,40,0,0
25986,-62.5,4,2,0,40,0,0
64909,-50,4,2,0,40,0,1
89233,-50,4,2,0,40,0,0
90855,-55.5555555555556,4,2,0,40,0,0
116801,-58.8235294117647,4,2,0,40,0,0

[Colours]
Combo1 : 255,226,138
Combo2 : 245,187,247
Combo3 : 135,215,241
Combo4 : 186,149,227

[HitObjects]
256,192,44,5,2,1:2:0:0:
256,192,449,1,2,1:2:0:0:
256,192,854,1,2,1:2:0:0:
256,192,1158,1,2,0:0:0:0:
256,192,1259,1,0,1:2:0:0:
256,192,1462,1,2,0:0:0:0:
256,192,1665,5,0,1:2:0:0:
256,192,1868,1,2,0:0:0:0:
256,192,2070,1,2,1:2:0:0:
256,192,2475,1,2,1:2:0:0:
256,192,2780,1,2,0:0:0:0:
256,192,2880,1,0,1:2:0:0:
256,192,3287,5,2,1:2:0:0:
256,192,3692,1,2,1:2:0:0:
256,192,4097,1,2,1:2:0:0:
256,192,4402,1,2,0:0:0:0:
256,192,4502,1,0,1:2:0:0:
256,192,4706,1,2,0:0:0:0:
256,192,4908,5,0,1:2:0:0:
256,192,5111,1,2,0:0:0:0:
256,192,5314,1,2,1:2:0:0:
256,192,5718,1,2,1:2:0:0:
256,192,6023,1,2,0:0:0:0:
256,192,6125,1,0,1:2:0:0:
256,192,6530,5,2,1:2:0:0:
256,192,6834,1,2,0:0:0:0:
256,192,6935,1,2,1:2:0:0:
256,192,7138,1,2,0:0:0:0:
256,192,7340,1,2,1:2:0:0:
256,192,7544,1,2,0:0:0:0:
256,192,7644,1,2,0:0:0:0:
256,192,7745,1,2,1:2:0:0:
256,192,7948,1,2,0:0:0:0:
256,192,8151,5,0,1:2:0:0:
256,192,8354,1,2,0:0:0:0:
256,192,8556,1,2,1:2:0:0:
256,192,8760,1,2,0:0:0:0:
256,192,8961,1,2,1:2:0:0:
256,192,9165,1,2,0:0:0:0:
256,192,9266,1,2,0:0:0:0:
256,192,9368,1,0,1:2:0:0:
256,192,9571,1,2,0:0:0:0:
256,192,9773,5,2,1:2:0:0:
256,192,10077,1,2,0:0:0:0:
256,192,10178,1,2,1:2:0:0:
256,192,10381,1,2,0:0:0:0:
256,192,10583,1,2,1:2:0:0:
256,192,10787,1,2,0:0:0:0:
256,192,10887,1,2,0:0:0:0:
256,192,10988,1,2,1:2:0:0:
256,192,11191,1,2,0:0:0:0:
256,192,11394,5,0,1:2:0:0:
256,192,11597,1,2,0:0:0:0:
256,192,11799,1,2,1:2:0:0:
256,192,12003,1,2,0:0:0:0:
256,192,12206,1,2,1:2:0:0:
256,192,12408,1,2,0:0:0:0:
256,192,12509,1,2,0:0:0:0:
256,192,12611,1,0,1:2:0:0:
256,192,12814,1,2,0:0:0:0:
256,192,13017,5,2,1:2:0:0:
256,192,13321,1,2,0:0:0:0:
256,192,13422,1,2,1:2:0:0:
256,192,13827,1,2,1:2:0:0:
256,192,14131,1,2,0:0:0:0:
256,192,14232,1,0,1:2:0:0:
256,192,14435,1,2,0:0:0:0:
256,192,14638,5,0,1:2:0:0:
256,192,14841,1,2,0:0:0:0:
256,192,15043,1,2,1:2:0:0:
256,192,15448,1,2,1:2:0:0:
256,192,15753,1,2,0:0:0:0:
256,192,15853,1,0,1:2:0:0:
256,192,16260,5,2,1:2:0:0:
256,192,16564,1,2,0:0:0:0:
256,192,16665,1,2,1:2:0:0:
256,192,17070,1,2,1:2:0:0:
256,192,17375,1,2,0:0:0:0:
256,192,17475,1,0,1:2:0:0:
256,192,17679,1,2,0:0:0:0:
256,192,17881,5,0,1:2:0:0:
256,192,18084,1,2,0:0:0:0:
256,192,18287,1,2,1:2:0:0:
256,192,18691,1,2,1:2:0:0:
256,192,18996,1,2,0:0:0:0:
256,192,19098,1,0,1:2:0:0:
256,192,19503,5,2,1:2:0:0:
256,96,19706,1,0,3:2:0:0:
256,192,19807,1,2,3:2:0:0:
256,192,19908,1,10,1:2:0:0:
256,96,20111,1,0,3:2:0:0:
256,96,20212,1,0,3:2:0:0:
256,192,20313,1,2,1:2:0:0:
256,96,20415,1,0,3:2:0:0:
256,96,20517,1,0,3:2:0:0:
256,192,20617,1,2,3:2:0:0:
256,192,20718,1,8,1:2:0:0:
256,192,20922,1,2,3:2:0:0:
256,96,21023,1,0,3:2:0:0:
256,192,21124,5,0,1:2:0:0:
256,192,21327,1,2,3:2:0:0:
256,192,21529,1,10,1:2:0:0:
256,96,21733,1,0,3:2:0:0:
256,96,21834,1,0,3:2:0:0:
256,192,21934,1,2,1:2:0:0:
256,96,22037,1,0,3:2:0:0:
256,96,22138,1,0,3:2:0:0:
256,192,22239,1,2,3:2:0:0:
256,192,22341,1,8,1:2:0:0:
256,192,22442,1,2,0:0:0:0:
256,192,22544,1,2,3:2:0:0:
256,192,22645,1,2,3:2:0:0:
256,192,22746,5,2,1:2:0:0:
256,96,22949,1,0,3:2:0:0:
256,192,23050,1,2,3:2:0:0:
256,192,23151,1,10,1:2:0:0:
256,96,23354,1,0,3:2:0:0:
256,96,23455,1,0,3:2:0:0:
256,192,23556,1,2,1:2:0:0:
256,96,23658,1,0,3:2:0:0:
256,96,23760,1,0,3:2:0:0:
256,192,23860,1,2,3:2:0:0:
256,192,23961,1,8,1:2:0:0:
256,192,24165,1,2,3:2:0:0:
256,96,24266,1,0,3:2:0:0:
256,192,24367,5,0,1:2:0:0:
256,192,24570,1,2,3:2:0:0:
256,192,24772,1,10,1:2:0:0:
256,96,24976,1,0,3:2:0:0:
256,96,25077,1,0,3:2:0:0:
256,192,25179,1,2,1:2:0:0:
256,96,25280,1,0,3:2:0:0:
256,96,25381,1,0,3:2:0:0:
256,192,25483,1,2,3:2:0:0:
256,192,25583,1,8,1:2:0:0:
256,192,25636,1,8,0:0:0:0:
256,192,25686,1,8,3:2:0:0:
256,192,25737,1,8,0:0:0:0:
256,192,25788,1,8,3:1:0:0:
256,192,25889,1,8,2:1:0:0:
256,192,25990,5,4,1:2:0:0:
256,96,26193,1,2,3:2:0:0:
256,192,26294,1,0,3:2:0:0:
256,192,26395,1,10,1:2:0:0:
256,96,26598,1,2,3:2:0:0:
256,96,26699,1,0,3:2:0:0:
256,192,26800,1,2,1:2:0:0:
256,96,26902,1,0,3:2:0:0:
256,96,27004,1,2,3:2:0:0:
256,192,27104,1,2,3:2:0:0:
256,192,27205,1,8,1:2:0:0:
256,192,27307,1,2,0:0:0:0:
256,192,27409,1,2,3:2:0:0:
256,96,27510,1,0,3:2:0:0:
256,192,27611,5,0,1:2:0:0:
256,192,27814,1,2,3:2:0:0:
256,192,28016,1,10,1:2:0:0:
256,96,28220,1,2,3:2:0:0:
256,96,28321,1,0,3:2:0:0:
256,192,28421,1,2,1:2:0:0:
256,96,28524,1,0,3:2:0:0:
256,96,28625,1,2,3:2:0:0:
256,192,28726,1,2,3:2:0:0:
256,192,28828,1,8,1:2:0:0:
256,192,28929,1,2,0:0:0:0:
256,192,29031,1,2,3:2:0:0:
256,192,29132,1,2,3:2:0:0:
256,192,29233,5,0,1:2:0:0:
256,96,29436,1,2,3:2:0:0:
256,192,29537,1,0,3:2:0:0:
256,192,29638,1,10,1:2:0:0:
256,96,29841,1,2,3:2:0:0:
256,96,29942,1,0,3:2:0:0:
256,192,30043,1,2,1:2:0:0:
256,96,30145,1,0,3:2:0:0:
256,96,30247,1,2,3:2:0:0:
256,192,30347,1,2,3:2:0:0:
256,192,30448,1,8,1:2:0:0:
256,192,30550,1,2,0:0:0:0:
256,192,30652,1,2,3:2:0:0:
256,96,30753,1,0,3:2:0:0:
256,192,30854,5,0,1:2:0:0:
256,192,31057,1,2,3:2:0:0:
256,192,31259,1,10,1:2:0:0:
256,96,31463,1,2,3:2:0:0:
256,96,31564,1,0,3:2:0:0:
256,192,31664,1,2,1:2:0:0:
256,96,31767,1,0,3:2:0:0:
256,96,31868,1,2,3:2:0:0:
256,192,31969,1,2,3:2:0:0:
256,192,32071,1,8,1:2:0:0:
256,192,32172,1,2,0:0:0:0:
256,192,32274,1,2,3:2:0:0:
256,192,32375,1,2,3:2:0:0:
256,192,32476,5,0,1:2:0:0:
256,96,32679,1,2,3:2:0:0:
256,192,32780,1,0,3:2:0:0:
256,192,32881,1,10,1:2:0:0:
256,96,33084,1,2,3:2:0:0:
256,96,33185,1,0,3:2:0:0:
256,192,33286,1,2,1:2:0:0:
256,96,33388,1,0,3:2:0:0:
256,96,33490,1,2,3:2:0:0:
256,192,33590,1,2,3:2:0:0:
256,192,33691,1,8,1:2:0:0:
256,192,33793,1,2,0:0:0:0:
256,192,33895,1,2,3:2:0:0:
256,96,33996,1,0,3:2:0:0:
256,192,34097,5,0,1:2:0:0:
256,192,34300,1,2,3:2:0:0:
256,192,34502,1,10,1:2:0:0:
256,96,34706,1,2,3:2:0:0:
256,96,34807,1,0,3:2:0:0:
256,192,34907,1,2,1:2:0:0:
256,96,35010,1,0,3:2:0:0:
256,96,35111,1,2,3:2:0:0:
256,192,35212,1,2,3:2:0:0:
256,192,35314,1,8,1:2:0:0:
256,192,35415,1,2,0:0:0:0:
256,192,35517,1,2,3:2:0:0:
256,192,35618,1,2,3:2:0:0:
256,192,35719,5,0,1:2:0:0:
256,96,35922,1,2,3:2:0:0:
256,192,36023,1,0,3:2:0:0:
256,192,36124,1,10,1:2:0:0:
256,96,36327,1,2,3:2:0:0:
256,96,36428,1,0,3:2:0:0:
256,192,36529,1,2,1:2:0:0:
256,96,36631,1,0,3:2:0:0:
256,96,36733,1,2,3:2:0:0:
256,192,36833,1,2,3:2:0:0:
256,192,36934,1,8,1:2:0:0:
256,192,37036,1,2,0:0:0:0:
256,192,37138,1,2,3:2:0:0:
256,96,37239,1,0,3:2:0:0:
256,192,37340,5,0,1:2:0:0:
256,192,37543,1,2,3:2:0:0:
256,192,37745,1,10,1:2:0:0:
256,96,37949,1,2,3:2:0:0:
256,96,38050,1,0,3:2:0:0:
256,192,38152,1,2,1:2:0:0:
256,96,38253,1,0,3:2:0:0:
256,96,38354,1,2,3:2:0:0:
256,192,38455,1,2,3:2:0:0:
256,192,38557,1,8,1:2:0:0:
256,192,38608,1,8,0:0:0:0:
256,192,38658,1,8,3:2:0:0:
256,192,38709,1,8,0:0:0:0:
256,192,38760,1,8,3:1:0:0:
256,192,38861,1,8,2:1:0:0:
256,192,38963,5,6,1:2:0:0:
256,192,39165,1,2,3:2:0:0:
256,192,39267,1,0,3:2:0:0:
256,192,39368,1,10,1:2:0:0:
256,192,39571,1,0,3:2:0:0:
256,192,39672,1,2,3:2:0:0:
256,192,39773,1,0,1:2:0:0:
256,192,39875,1,2,3:2:0:0:
256,192,39976,1,2,3:2:0:0:
256,192,40077,1,2,0:0:0:0:
256,192,40178,1,10,1:2:0:0:
256,192,40381,1,2,3:2:0:0:
256,192,40483,1,0,3:2:0:0:
256,192,40584,5,2,1:2:0:0:
256,192,40685,1,0,3:2:0:0:
256,192,40787,1,2,3:2:0:0:
256,192,40888,1,0,3:2:0:0:
256,192,40989,1,10,1:2:0:0:
256,192,41091,1,2,0:0:0:0:
256,192,41192,1,0,3:2:0:0:
256,192,41294,1,2,3:2:0:0:
256,192,41394,1,0,1:2:0:0:
256,192,41496,1,2,0:0:0:0:
256,192,41598,1,2,3:2:0:0:
256,192,41699,1,2,3:2:0:0:
256,192,41799,1,10,1:2:0:0:
256,192,42003,1,2,3:2:0:0:
256,192,42104,1,0,3:2:0:0:
256,192,42206,5,2,1:2:0:0:
256,192,42307,1,2,0:0:0:0:
256,192,42408,1,2,3:2:0:0:
256,192,42510,1,2,0:0:0:0:
256,192,42611,1,10,1:2:0:0:
256,192,42814,1,0,3:2:0:0:
256,192,42915,1,0,3:2:0:0:
256,192,43016,1,0,1:2:0:0:
256,192,43118,1,0,3:2:0:0:
256,192,43219,1,0,3:2:0:0:
256,192,43321,1,0,3:2:0:0:
256,192,43421,1,8,1:2:0:0:
256,192,43625,1,0,3:2:0:0:
256,192,43692,1,2,0:0:0:0:
256,192,43726,1,2,0:0:0:0:
256,192,43760,1,2,0:0:0:0:
256,192,43777,1,2,0:0:0:0:
256,192,43827,5,2,1:2:0:0:
256,192,43929,1,0,3:2:0:0:
256,192,44030,1,0,3:2:0:0:
256,192,44131,1,2,3:2:0:0:
256,192,44232,1,8,1:2:0:0:
256,192,44435,1,2,3:2:0:0:
256,192,44537,1,0,3:2:0:0:
256,192,44638,1,2,1:2:0:0:
256,192,44740,1,0,3:2:0:0:
256,192,44841,1,2,3:2:0:0:
256,192,44942,1,0,3:2:0:0:
256,192,45044,1,10,1:2:0:0:
256,192,45246,1,2,3:2:0:0:
256,192,45348,1,0,3:2:0:0:
256,192,45449,5,6,1:2:0:0:
256,192,45651,1,2,3:2:0:0:
256,192,45753,1,0,3:2:0:0:
256,192,45854,1,10,1:2:0:0:
256,192,45956,1,2,0:0:0:0:
256,192,46057,1,0,3:2:0:0:
256,192,46158,1,2,3:2:0:0:
256,192,46259,1,0,1:2:0:0:
256,192,46361,1,2,3:2:0:0:
256,192,46462,1,2,3:2:0:0:
256,192,46563,1,2,0:0:0:0:
256,192,46664,1,10,1:2:0:0:
256,192,46867,1,2,3:2:0:0:
256,192,46969,1,0,3:2:0:0:
256,192,47070,5,2,1:2:0:0:
256,192,47171,1,0,3:2:0:0:
256,192,47273,1,2,3:2:0:0:
256,192,47374,1,0,3:2:0:0:
256,192,47475,1,10,1:2:0:0:
256,192,47577,1,2,0:0:0:0:
256,192,47678,1,0,3:2:0:0:
256,192,47780,1,2,3:2:0:0:
256,192,47880,1,0,1:2:0:0:
256,192,47983,1,2,0:0:0:0:
256,192,48084,1,2,3:2:0:0:
256,192,48186,1,2,3:2:0:0:
256,192,48287,1,10,1:2:0:0:
256,192,48490,1,2,3:2:0:0:
256,192,48590,1,0,3:2:0:0:
256,192,48692,5,2,1:2:0:0:
256,192,48793,1,2,0:0:0:0:
256,192,48894,1,2,3:2:0:0:
256,192,48996,1,2,0:0:0:0:
256,192,49097,1,10,1:2:0:0:
256,192,49300,1,0,3:2:0:0:
256,192,49401,1,0,3:2:0:0:
256,192,49502,1,0,1:2:0:0:
256,192,49604,1,0,3:2:0:0:
256,192,49705,1,0,3:2:0:0:
256,192,49807,1,0,3:2:0:0:
256,192,49907,1,8,1:2:0:0:
256,192,50111,1,0,3:2:0:0:
256,192,50179,1,2,0:0:0:0:
256,192,50212,1,2,0:0:0:0:
256,192,50246,1,2,0:0:0:0:
256,192,50263,1,2,0:0:0:0:
256,192,50313,5,2,1:2:0:0:
256,192,50415,1,0,3:2:0:0:
256,192,50516,1,0,3:2:0:0:
256,192,50617,1,2,3:2:0:0:
256,192,50718,1,8,1:2:0:0:
256,192,50921,1,2,3:2:0:0:
256,192,51023,1,0,3:2:0:0:
256,192,51124,1,2,1:2:0:0:
256,192,51226,1,0,3:2:0:0:
256,192,51327,1,2,3:2:0:0:
256,192,51428,1,0,3:2:0:0:
256,192,51530,1,8,1:2:0:0:
256,192,51581,1,8,0:0:0:0:
256,192,51631,1,8,3:2:0:0:
256,192,51682,1,8,0:0:0:0:
256,192,51733,1,8,3:1:0:0:
256,192,51834,1,8,2:1:0:0:
256,192,51936,5,6,1:2:0:0:
256,192,52138,1,2,3:2:0:0:
256,192,52240,1,0,3:2:0:0:
256,192,52341,1,10,1:2:0:0:
256,192,52442,1,2,0:0:0:0:
256,192,52544,1,0,3:2:0:0:
256,192,52645,1,2,3:2:0:0:
256,192,52746,1,0,1:2:0:0:
256,192,52848,1,2,3:2:0:0:
256,192,52949,1,2,3:2:0:0:
256,192,53050,1,2,0:0:0:0:
256,192,53151,1,10,1:2:0:0:
256,192,53354,1,2,3:2:0:0:
256,192,53456,1,0,3:2:0:0:
256,192,53557,5,2,1:2:0:0:
256,192,53658,1,0,3:2:0:0:
256,192,53760,1,2,3:2:0:0:
256,192,53861,1,0,3:2:0:0:
256,192,53962,1,10,1:2:0:0:
256,192,54064,1,2,0:0:0:0:
256,192,54165,1,0,3:2:0:0:
256,192,54267,1,2,3:2:0:0:
256,192,54367,1,0,1:2:0:0:
256,192,54469,1,2,0:0:0:0:
256,192,54571,1,2,3:2:0:0:
256,192,54672,1,2,3:2:0:0:
256,192,54772,1,10,1:2:0:0:
256,192,54976,1,2,3:2:0:0:
256,192,55077,1,0,3:2:0:0:
256,192,55179,5,2,1:2:0:0:
256,192,55280,1,2,0:0:0:0:
256,192,55381,1,2,3:2:0:0:
256,192,55483,1,2,0:0:0:0:
256,192,55584,1,10,1:2:0:0:
256,192,55787,1,0,3:2:0:0:
256,192,55888,1,0,3:2:0:0:
256,192,55989,1,0,1:2:0:0:
256,192,56091,1,0,3:2:0:0:
256,192,56192,1,0,3:2:0:0:
256,192,56294,1,0,3:2:0:0:
256,192,56394,1,8,1:2:0:0:
256,192,56598,1,0,3:2:0:0:
256,192,56665,1,2,0:0:0:0:
256,192,56699,1,2,0:0:0:0:
256,192,56733,1,2,0:0:0:0:
256,192,56750,1,2,0:0:0:0:
256,192,56800,5,2,1:2:0:0:
256,192,56902,1,0,3:2:0:0:
256,192,57003,1,0,3:2:0:0:
256,192,57104,1,2,3:2:0:0:
256,192,57205,1,8,1:2:0:0:
256,192,57408,1,2,3:2:0:0:
256,192,57510,1,0,3:2:0:0:
256,192,57611,1,2,1:2:0:0:
256,192,57713,1,0,3:2:0:0:
256,192,57814,1,2,3:2:0:0:
256,192,57915,1,0,3:2:0:0:
256,192,58017,1,10,1:2:0:0:
256,192,58219,1,0,3:2:0:0:
256,192,58321,1,0,3:2:0:0:
256,192,58422,5,6,1:2:0:0:
256,192,58624,1,2,3:2:0:0:
256,192,58726,1,0,3:2:0:0:
256,192,58827,1,10,1:2:0:0:
256,192,58929,1,2,0:0:0:0:
256,192,59030,1,0,3:2:0:0:
256,192,59131,1,2,3:2:0:0:
256,192,59232,1,0,1:2:0:0:
256,192,59334,1,2,3:2:0:0:
256,192,59435,1,2,3:2:0:0:
256,192,59536,1,2,0:0:0:0:
256,192,59637,1,10,1:2:0:0:
256,192,59840,1,2,3:2:0:0:
256,192,59942,1,0,3:2:0:0:
256,192,60043,5,2,1:2:0:0:
256,192,60144,1,0,3:2:0:0:
256,192,60246,1,2,3:2:0:0:
256,192,60347,1,0,3:2:0:0:
256,192,60448,1,10,1:2:0:0:
256,192,60550,1,2,0:0:0:0:
256,192,60651,1,0,3:2:0:0:
256,192,60753,1,2,3:2:0:0:
256,192,60853,1,0,1:2:0:0:
256,192,60955,1,2,0:0:0:0:
256,192,61057,1,2,3:2:0:0:
256,192,61158,1,2,3:2:0:0:
256,192,61260,1,10,1:2:0:0:
256,192,61462,1,2,3:2:0:0:
256,192,61563,1,0,3:2:0:0:
256,192,61665,5,2,1:2:0:0:
256,192,61766,1,2,0:0:0:0:
256,192,61867,1,2,3:2:0:0:
256,192,61969,1,2,0:0:0:0:
256,192,62070,1,10,1:2:0:0:
256,192,62273,1,0,3:2:0:0:
256,192,62374,1,0,3:2:0:0:
256,192,62475,1,2,1:2:0:0:
256,192,62577,1,2,3:2:0:0:
256,192,62678,1,2,3:2:0:0:
256,192,62780,1,2,3:2:0:0:
256,192,62880,1,10,1:2:0:0:
256,192,63084,1,0,3:2:0:0:
256,192,63185,1,0,3:2:0:0:
256,192,63286,5,2,1:2:0:0:
256,192,63388,1,2,3:2:0:0:
256,192,63489,1,2,3:2:0:0:
256,192,63590,1,2,3:2:0:0:
256,192,63691,1,8,1:2:0:0:
256,192,63744,1,8,0:0:0:0:
256,192,63794,1,10,3:2:0:0:
256,192,63845,1,8,0:0:0:0:
256,192,63896,1,8,3:1:0:0:
256,192,63996,1,8,3:1:0:0:
256,192,64098,5,4,0:0:0:0:
256,192,64503,1,2,3:2:0:0:
256,192,64604,1,2,0:0:0:0:
256,192,64706,1,2,0:0:0:0:
256,192,64807,1,2,0:0:0:0:
256,192,64909,5,6,1:2:0:0:
256,192,65111,1,0,3:2:0:0:
256,192,65213,1,0,3:2:0:0:
256,192,65314,1,8,1:2:0:0:
256,192,65415,1,2,0:0:0:0:
256,192,65517,1,2,3:2:0:0:
256,192,65618,1,2,3:2:0:0:
256,192,65719,1,2,1:2:0:0:
256,192,65821,1,0,3:2:0:0:
256,192,66125,1,8,1:2:0:0:
256,192,66327,1,2,3:2:0:0:
256,192,66429,1,0,3:2:0:0:
256,192,66530,5,6,1:2:0:0:
256,192,66733,1,0,3:2:0:0:
256,192,66834,1,2,3:2:0:0:
256,192,66885,1,2,0:0:0:0:
256,192,66936,1,10,1:2:0:0:
256,192,67138,1,0,3:2:0:0:
256,192,67240,1,0,3:2:0:0:
256,192,67341,1,2,1:2:0:0:
256,192,67442,1,0,3:2:0:0:
256,192,67746,1,10,1:2:0:0:
256,192,67949,1,0,3:2:0:0:
256,192,68050,1,0,3:2:0:0:
256,192,68152,5,6,1:2:0:0:
256,192,68354,1,0,3:2:0:0:
256,192,68456,1,0,3:2:0:0:
256,192,68557,1,8,1:2:0:0:
256,192,68760,1,2,3:2:0:0:
256,192,68861,1,0,3:2:0:0:
256,192,68963,1,6,1:2:0:0:
256,192,69064,1,0,3:2:0:0:
256,192,69368,1,8,1:2:0:0:
256,192,69571,1,2,3:2:0:0:
256,192,69672,1,0,3:2:0:0:
256,192,69773,5,6,1:2:0:0:
256,192,69875,1,2,0:0:0:0:
256,192,69976,1,2,3:2:0:0:
256,192,70077,1,0,3:2:0:0:
256,192,70178,1,14,1:2:0:0:
256,192,70280,1,2,0:0:0:0:
256,192,70382,1,2,3:2:0:0:
256,192,70483,1,0,3:2:0:0:
256,192,70584,1,6,1:2:0:0:
256,192,70686,1,0,3:2:0:0:
256,192,70990,1,8,1:2:0:0:
256,192,71091,1,2,0:0:0:0:
256,192,71192,1,2,3:2:0:0:
256,192,71294,1,2,3:2:0:0:
256,192,71395,5,6,1:2:0:0:
256,192,71597,1,0,3:2:0:0:
256,192,71699,1,0,3:2:0:0:
256,192,71800,1,8,1:2:0:0:
256,192,71901,1,2,0:0:0:0:
256,192,72003,1,2,3:2:0:0:
256,192,72104,1,2,3:2:0:0:
256,192,72205,1,2,1:2:0:0:
256,192,72307,1,0,3:2:0:0:
256,192,72611,1,8,1:2:0:0:
256,192,72813,1,2,3:2:0:0:
256,192,72915,1,0,3:2:0:0:
256,192,73016,5,6,1:2:0:0:
256,192,73219,1,0,3:2:0:0:
256,192,73320,1,2,3:2:0:0:
256,192,73371,1,2,0:0:0:0:
256,192,73422,1,10,1:2:0:0:
256,192,73624,1,0,3:2:0:0:
256,192,73726,1,0,3:2:0:0:
256,192,73827,1,2,1:2:0:0:
256,192,73928,1,0,3:2:0:0:
256,192,74232,1,10,1:2:0:0:
256,192,74435,1,0,3:2:0:0:
256,192,74536,1,0,3:2:0:0:
256,192,74638,5,6,1:2:0:0:
256,192,74840,1,0,3:2:0:0:
256,192,74942,1,0,3:2:0:0:
256,192,75043,1,8,1:2:0:0:
256,192,75246,1,2,3:2:0:0:
256,192,75347,1,0,3:2:0:0:
256,192,75449,1,6,1:2:0:0:
256,192,75550,1,0,3:2:0:0:
256,192,75854,1,8,1:2:0:0:
256,192,76057,1,2,3:2:0:0:
256,192,76158,1,0,3:2:0:0:
256,192,76259,5,6,1:2:0:0:
256,192,76361,1,0,0:0:0:0:
256,192,76463,1,2,3:2:0:0:
256,192,76563,1,2,3:2:0:0:
256,192,76664,1,14,1:2:0:0:
256,192,76868,1,2,3:2:0:0:
256,192,76969,1,0,3:2:0:0:
256,192,77071,1,6,1:2:0:0:
256,192,77172,1,0,3:2:0:0:
256,192,77476,1,8,1:2:0:0:
256,192,77527,1,8,0:0:0:0:
256,192,77577,1,10,3:2:0:0:
256,192,77628,1,8,0:0:0:0:
256,192,77679,1,8,3:1:0:0:
256,192,77780,1,8,3:1:0:0:
256,192,77882,5,6,1:2:0:0:
256,192,78084,1,0,3:2:0:0:
256,192,78186,1,0,3:2:0:0:
256,192,78287,1,8,1:2:0:0:
256,192,78388,1,2,0:0:0:0:
256,192,78490,1,2,3:2:0:0:
256,192,78591,1,2,3:2:0:0:
256,192,78692,1,2,1:2:0:0:
256,192,78794,1,0,3:2:0:0:
256,192,79098,1,8,1:2:0:0:
256,192,79300,1,2,3:2:0:0:
256,192,79402,1,0,3:2:0:0:
256,192,79503,5,6,1:2:0:0:
256,192,79706,1,0,3:2:0:0:
256,192,79807,1,2,3:2:0:0:
256,192,79858,1,2,0:0:0:0:
256,192,79909,1,10,1:2:0:0:
256,192,80111,1,0,3:2:0:0:
256,192,80213,1,0,3:2:0:0:
256,192,80314,1,2,1:2:0:0:
256,192,80415,1,0,3:2:0:0:
256,192,80719,1,10,1:2:0:0:
256,192,80922,1,0,3:2:0:0:
256,192,81023,1,0,3:2:0:0:
256,192,81125,5,6,1:2:0:0:
256,192,81327,1,0,3:2:0:0:
256,192,81429,1,0,3:2:0:0:
256,192,81530,1,8,1:2:0:0:
256,192,81733,1,2,3:2:0:0:
256,192,81834,1,0,3:2:0:0:
256,192,81936,1,6,1:2:0:0:
256,192,82037,1,0,3:2:0:0:
256,192,82341,1,8,1:2:0:0:
256,192,82544,1,2,3:2:0:0:
256,192,82645,1,0,3:2:0:0:
256,192,82746,5,6,1:2:0:0:
256,192,82848,1,2,0:0:0:0:
256,192,82949,1,2,3:2:0:0:
256,192,83050,1,0,3:2:0:0:
256,192,83151,1,14,1:2:0:0:
256,192,83253,1,2,0:0:0:0:
256,192,83355,1,2,3:2:0:0:
256,192,83456,1,0,3:2:0:0:
256,192,83557,1,6,1:2:0:0:
256,192,83659,1,0,3:2:0:0:
256,192,83963,1,8,1:2:0:0:
256,192,84064,1,2,0:0:0:0:
256,192,84165,1,2,3:2:0:0:
256,192,84267,1,2,3:2:0:0:
256,192,84368,5,6,1:2:0:0:
256,192,84570,1,0,3:2:0:0:
256,192,84672,1,0,3:2:0:0:
256,192,84773,1,8,1:2:0:0:
256,192,84874,1,2,0:0:0:0:
256,192,84976,1,2,3:2:0:0:
256,192,85077,1,2,3:2:0:0:
256,192,85178,1,2,1:2:0:0:
256,192,85280,1,0,3:2:0:0:
256,192,85584,1,8,1:2:0:0:
256,192,85786,1,2,3:2:0:0:
256,192,85888,1,0,3:2:0:0:
256,192,85989,5,6,1:2:0:0:
256,192,86192,1,0,3:2:0:0:
256,192,86293,1,2,3:2:0:0:
256,192,86344,1,2,0:0:0:0:
256,192,86395,1,10,1:2:0:0:
256,192,86597,1,0,3:2:0:0:
256,192,86699,1,0,3:2:0:0:
256,192,86800,1,2,1:2:0:0:
256,192,86901,1,0,3:2:0:0:
256,192,87205,1,10,1:2:0:0:
256,192,87408,1,0,3:2:0:0:
256,192,87509,1,0,3:2:0:0:
256,192,87611,5,6,1:2:0:0:
256,192,87813,1,0,3:2:0:0:
256,192,87915,1,0,3:2:0:0:
256,192,88016,1,8,1:2:0:0:
256,192,88219,1,2,3:2:0:0:
256,192,88320,1,0,3:2:0:0:
256,192,88422,1,6,1:2:0:0:
256,192,88523,1,0,3:2:0:0:
256,192,88827,1,8,1:2:0:0:
256,192,89030,1,2,3:2:0:0:
256,192,89098,1,2,0:0:0:0:
256,192,89131,1,2,3:2:0:0:
256,192,89165,1,2,0:0:0:0:
256,192,89182,1,2,0:0:0:0:
256,192,89232,5,2,0:0:0:0:
256,192,89436,1,2,0:0:0:0:
256,192,89487,1,2,0:0:0:0:
256,192,89537,1,2,0:0:0:0:
256,192,89740,1,2,0:0:0:0:
256,192,89791,1,2,0:0:0:0:
256,192,89841,1,2,0:0:0:0:
256,192,90044,1,2,0:0:0:0:
256,192,90145,1,2,0:0:0:0:
256,192,90348,1,2,0:0:0:0:
256,192,90449,1,2,0:0:0:0:
256,192,90753,1,2,0:0:0:0:
256,192,90855,5,2,0:2:0:0:
256,192,91057,1,0,3:2:0:0:
256,192,91159,1,0,3:2:0:0:
256,192,91260,1,10,0:2:0:0:
256,192,91463,1,2,3:2:0:0:
256,192,91565,1,2,3:2:0:0:
256,192,91767,1,0,3:2:0:0:
256,192,91869,1,0,3:2:0:0:
256,192,91969,1,0,3:2:0:0:
256,192,92071,1,10,0:2:0:0:
256,192,92273,1,2,3:2:0:0:
256,192,92375,1,0,3:2:0:0:
256,192,92476,5,2,0:2:0:0:
256,192,92678,1,2,3:2:0:0:
256,192,92881,1,10,0:2:0:0:
256,192,93084,1,2,3:2:0:0:
256,192,93186,1,2,3:2:0:0:
256,192,93388,1,0,3:2:0:0:
256,192,93490,1,0,3:2:0:0:
256,192,93591,1,0,3:2:0:0:
256,192,93692,1,10,0:2:0:0:
256,192,93894,1,2,3:2:0:0:
256,192,93996,1,0,3:2:0:0:
256,192,94098,5,2,0:2:0:0:
256,192,94300,1,0,3:2:0:0:
256,192,94402,1,2,3:2:0:0:
256,192,94503,1,8,0:2:0:0:
256,192,94706,1,2,3:2:0:0:
256,192,94808,1,0,3:2:0:0:
256,192,94909,1,2,0:0:0:0:
256,192,95010,1,0,3:2:0:0:
256,192,95112,1,0,3:2:0:0:
256,192,95213,1,0,3:2:0:0:
256,192,95314,1,10,0:2:0:0:
256,192,95516,1,2,3:2:0:0:
256,192,95618,1,0,3:2:0:0:
256,192,95719,5,2,0:2:0:0:
256,192,95921,1,0,3:2:0:0:
256,192,96023,1,2,0:0:0:0:
256,192,96124,1,8,0:2:0:0:
256,192,96328,1,2,3:2:0:0:
256,192,96429,1,0,3:2:0:0:
256,192,96530,1,2,0:0:0:0:
256,192,96631,1,0,3:2:0:0:
256,192,96733,1,0,3:2:0:0:
256,192,96834,1,0,3:2:0:0:
256,192,96935,1,10,0:2:0:0:
256,192,97137,1,2,3:2:0:0:
256,192,97239,1,0,3:2:0:0:
256,192,97341,5,0,3:2:0:0:
256,192,97543,1,2,3:2:0:0:
256,192,97645,1,0,3:2:0:0:
256,192,97746,1,10,0:2:0:0:
256,192,97949,1,2,3:2:0:0:
256,192,98051,1,2,3:2:0:0:
256,192,98253,1,0,3:2:0:0:
256,192,98355,1,0,3:2:0:0:
256,192,98455,1,0,3:2:0:0:
256,192,98557,1,10,0:2:0:0:
256,192,98759,1,2,3:2:0:0:
256,192,98861,1,0,3:2:0:0:
256,192,98962,5,2,0:2:0:0:
256,192,99164,1,2,3:2:0:0:
256,192,99367,1,10,0:2:0:0:
256,192,99570,1,2,3:2:0:0:
256,192,99672,1,2,3:2:0:0:
256,192,99874,1,0,3:2:0:0:
256,192,99976,1,0,3:2:0:0:
256,192,100077,1,0,3:2:0:0:
256,192,100178,1,10,0:2:0:0:
256,192,100382,1,2,3:2:0:0:
256,192,100483,1,0,3:2:0:0:
256,192,100584,5,2,0:2:0:0:
256,192,100786,1,0,3:2:0:0:
256,192,100888,1,2,3:2:0:0:
256,192,100989,1,8,0:2:0:0:
256,192,101192,1,2,3:2:0:0:
256,192,101294,1,0,3:2:0:0:
256,192,101395,1,2,0:0:0:0:
256,192,101496,1,0,3:2:0:0:
256,192,101598,1,0,3:2:0:0:
256,192,101699,1,0,3:2:0:0:
256,192,101800,1,10,0:2:0:0:
256,192,102002,1,2,3:2:0:0:
256,192,102104,1,0,3:2:0:0:
256,192,102205,5,2,0:2:0:0:
256,192,102409,1,0,3:2:0:0:
256,192,102510,1,2,0:0:0:0:
256,192,102610,1,8,0:2:0:0:
256,192,102814,1,2,3:2:0:0:
256,192,102915,1,0,3:2:0:0:
256,192,103016,1,2,0:0:0:0:
256,192,103117,1,0,3:2:0:0:
256,192,103219,1,0,3:2:0:0:
256,192,103320,1,0,3:2:0:0:
256,192,103421,1,10,0:2:0:0:
256,192,103625,1,2,3:2:0:0:
256,192,103726,1,0,3:2:0:0:
256,192,103828,5,2,0:2:0:0:
256,192,104030,1,0,3:2:0:0:
256,192,104132,1,0,3:2:0:0:
256,192,104233,1,10,0:2:0:0:
256,192,104436,1,2,3:2:0:0:
256,192,104538,1,2,3:2:0:0:
256,192,104740,1,0,3:2:0:0:
256,192,104842,1,0,3:2:0:0:
256,192,104942,1,0,3:2:0:0:
256,192,105044,1,10,0:2:0:0:
256,192,105246,1,2,3:2:0:0:
256,192,105348,1,0,3:2:0:0:
256,192,105449,5,2,0:2:0:0:
256,192,105651,1,2,3:2:0:0:
256,192,105854,1,10,0:2:0:0:
256,192,106057,1,2,3:2:0:0:
256,192,106159,1,2,3:2:0:0:
256,192,106361,1,0,3:2:0:0:
256,192,106463,1,0,3:2:0:0:
256,192,106564,1,0,3:2:0:0:
256,192,106665,1,10,0:2:0:0:
256,192,106867,1,2,3:2:0:0:
256,192,106969,1,0,3:2:0:0:
256,192,107071,5,2,0:2:0:0:
256,192,107273,1,0,3:2:0:0:
256,192,107375,1,2,3:2:0:0:
256,192,107476,1,8,0:2:0:0:
256,192,107679,1,2,3:2:0:0:
256,192,107781,1,0,3:2:0:0:
256,192,107882,1,2,0:0:0:0:
256,192,107983,1,0,3:2:0:0:
256,192,108085,1,0,3:2:0:0:
256,192,108186,1,0,3:2:0:0:
256,192,108287,1,10,0:2:0:0:
256,192,108489,1,2,3:2:0:0:
256,192,108591,1,0,3:2:0:0:
256,192,108692,5,2,0:2:0:0:
256,192,108894,1,0,3:2:0:0:
256,192,108996,1,2,0:0:0:0:
256,192,109097,1,8,0:2:0:0:
256,192,109301,1,2,3:2:0:0:
256,192,109402,1,0,3:2:0:0:
256,192,109503,1,2,0:0:0:0:
256,192,109604,1,0,3:2:0:0:
256,192,109706,1,0,3:2:0:0:
256,192,109807,1,0,3:2:0:0:
256,192,109908,1,10,0:2:0:0:
256,192,110110,1,2,3:2:0:0:
256,192,110212,1,0,3:2:0:0:
256,192,110314,5,0,3:2:0:0:
256,192,110516,1,2,3:2:0:0:
256,192,110618,1,0,3:2:0:0:
256,192,110719,1,10,0:2:0:0:
256,192,110922,1,2,3:2:0:0:
256,192,111024,1,2,3:2:0:0:
256,192,111226,1,0,3:2:0:0:
256,192,111328,1,0,3:2:0:0:
256,192,111428,1,0,3:2:0:0:
256,192,111530,1,10,0:2:0:0:
256,192,111732,1,2,3:2:0:0:
256,192,111834,1,0,3:2:0:0:
256,192,111935,5,2,0:2:0:0:
256,192,112137,1,2,3:2:0:0:
256,192,112340,1,10,0:2:0:0:
256,192,112543,1,2,3:2:0:0:
256,192,112645,1,2,3:2:0:0:
256,192,112847,1,0,3:2:0:0:
256,192,112949,1,0,3:2:0:0:
256,192,113050,1,0,3:2:0:0:
256,192,113151,1,10,0:2:0:0:
256,192,113355,1,2,3:2:0:0:
256,192,113456,1,0,3:2:0:0:
256,192,113557,5,2,0:2:0:0:
256,192,113759,1,0,3:2:0:0:
256,192,113861,1,2,3:2:0:0:
256,192,113962,1,8,0:2:0:0:
256,192,114165,1,2,3:2:0:0:
256,192,114267,1,0,3:2:0:0:
256,192,114368,1,2,0:0:0:0:
256,192,114469,1,0,3:2:0:0:
256,192,114571,1,0,3:2:0:0:
256,192,114672,1,0,3:2:0:0:
256,192,114773,1,10,0:2:0:0:
256,192,114975,1,2,3:2:0:0:
256,192,115077,1,0,3:2:0:0:
256,192,115179,5,2,3:2:0:0:
256,192,115382,1,2,0:0:0:0:
256,192,115483,1,2,0:0:0:0:
256,192,115584,1,0,3:2:0:0:
256,192,115787,1,2,0:0:0:0:
256,192,115990,1,2,3:2:0:0:
256,192,116193,1,2,0:0:0:0:
256,192,116395,1,2,3:2:0:0:
256,192,116598,1,2,0:0:0:0:
256,192,116801,5,4,1:2:0:0:
256,192,117003,1,8,3:2:0:0:
256,192,117105,1,2,3:2:0:0:
256,192,117206,1,6,1:2:0:0:
256,192,117409,1,8,3:2:0:0:
256,192,117510,1,0,3:2:0:0:
256,192,117611,1,6,1:2:0:0:
256,192,117814,1,8,3:2:0:0:
256,192,117915,1,6,3:2:0:0:
256,192,118017,1,2,1:2:0:0:
256,192,118118,1,0,3:2:0:0:
256,192,118219,1,14,3:2:0:0:
256,192,118422,5,0,1:2:0:0:
256,192,118625,1,14,3:2:0:0:
256,192,118726,1,0,3:2:0:0:
256,192,118828,1,6,1:2:0:0:
256,192,119030,1,8,3:2:0:0:
256,192,119132,1,0,3:2:0:0:
256,192,119233,1,6,1:2:0:0:
256,192,119436,1,8,3:2:0:0:
256,192,119537,1,6,3:2:0:0:
256,192,119639,1,0,1:2:0:0:
256,192,119740,1,0,3:2:0:0:
256,192,119841,1,8,3:2:0:0:
256,192,120044,5,4,1:2:0:0:
256,192,120246,1,8,3:2:0:0:
256,192,120348,1,2,3:2:0:0:
256,192,120449,1,6,1:2:0:0:
256,192,120652,1,8,3:2:0:0:
256,192,120753,1,0,3:2:0:0:
256,192,120854,1,6,1:2:0:0:
256,192,121057,1,8,3:2:0:0:
256,192,121158,1,6,3:2:0:0:
256,192,121260,1,2,1:2:0:0:
256,192,121361,1,0,3:2:0:0:
256,192,121462,1,14,3:2:0:0:
256,192,121665,5,0,1:2:0:0:
256,192,121868,1,14,3:2:0:0:
256,192,121969,1,0,3:2:0:0:
256,192,122071,1,6,1:2:0:0:
256,192,122273,1,8,3:2:0:0:
256,192,122375,1,0,3:2:0:0:
256,192,122476,1,6,1:2:0:0:
256,192,122679,1,8,3:2:0:0:
256,192,122780,1,6,3:2:0:0:
256,192,122882,1,0,1:2:0:0:
256,192,122983,1,0,3:2:0:0:
256,192,123084,1,8,3:2:0:0:
256,192,123287,5,4,1:2:0:0:
256,192,123489,1,10,3:2:0:0:
256,192,123591,1,2,3:2:0:0:
256,192,123692,1,6,1:2:0:0:
256,192,123794,1,2,0:0:0:0:
256,192,123895,1,10,3:2:0:0:
256,192,123996,1,2,3:2:0:0:
256,192,124097,1,6,1:2:0:0:
256,192,124199,1,2,0:0:0:0:
256,192,124300,1,10,3:2:0:0:
256,192,124401,1,6,3:2:0:0:
256,192,124503,1,2,1:2:0:0:
256,192,124604,1,2,3:2:0:0:
256,192,124705,1,14,3:2:0:0:
256,192,124807,1,2,0:0:0:0:
256,192,124908,5,2,1:2:0:0:
256,192,125010,1,2,0:0:0:0:
256,192,125111,1,14,3:2:0:0:
256,192,125213,1,2,3:2:0:0:
256,192,125314,1,6,1:2:0:0:
256,192,125415,1,2,0:0:0:0:
256,192,125516,1,10,3:2:0:0:
256,192,125618,1,0,3:2:0:0:
256,192,125719,1,4,1:2:0:0:
256,192,125821,1,2,0:0:0:0:
256,192,125922,1,10,3:2:0:0:
256,192,126023,1,6,3:2:0:0:
256,192,126125,1,2,1:2:0:0:
256,192,126226,1,2,3:2:0:0:
256,192,126327,1,8,3:2:0:0:
256,192,126530,5,6,1:2:0:0:
256,192,126632,1,2,0:0:0:0:
256,192,126732,1,10,3:2:0:0:
256,192,126834,1,2,3:2:0:0:
256,192,126935,1,6,1:2:0:0:
256,192,127037,1,2,0:0:0:0:
256,192,127138,1,10,3:2:0:0:
256,192,127239,1,2,3:2:0:0:
256,192,127340,1,6,1:2:0:0:
256,192,127442,1,2,0:0:0:0:
256,192,127543,1,10,3:2:0:0:
256,192,127644,1,6,3:2:0:0:
256,192,127746,1,2,1:2:0:0:
256,192,127847,1,2,3:2:0:0:
256,192,127948,1,14,3:2:0:0:
256,192,128051,1,2,0:0:0:0:
256,192,128151,5,2,1:2:0:0:
256,192,128253,1,2,0:0:0:0:
256,192,128354,1,14,3:2:0:0:
256,192,128455,1,2,3:2:0:0:
256,192,128557,1,6,1:2:0:0:
256,192,128659,1,2,0:0:0:0:
256,192,128759,1,10,3:2:0:0:
256,192,128861,1,2,3:2:0:0:
256,192,128962,1,6,1:2:0:0:
256,192,129064,1,2,0:0:0:0:
256,192,129165,1,10,3:2:0:0:
256,192,129266,1,6,3:2:0:0:
256,192,129368,1,2,1:2:0:0:
256,192,129469,1,2,3:2:0:0:
256,192,129570,1,10,3:2:0:0:
256,192,129672,1,2,0:0:0:0:
256,192,129774,5,2,3:2:0:0:
256,192,129875,1,2,0:0:0:0:
256,192,129976,1,2,0:0:0:0:
256,192,130078,1,2,3:2:0:0:
256,192,130179,1,2,3:2:0:0:
256,192,130280,1,2,0:0:0:0:
256,192,130382,1,2,3:2:0:0:
256,192,130483,1,2,0:0:0:0:
256,192,130584,1,2,3:2:0:0:
256,192,130686,1,2,0:0:0:0:
256,192,130787,1,2,0:0:0:0:
256,192,130888,1,2,3:2:0:0:
256,192,130990,1,2,3:2:0:0:
256,192,131091,1,2,0:0:0:0:
256,192,131192,1,2,3:2:0:0:
256,192,131294,1,2,0:0:0:0:
256,192,131395,5,2,0:0:0:0:
256,192,131497,1,2,0:0:0:0:
256,192,131598,1,0,3:2:0:0:
256,192,131699,1,2,0:0:0:0:
256,192,131801,1,2,3:2:0:0:
256,192,132003,1,2,3:2:0:0:
256,192,132206,1,2,3:2:0:0:
256,192,132409,1,2,0:0:0:0:
256,192,132611,1,2,0:0:0:0:
