osu file format v14

[General]
AudioFilename: audio.mp3
AudioLeadIn: 0
PreviewTime: 64094
Countdown: 0
SampleSet: Soft
StackLeniency: 0.5
Mode: 0
LetterboxInBreaks: 0
WidescreenStoryboard: 1

[Editor]
DistanceSpacing: 1
BeatDivisor: 8
GridSize: 32
TimelineZoom: 2.7

[Metadata]
Title:Death by Glamour
TitleUnicode:Death by Glamour
Artist:toby fox
ArtistUnicode:toby fox
Creator:Velamy
Version:Velamy & Magic's Normal
Source:UNDERTALE
Tags:themagicanimals the magic animals arphimigon deglegneg deg leg neg take sinyus20 sukii vetoed penta -penta pentacoilz yoshiman01 thecosmicchef the cosmic chef an3 -_sandy spxderweeb andrai ai_haibara mettaton undertale indie game rpg jrpg video videogame vgm instrumental soundtrack
BeatmapID:4496823
BeatmapSetID:2036330

[Difficulty]
HPDrainRate:3
CircleSize:2.5
OverallDifficulty:4
ApproachRate:5
SliderMultiplier:1.7
SliderTickRate:1

[Events]
//Background and Video events
0,0,"thumb-1920-731367.png",0,0
//Break Periods
//Storyboard Layer 0 (Background)
//Storyboard Layer 1 (Fail)
//Storyboard Layer 2 (Pass)
//Storyboard Layer 3 (Foreground)
//Storyboard Layer 4 (Overlay)
//Storyboard Sound Samples

[TimingPoints]
40,405.406385737439,4,2,0,40,1,0
64905,-100,4,2,0,40,0,1
89229,-100,4,2,0,40,0,0

[Colours]
Combo1 : 255,255,0
Combo2 : 0,255,0
Combo3 : 0,128,255
Combo4 : 255,0,0

[HitObjects]
256,192,19499,6,0,B|272:153|272:153|272:69|272:69|247:32,1,170,2|10,1:2|1:2,0:0:0:0:
80,33,20310,2,0,B|55:69|55:69|55:153|55:153|71:192,1,170,2|8,1:2|1:2,0:0:0:0:
192,306,21121,2,0,L|376:284,1,170,0|10,1:2|1:2,0:0:0:0:
448,291,21729,1,0,3:2:0:0:
448,291,21931,2,0,L|470:107,1,170,2|8,1:2|1:2,0:0:0:0:
317,50,22742,6,0,B|234:29|234:29|139:59,1,170,2|10,1:2|1:2,0:0:0:0:
162,221,23553,2,0,L|345:206,1,170,2|8,1:2|1:2,0:0:0:0:
418,204,24161,1,2,3:2:0:0:
418,204,24364,1,0,1:2:0:0:
353,357,24769,1,10,1:2:0:0:
186,344,25175,2,0,L|94:336,1,85,2|0,1:2|3:2,0:0:0:0:
20,356,25580,2,0,L|12:264,1,85,8|0,1:2|0:0,0:0:0:0:
41,192,25986,5,4,1:2:0:0:
7,28,26391,1,10,1:2:0:0:
163,83,26796,2,0,B|203:99|203:99|251:79,1,85,2|0,1:2|0:0,0:0:0:0:
315,42,27202,2,0,B|355:26|355:26|403:46,1,85,8|2,1:2|3:2,0:0:0:0:
462,89,27607,1,0,1:2:0:0:
331,192,28013,1,10,1:2:0:0:
196,295,28418,2,0,L|135:234,1,85,2|2,1:2|3:2,0:0:0:0:
135,149,28823,2,0,L|196:89,1,85,8|0,1:2|0:0,0:0:0:0:
256,28,29229,5,0,1:2:0:0:
351,164,29634,2,0,L|462:144,1,85,10|2,1:2|3:2,0:0:0:0:
493,208,30040,2,0,B|495:293|495:293|400:286,1,170,2|8,1:2|1:2,0:0:0:0:
345,338,30648,1,2,3:2:0:0:
345,338,30850,1,0,1:2:0:0:
256,192,31256,1,10,1:2:0:0:
167,338,31661,2,0,B|183:298|183:298|163:250,1,85,2|2,1:2|3:2,0:0:0:0:
126,186,32067,2,0,B|110:146|110:146|130:98,1,85,8|2,1:2|3:2,0:0:0:0:
209,88,32472,6,0,L|410:72,1,170,0|10,1:2|1:2,0:0:0:0:
433,237,33283,2,0,L|232:253,1,170,2|8,1:2|1:2,0:0:0:0:
189,289,33891,1,2,3:2:0:0:
189,289,34094,1,0,1:2:0:0:
50,192,34499,1,10,1:2:0:0:
189,95,34904,2,0,B|256:43|256:43|323:95,1,170,2|8,1:2|1:2,0:0:0:0:
256,251,35715,5,0,1:2:0:0:
124,356,36121,1,10,1:2:0:0:
34,211,36526,2,0,L|17:113,1,85,2|2,1:2|3:2,0:0:0:0:
102,106,36931,2,0,L|85:8,1,85,8|2,1:2|3:2,0:0:0:0:
171,4,37337,1,0,1:2:0:0:
256,150,37742,1,10,1:2:0:0:
341,4,38148,2,0,L|445:-5,1,85,2|2,1:2|3:2,0:0:0:0:
489,53,38553,2,0,L|498:157,1,85,8|8,1:2|3:1,0:0:0:0:
427,188,38959,6,0,B|391:166|391:166|348:174,2,85,6|2|10,1:2|3:2|1:2,0:0:0:0:
470,352,39769,1,0,1:2:0:0:
304,384,40175,1,10,1:2:0:0:
264,219,40580,2,0,L|255:123,1,85,2|2,1:2|3:2,0:0:0:0:
170,140,40986,2,0,L|177:224,1,85,10|0,1:2|3:2,0:0:0:0:
192,308,41391,1,0,1:2:0:0:
59,202,41796,2,0,B|32:169|32:169|32:106,1,85,10|2,1:2|3:2,0:0:0:0:
31,41,42202,5,2,1:2:0:0:
31,41,43823,2,0,L|136:41,1,85,2|0,1:2|3:2,0:0:0:0:
202,41,44229,1,8,1:2:0:0:
202,210,44634,2,0,L|97:210,1,85,2|2,1:2|3:2,0:0:0:0:
31,210,45040,2,0,L|31:315,1,85,10|2,1:2|3:2,0:0:0:0:
31,380,45445,5,6,1:2:0:0:
197,348,45850,1,10,1:2:0:0:
364,319,46256,2,0,B|395:349|395:349|463:336,2,85,0|2|10,1:2|3:2|1:2,0:0:0:0:
311,252,46864,1,2,3:2:0:0:
311,252,47067,2,0,L|296:133,1,85,2|2,1:2|3:2,0:0:0:0:
286,83,47472,1,10,1:2:0:0:
455,85,47877,2,0,L|440:204,1,85,0|2,1:2|3:2,0:0:0:0:
430,254,48283,1,10,1:2:0:0:
278,331,48688,5,2,1:2:0:0:
278,331,50310,2,0,L|263:212,1,85,2|0,1:2|3:2,0:0:0:0:
256,162,50715,1,8,1:2:0:0:
88,191,51121,2,0,L|103:72,1,85,2|2,1:2|3:2,0:0:0:0:
110,22,51526,2,0,L|229:37,1,85,8|8,1:2|3:1,0:0:0:0:
256,91,51932,6,0,B|299:97|299:97|345:70,2,85,6|2|10,1:2|3:2|1:2,0:0:0:0:
202,252,52742,2,0,L|212:336,1,85,0|2,1:2|3:2,0:0:0:0:
299,336,53148,2,0,L|310:252,1,85,10|2,1:2|3:2,0:0:0:0:
382,207,53553,2,0,B|467:209|467:209|460:114,1,170,2|10,1:2|1:2,0:0:0:0:
334,8,54364,2,0,B|249:6|249:6|256:101,1,170,0|10,1:2|1:2,0:0:0:0:
256,180,54972,1,2,3:2:0:0:
256,180,55175,5,2,1:2:0:0:
256,179,56796,2,0,L|151:179,1,85,2|0,1:2|3:2,0:0:0:0:
85,179,57202,1,8,1:2:0:0:
85,348,57607,2,0,L|189:348,1,85,2|2,1:2|3:2,0:0:0:0:
256,348,58013,1,10,1:2:0:0:
256,179,58418,6,0,L|256:91,2,85,6|2|10,1:2|3:2|1:2,0:0:0:0:
86,197,59229,2,0,B|31:132|31:132|77:61,1,170,0|10,1:2|1:2,0:0:0:0:
138,0,59837,1,2,3:2:0:0:
138,0,60040,2,0,L|213:39,1,85,2|2,1:2|3:2,0:0:0:0:
298,39,60445,2,0,L|374:0,1,85,10|0,1:2|3:2,0:0:0:0:
434,61,60850,2,0,B|481:132|481:132|426:197,1,170,0|10,1:2|1:2,0:0:0:0:
342,215,61459,1,2,3:2:0:0:
342,215,61661,6,0,L|352:317,2,85,2|2|10,1:2|3:2|1:2,0:0:0:0:
170,215,62472,2,0,L|160:317,2,85,2|2|10,1:2|3:2|1:2,0:0:0:0:
170,45,63283,1,2,1:2:0:0:
342,45,63688,1,8,1:2:0:0:
256,192,64094,1,4,0:0:0:0:
59,86,64905,6,0,B|16:160|16:160|58:239,1,170,6|8,1:2|1:2,0:0:0:0:
140,242,65513,1,2,3:2:0:0:
140,242,65715,2,0,L|248:242,1,85,2|0,1:2|0:0,0:0:0:0:
310,243,66121,2,0,L|386:166,1,85,8|2,1:2|3:2,0:0:0:0:
332,106,66526,2,0,B|256:66|256:66|154:67,1,170,6|10,1:2|1:2,0:0:0:0:
94,102,67134,1,0,3:2:0:0:
94,102,67337,2,0,L|94:210,1,85,2|0,1:2|0:0,0:0:0:0:
98,272,67742,2,0,L|174:348,1,85,10|0,1:2|3:2,0:0:0:0:
243,338,68148,6,0,B|275:260|275:260|263:174,1,170,6|8,1:2|1:2,0:0:0:0:
256,90,68756,1,2,3:2:0:0:
256,90,68959,2,0,L|449:69,1,170,6|8,1:2|1:2,0:0:0:0:
512,95,69567,1,2,3:2:0:0:
512,95,69769,1,6,1:2:0:0:
372,192,70175,1,14,1:2:0:0:
512,289,70580,1,6,1:2:0:0:
350,342,70986,2,0,L|266:359,1,85,8|2,1:2|3:2,0:0:0:0:
182,369,71391,6,0,B|161:285|161:285|179:186,1,170,6|8,1:2|1:2,0:0:0:0:
218,131,71999,1,2,3:2:0:0:
218,131,72202,2,0,L|386:89|386:89,1,170,2|8,1:2|1:2,0:0:0:0:
470,75,72810,1,2,3:2:0:0:
470,75,73013,2,0,L|513:243|513:243,1,170,6|10,1:2|1:2,0:0:0:0:
467,313,73621,1,0,3:2:0:0:
467,313,73823,2,0,L|376:267,1,85,2|0,1:2|0:0,0:0:0:0:
308,296,74229,2,0,L|217:342,1,85,10|0,1:2|3:2,0:0:0:0:
159,379,74634,6,0,B|99:319|99:319|68:239,1,170,6|8,1:2|1:2,0:0:0:0:
141,194,75242,1,2,3:2:0:0:
141,194,75445,2,0,B|200:253|200:253|231:333,1,170,6|8,1:2|1:2,0:0:0:0:
316,363,76053,1,2,3:2:0:0:
316,363,76256,2,0,L|407:317,1,85,6|2,1:2|3:2,0:0:0:0:
403,240,76661,2,0,L|478:201,1,85,14|2,1:2|3:2,0:0:0:0:
512,122,77067,1,6,1:2:0:0:
355,54,77472,2,0,L|261:48,1,84.9999847412109,8|8,1:2|3:1,0:0:0:0:
188,67,77878,6,0,B|145:141|145:141|187:220,1,170,6|8,1:2|1:2,0:0:0:0:
250,278,78486,1,2,3:2:0:0:
250,278,78688,2,0,L|313:215,1,85,2|0,1:2|0:0,0:0:0:0:
384,175,79094,2,0,L|446:238,1,85,8|2,1:2|3:2,0:0:0:0:
492,165,79499,6,0,B|532:90|532:90|489:16,1,170,6|10,1:2|1:2,0:0:0:0:
412,47,80107,1,0,3:2:0:0:
412,47,80310,2,0,L|333:91|333:91,1,85,2|0,1:2|0:0,0:0:0:0:
297,163,80715,2,0,B|256:149|256:149|215:163,1,85,10|0,1:2|3:2,0:0:0:0:
140,205,81121,6,0,L|211:360,1,170,6|8,1:2|1:2,0:0:0:0:
301,359,81729,1,2,3:2:0:0:
301,359,81932,2,0,L|372:205,1,170,6|8,1:2|1:2,0:0:0:0:
418,134,82540,1,2,3:2:0:0:
418,134,82742,1,6,1:2:0:0:
256,78,83148,1,14,1:2:0:0:
94,134,83553,1,6,1:2:0:0:
8,281,83959,2,0,L|40:365,1,85,8|2,1:2|3:2,0:0:0:0:
118,333,84364,6,0,L|296:265,1,170,6|8,1:2|1:2,0:0:0:0:
358,241,84972,1,2,3:2:0:0:
358,241,85175,2,0,L|326:161,1,85,2|0,1:2|0:0,0:0:0:0:
290,85,85580,2,0,L|210:116,1,85,8|2,1:2|3:2,0:0:0:0:
147,173,85986,2,0,B|95:101|95:101|-15:59,1,170,6|10,1:2|1:2,0:0:0:0:
4,159,86594,1,0,3:2:0:0:
4,159,86796,2,0,L|11:246,1,85,2|0,1:2|0:0,0:0:0:0:
96,241,87202,2,0,L|103:328,1,85,10|0,1:2|3:2,0:0:0:0:
185,345,87607,6,0,B|259:312|259:312|347:327,1,170,6|8,1:2|1:2,0:0:0:0:
432,355,88215,1,2,3:2:0:0:
432,355,88418,2,0,B|465:281|465:281|451:193,1,170,6|8,1:2|1:2,0:0:0:0:
389,134,89026,1,2,3:2:0:0:
389,134,89229,6,0,B|375:72|375:72|404:54|413:6,2,127.5,2|2|2,0:0|0:0|0:0,0:0:0:0:
327,192,90040,2,0,P|251:176|196:77,1,170,2|2,0:0|0:0,0:0:0:0:
36,55,90851,6,0,P|83:164|90:216,1,170,2|10,0:2|0:2,0:0:0:0:
69,298,91459,1,2,3:2:0:0:
69,298,91661,2,0,P|147:319|231:363,1,170,0|10,0:0|0:2,0:0:0:0:
315,363,92269,1,2,3:2:0:0:
315,363,92472,2,0,P|339:339|358:289,1,85,2|2,0:2|3:2,0:0:0:0:
397,216,92878,2,0,P|373:192|354:142,1,85,10|2,0:2|3:2,0:0:0:0:
348,60,93283,1,0,0:0:0:0:
202,152,93688,2,0,P|145:143|89:103,1,85,10|2,0:2|3:2,0:0:0:0:
37,150,94094,6,0,P|52:211|41:278,2,127.5,2|2|2,0:2|3:2|3:2,0:0:0:0:
5,70,94905,1,2,0:0:0:0:
174,57,95310,2,0,P|231:48|287:8,1,85,10|2,0:2|3:2,0:0:0:0:
334,65,95715,2,0,P|318:126|329:193,2,127.5,2|2|2,0:2|0:0|3:2,0:0:0:0:
417,47,96526,1,2,0:0:0:0:
457,215,96932,2,0,P|463:260|455:318,1,85,10|2,0:2|3:2,0:0:0:0:
304,364,97540,5,2,3:2:0:0:
304,364,97742,2,0,P|310:319|294:252,1,85,10|2,0:2|3:2,0:0:0:0:
238,227,98148,2,0,B|148:186|146:275|45:216,1,170,0|10,0:0|0:2,0:0:0:0:
3,186,98756,1,2,3:2:0:0:
3,186,98959,2,0,P|-3:141|13:74,1,85,2|2,0:2|3:2,0:0:0:0:
48,30,99364,2,0,P|93:24|160:40,1,85,10|2,0:2|3:2,0:0:0:0:
211,60,99769,1,0,0:0:0:0:
316,193,100175,2,0,P|364:198|400:193,1,85,10|2,0:2|3:2,0:0:0:0:
478,226,100580,6,0,P|477:293|499:348,2,127.5,2|2|2,0:2|3:2|3:2,0:0:0:0:
498,143,101391,1,2,0:0:0:0:
405,0,101797,2,0,P|360:-5|292:11,1,85,10|2,0:2|3:2,0:0:0:0:
275,72,102202,2,0,P|275:141|253:194,2,127.5,2|2|2,0:2|0:0|3:2,0:0:0:0:
212,13,103013,1,2,0:0:0:0:
83,124,103418,2,0,P|40:118|-1:124,1,85,10|2,0:2|3:2,0:0:0:0:
30,204,103824,2,0,B|71:294|-17:296|41:397,1,170,2|10,0:2|0:2,0:0:0:0:
110,340,104432,1,2,3:2:0:0:
110,340,104634,6,0,P|192:349|276:327,1,170,0|10,0:0|0:2,0:0:0:0:
337,268,105242,1,2,3:2:0:0:
337,268,105445,2,0,P|332:223|348:155,1,85,2|2,0:2|3:2,0:0:0:0:
400,125,105851,2,0,P|433:120|484:124,1,85,10|2,0:2|3:2,0:0:0:0:
503,207,106256,1,0,0:0:0:0:
435,362,106661,2,0,P|390:356|323:372,1,85,10|2,0:2|3:2,0:0:0:0:
268,340,107067,6,0,P|241:282|196:238,2,127.5,2|2|2,0:2|3:2|3:2,0:0:0:0:
188,370,107878,1,2,0:0:0:0:
78,240,108283,2,0,P|59:192|67:147,1,85,10|2,0:2|3:2,0:0:0:0:
113,91,108688,2,0,P|173:69|236:70,2,127.5,2|2|2,0:2|0:0|3:2,0:0:0:0:
152,166,109499,2,0,B|235:185|173:250|266:284,1,170,2|10,0:0|0:2,0:0:0:0:
337,243,110107,1,2,3:2:0:0:
350,73,110513,1,2,3:2:0:0:
350,73,110715,2,0,P|390:70|431:88,1,85,10|2,0:2|3:2,0:0:0:0:
497,141,111121,6,0,P|519:223|510:307,1,170,0|10,0:0|0:2,0:0:0:0:
431,339,111729,1,2,3:2:0:0:
431,339,111932,2,0,P|392:341|351:323,1,85,2|2,0:2|3:2,0:0:0:0:
298,257,112337,2,0,P|258:254|217:272,1,85,10|2,0:2|3:2,0:0:0:0:
146,318,112742,1,0,0:0:0:0:
72,165,113148,2,0,P|54:127|56:85,1,85,10|2,0:2|3:2,0:0:0:0:
126,37,113553,6,0,P|186:15|249:16,2,127.5,2|2|2,0:2|3:2|3:2,0:0:0:0:
157,116,114364,2,0,P|210:182|284:224,1,170,2|10,0:0|0:2,0:0:0:0:
373,222,114972,1,2,3:2:0:0:
373,222,115175,2,0,P|436:221|496:243,2,127.5,2|2|2,3:2|0:0|0:0,0:0:0:0:
353,305,115986,2,0,P|269:314|188:292,1,170,2|2,3:2|3:2,0:0:0:0:
111,257,116594,1,2,0:0:0:0:
111,257,116797,6,0,B|63:186|63:186|122:96,1,170,4|6,1:2|1:2,0:0:0:0:
174,60,117405,1,8,3:2:0:0:
174,60,117607,2,0,L|307:42,2,127.5,6|6|14,1:2|3:2|3:2,0:0:0:0:
187,145,118418,2,0,L|200:241,1,85,0|14,1:2|3:2,0:0:0:0:
216,312,118824,2,0,L|312:298,1,85,6|8,1:2|3:2,0:0:0:0:
373,343,119229,2,0,B|439:293|439:293|452:206,1,170,6|0,1:2|1:2,0:0:0:0:
422,39,120040,5,4,1:2:0:0:
256,0,120445,1,6,1:2:0:0:
90,39,120851,2,0,L|107:169,2,127.5,6|6|14,1:2|3:2|3:2,0:0:0:0:
6,50,121661,2,0,L|20:152,1,85,0|14,1:2|3:2,0:0:0:0:
37,217,122067,2,0,L|23:319,1,85,6|8,1:2|3:2,0:0:0:0:
90,355,122472,2,0,B|154:346|154:346|181:315|181:315|250:310,1,170,6|0,1:2|1:2,0:0:0:0:
406,254,123283,6,0,B|452:183|452:183|404:112,1,170,4|6,1:2|1:2,0:0:0:0:
328,78,123891,1,10,3:2:0:0:
328,78,124094,2,0,L|195:96,2,127.5,6|6|14,1:2|3:2|3:2,0:0:0:0:
325,164,124905,2,0,L|339:266,1,85,2|14,1:2|3:2,0:0:0:0:
355,331,125310,2,0,L|259:345,1,85,6|10,1:2|3:2,0:0:0:0:
218,276,125715,2,0,B|154:267|154:267|127:236|127:236|63:232,1,170,4|2,1:2|1:2,0:0:0:0:
74,62,126526,5,6,1:2:0:0:
237,109,126932,1,6,1:2:0:0:
391,37,127337,2,0,B|454:19|454:19|516:40,2,127.5,6|6|14,1:2|3:2|3:2,0:0:0:0:
380,121,128148,2,0,L|394:223,1,85,2|14,1:2|3:2,0:0:0:0:
365,286,128553,2,0,L|263:300,1,85,6|10,1:2|3:2,0:0:0:0:
200,268,128959,2,0,B|191:204|191:204|160:177|160:177|155:113,1,170,6|2,1:2|1:2,0:0:0:0:
3,34,129770,6,0,B|38:57|38:57|28:98|28:98|51:132|51:132|31:162|31:162|41:180,1,170,2|2,3:2|3:2,0:0:0:0:
94,239,130378,1,2,3:2:0:0:
94,239,130580,2,0,B|89:246|89:246|109:276|109:276|86:310|86:310|96:351|96:351|61:374,2,170,2|2|2,3:2|3:2|0:0,0:0:0:0:
171,86,131797,1,2,3:2:0:0:
341,86,132202,1,2,3:2:0:0:
256,233,132607,1,2,0:0:0:0:
