osu file format v14

[General]
AudioFilename: audio.mp3
AudioLeadIn: 0
PreviewTime: 64094
Countdown: 0
SampleSet: Soft
StackLeniency: 0.5
Mode: 0
LetterboxInBreaks: 0
WidescreenStoryboard: 1

[Editor]
Bookmarks: 19499,25986,38959,64905,65006,90851,116797,129770
DistanceSpacing: 0.97
BeatDivisor: 4
GridSize: 32
TimelineZoom: 2.7

[Metadata]
Title:Death by Glamour
TitleUnicode:Death by Glamour
Artist:toby fox
ArtistUnicode:toby fox
Creator:Velamy
Version:Take's Insane
Source:UNDERTALE
Tags:themagicanimals the magic animals arphimigon deglegneg deg leg neg take sinyus20 sukii vetoed penta -penta pentacoilz yoshiman01 thecosmicchef the cosmic chef an3 -_sandy spxderweeb andrai ai_haibara mettaton undertale indie game rpg jrpg video videogame vgm instrumental soundtrack
BeatmapID:4419564
BeatmapSetID:2036330

[Difficulty]
HPDrainRate:3
CircleSize:3.8
OverallDifficulty:7
ApproachRate:8.5
SliderMultiplier:2
SliderTickRate:1

[Events]
//Background and Video events
0,0,"thumb-1920-731367.png",0,0
//Break Periods
//Storyboard Layer 0 (Background)
//Storyboard Layer 1 (Fail)
//Storyboard Layer 2 (Pass)
//Storyboard Layer 3 (Foreground)
//Storyboard Layer 4 (Overlay)
//Storyboard Sound Samples

[TimingPoints]
40,405.406385737439,4,2,0,40,1,0
19499,-100,4,2,0,40,0,0
64905,-83.3333333333333,4,2,0,40,0,1
89229,-133.333333333333,4,2,0,40,0,0
90851,-71.4285714285714,4,2,0,40,0,0
116797,-100,4,2,0,40,0,0

[Colours]
Combo1 : 255,255,0
Combo2 : 0,255,0
Combo3 : 0,128,255
Combo4 : 255,0,0

[HitObjects]
70,190,19499,6,0,L|167:169,1,100,2|0,1:2|3:2,0:0:0:0:
202,165,19803,1,2,3:2:0:0:
202,165,19904,2,0,B|239:126|239:126|241:77,1,100,10|0,1:2|3:2,0:0:0:0:
370,260,20310,2,0,L|391:357,1,100,2|0,1:2|3:2,0:0:0:0:
294,341,20614,2,0,B|255:334|255:334|240:319|240:319|201:310,1,100,2|0,3:2|0:0,0:0:0:0:
292,240,20918,1,2,3:2:0:0:
202,165,21121,5,0,1:2:0:0:
294,341,21323,1,2,3:2:0:0:
116,384,21526,2,0,B|109:345|109:345|94:330|94:330|85:291,1,100,10|0,1:2|3:2,0:0:0:0:
120,199,21830,1,0,3:2:0:0:
120,199,21931,6,0,L|23:178,1,100,2|0,1:2|3:2,0:0:0:0:
173,290,22235,2,0,L|270:269,1,100,2|2,3:2|0:0,0:0:0:0:
398,328,22540,1,2,3:2:0:0:
422,321,22641,1,2,3:2:0:0:
442,302,22742,6,0,L|421:205,1,100,2|0,1:2|3:2,0:0:0:0:
415,172,23046,1,2,3:2:0:0:
415,172,23148,2,0,B|366:159|366:159|320:186,1,100,10|0,1:2|3:2,0:0:0:0:
421,69,23553,2,0,B|470:82|470:82|516:55,1,100,2|0,1:2|3:2,0:0:0:0:
345,1,23857,2,0,B|338:40|338:40|323:55|323:55|314:94,1,100,2|0,3:2|0:0,0:0:0:0:
415,172,24161,1,2,3:2:0:0:
458,3,24364,5,0,1:2:0:0:
314,93,24567,1,2,3:2:0:0:
236,16,24769,2,0,L|215:113,1,100,10|0,1:2|3:2,0:0:0:0:
92,85,25073,1,0,3:2:0:0:
92,85,25175,2,0,B|53:94|53:94|38:109|38:109|-1:116,1,100,2|0,1:2|3:2,0:0:0:0:
150,153,25479,1,2,3:2:0:0:
214,113,25580,2,0,B|268:99|268:99|309:132,1,100,8|8,1:2|3:1,0:0:0:0:
404,208,25884,1,8,2:1:0:0:
302,126,25986,6,0,L|323:29,1,100,4|2,1:2|3:2,0:0:0:0:
220,215,26391,2,0,L|199:312,1,100,10|2,1:2|3:2,0:0:0:0:
366,233,26796,2,0,B|405:240|405:240|420:255|420:255|459:264,1,100,2|0,1:2|0:0,0:0:0:0:
348,312,27100,1,2,3:2:0:0:
348,312,27202,2,0,B|320:316|320:316|301:328,1,50,8|2,1:2|0:0,0:0:0:0:
439,356,27404,1,2,3:2:0:0:
400,133,27607,6,0,B|439:124|439:124|454:109|454:109|493:102,2,100,0|2|10,1:2|3:2|1:2,0:0:0:0:
216,187,28215,1,2,3:2:0:0:
304,80,28418,2,0,L|314:31,2,50,2|0|2,1:2|3:2|3:2,0:0:0:0:
317,207,28722,1,2,3:2:0:0:
317,207,28824,2,0,L|335:306,1,100,8|2,1:2|3:2,0:0:0:0:
183,67,29229,6,0,L|86:46,1,100,0|2,1:2|3:2,0:0:0:0:
114,226,29634,2,0,L|211:205,1,100,10|2,1:2|3:2,0:0:0:0:
0,167,30040,2,0,B|39:160|39:160|54:145|54:145|93:136,1,100,2|2,1:2|3:2,0:0:0:0:
36,271,30343,1,2,3:2:0:0:
36,271,30445,2,0,B|42:296|42:296|56:317,1,50,8|2,1:2|0:0,0:0:0:0:
176,347,30648,1,2,3:2:0:0:
309,183,30850,6,0,L|212:204,2,100,0|2|10,1:2|3:2|1:2,0:0:0:0:
439,228,31458,1,2,3:2:0:0:
443,94,31661,2,0,L|492:84,2,50,2|0|2,1:2|3:2|3:2,0:0:0:0:
328,17,31965,1,2,3:2:0:0:
328,17,32067,2,0,B|335:56|335:56|350:71|350:71|359:110,1,100,8|2,1:2|3:2,0:0:0:0:
414,306,32472,6,0,B|362:314|362:314|323:288,1,100,0|2,1:2|3:2,0:0:0:0:
499,143,32877,2,0,B|507:195|507:195|481:234,1,100,10|2,1:2|3:2,0:0:0:0:
300,164,33283,2,0,B|261:173|261:173|246:188|246:188|207:195,1,100,2|2,1:2|3:2,0:0:0:0:
268,69,33587,1,2,3:2:0:0:
268,69,33688,2,0,B|249:52|249:52|218:49,1,50,8|2,1:2|0:0,0:0:0:0:
145,0,33891,1,2,3:2:0:0:
24,164,34094,6,0,L|3:67,2,100,0|2|10,1:2|3:2|1:2,0:0:0:0:
184,202,34702,1,2,3:2:0:0:
56,258,34904,2,0,L|66:307,2,50,2|0|2,1:2|3:2|3:2,0:0:0:0:
99,131,35209,1,2,3:2:0:0:
99,131,35310,2,0,B|138:122|138:122|153:107|153:107|192:100,1,100,8|2,1:2|3:2,0:0:0:0:
481,194,35715,6,0,L|384:215,1,100,0|2,1:2|3:2,0:0:0:0:
288,54,36121,2,0,L|385:75,1,100,10|2,1:2|3:2,0:0:0:0:
301,219,36526,2,0,B|310:258|310:258|325:273|325:273|332:312,1,100,2|2,1:2|3:2,0:0:0:0:
472,331,36830,1,2,3:2:0:0:
472,331,36931,2,0,L|462:282,1,50,8|2,1:2|0:0,0:0:0:0:
371,384,37134,1,2,3:2:0:0:
165,302,37337,6,0,L|186:205,2,100,0|2|10,1:2|3:2|1:2,0:0:0:0:
1,365,37945,1,2,3:2:0:0:
68,237,38148,2,0,L|57:188,2,50,2|0|2,1:2|3:2|3:2,0:0:0:0:
137,377,38452,1,2,3:2:0:0:
137,377,38553,2,0,B|187:386|187:386|228:359,1,100,8|8,1:2|3:1,0:0:0:0:
340,239,38857,1,8,2:1:0:0:
442,280,38959,6,0,B|460:276|460:276|491:222|491:222|514:217,2,100,6|2|10,1:2|3:2|1:2,0:0:0:0:
385,365,39465,1,2,0:0:0:0:
242,217,39668,2,0,L|339:238,1,100,2|2,3:2|3:2,0:0:0:0:
418,175,39972,1,2,3:2:0:0:
418,175,40073,1,2,0:0:0:0:
418,175,40175,5,10,1:2:0:0:
450,309,40377,1,2,3:2:0:0:
286,324,40580,5,2,1:2:0:0:
323,128,40783,1,2,3:2:0:0:
148,160,40986,1,10,1:2:0:0:
148,160,41087,1,2,0:0:0:0:
211,0,41290,2,0,L|232:97,1,100,2|2,3:2|0:0,0:0:0:0:
258,195,41594,1,2,3:2:0:0:
125,153,41796,1,10,1:2:0:0:
89,263,41999,1,2,3:2:0:0:
284,291,42202,5,2,1:2:0:0:
308,285,42303,1,2,0:0:0:0:
332,280,42404,1,2,3:2:0:0:
357,275,42506,1,2,0:0:0:0:
381,269,42607,2,0,L|478:290,1,100,10|0,1:2|3:2,0:0:0:0:
512,131,43013,2,0,B|435:144|435:144|405:174|405:174|327:192,1,200,0|8,1:2|1:2,0:0:0:0:
226,1,43722,1,2,0:0:0:0:
226,1,43823,5,2,1:2:0:0:
454,63,44026,1,0,3:2:0:0:
454,63,44127,1,2,3:2:0:0:
454,63,44229,1,8,1:2:0:0:
267,126,44431,1,2,3:2:0:0:
362,17,44634,5,2,1:2:0:0:
446,167,44837,1,2,3:2:0:0:
333,207,45040,2,0,L|354:110,1,100,10|2,1:2|3:2,0:0:0:0:
142,88,45445,6,0,B|151:127|151:127|166:142|166:142|173:181,2,100,6|2|10,1:2|3:2|1:2,0:0:0:0:
183,5,45952,1,2,0:0:0:0:
0,0,46154,2,0,L|21:97,1,100,2|2,3:2|3:2,0:0:0:0:
91,183,46459,1,2,3:2:0:0:
91,183,46560,1,2,0:0:0:0:
91,183,46661,5,10,1:2:0:0:
49,315,46864,1,2,3:2:0:0:
0,177,47067,5,2,1:2:0:0:
113,364,47269,1,2,3:2:0:0:
199,228,47472,1,10,1:2:0:0:
199,228,47573,1,2,0:0:0:0:
49,316,47776,2,0,L|146:295,1,100,2|2,3:2|0:0,0:0:0:0:
228,354,48080,1,2,3:2:0:0:
314,195,48283,1,10,1:2:0:0:
199,228,48486,1,2,3:2:0:0:
432,314,48688,5,2,1:2:0:0:
408,308,48789,1,2,0:0:0:0:
384,303,48890,1,2,3:2:0:0:
359,298,48992,1,2,0:0:0:0:
335,292,49093,2,0,L|314:195,1,100,10|0,1:2|3:2,0:0:0:0:
474,147,49499,2,0,B|397:134|397:134|367:104|367:104|289:86,1,200,0|8,1:2|1:2,0:0:0:0:
102,15,50209,1,2,0:0:0:0:
102,15,50310,5,2,1:2:0:0:
32,186,50513,1,0,3:2:0:0:
32,186,50614,1,2,3:2:0:0:
32,186,50715,1,8,1:2:0:0:
196,137,50918,1,2,3:2:0:0:
30,71,51121,5,2,1:2:0:0:
176,100,51323,1,2,3:2:0:0:
121,204,51526,2,0,L|126:228,4,25,8|8|8|8|8,1:2|0:0|3:2|0:0|3:1,0:0:0:0:
78,369,51932,6,0,B|60:365|60:365|29:311|29:311|6:306,2,100,6|2|10,1:2|3:2|1:2,0:0:0:0:
215,337,52438,1,2,0:0:0:0:
121,204,52641,2,0,B|160:211|160:211|175:226|175:226|214:235,1,100,2|2,3:2|3:2,0:0:0:0:
322,210,52945,1,2,3:2:0:0:
322,210,53046,1,2,0:0:0:0:
322,210,53148,5,10,1:2:0:0:
304,324,53350,1,2,3:2:0:0:
241,159,53553,5,2,1:2:0:0:
374,369,53756,1,2,3:2:0:0:
512,311,53959,1,10,1:2:0:0:
512,311,54060,1,2,0:0:0:0:
407,241,54263,2,0,L|428:144,1,100,2|2,3:2|0:0,0:0:0:0:
512,97,54567,1,2,3:2:0:0:
337,49,54769,1,10,1:2:0:0:
449,0,54972,1,2,3:2:0:0:
307,121,55175,5,2,1:2:0:0:
283,115,55276,1,2,0:0:0:0:
259,110,55377,1,2,3:2:0:0:
234,105,55479,1,2,0:0:0:0:
210,99,55580,2,0,L|189:2,1,100,10|0,1:2|3:2,0:0:0:0:
60,42,55986,2,0,B|42:120|42:120|12:150|12:150|-1:227,1,200,0|8,1:2|1:2,0:0:0:0:
169,177,56695,1,2,0:0:0:0:
169,177,56796,5,2,1:2:0:0:
110,360,56999,1,0,3:2:0:0:
110,360,57100,1,2,3:2:0:0:
110,360,57202,1,8,1:2:0:0:
0,299,57405,1,2,3:2:0:0:
83,186,57607,5,2,1:2:0:0:
129,326,57810,1,2,3:2:0:0:
267,270,58013,1,10,1:2:0:0:
267,270,58418,6,0,B|285:274|285:274|316:328|316:328|339:333,2,100,6|2|10,1:2|3:2|1:2,0:0:0:0:
347,216,58925,1,2,0:0:0:0:
488,384,59127,2,0,L|467:287,1,100,2|2,3:2|3:2,0:0:0:0:
501,196,59432,1,2,3:2:0:0:
501,196,59533,1,2,0:0:0:0:
501,196,59634,5,10,1:2:0:0:
347,216,59837,1,2,3:2:0:0:
466,286,60040,5,2,1:2:0:0:
333,126,60242,1,2,3:2:0:0:
446,50,60445,1,10,1:2:0:0:
446,50,60546,1,2,0:0:0:0:
272,0,60749,2,0,B|233:7|233:7|218:22|218:22|179:31,1,100,2|2,3:2|0:0,0:0:0:0:
86,4,61053,1,2,3:2:0:0:
5,151,61256,1,10,1:2:0:0:
90,235,61459,1,2,3:2:0:0:
229,101,61661,5,2,1:2:0:0:
235,125,61762,1,2,0:0:0:0:
240,149,61863,1,2,3:2:0:0:
245,174,61965,1,2,0:0:0:0:
251,198,62066,2,0,L|230:295,1,100,10|0,1:2|3:2,0:0:0:0:
339,95,62472,5,2,1:2:0:0:
345,119,62573,1,2,3:2:0:0:
350,143,62674,1,2,3:2:0:0:
355,168,62776,1,2,3:2:0:0:
361,192,62877,2,0,L|340:289,1,100,10|0,1:2|3:2,0:0:0:0:
512,382,63283,5,2,1:2:0:0:
506,352,63385,1,2,3:2:0:0:
500,323,63486,1,2,3:2:0:0:
492,294,63587,1,2,3:2:0:0:
464,284,63688,5,8,1:2:0:0:
472,239,63790,1,10,3:2:0:0:
482,196,63891,1,8,3:1:0:0:
492,152,63992,1,8,3:1:0:0:
503,109,64094,5,4,0:0:0:0:
503,109,64499,5,2,3:2:0:0:
470,99,64600,1,2,0:0:0:0:
478,67,64702,1,2,0:0:0:0:
509,76,64803,1,2,0:0:0:0:
452,108,64905,6,0,B|393:86|393:86|338:105,1,119.999996337891,6|0,1:2|3:2,0:0:0:0:
153,140,65209,1,0,3:2:0:0:
153,140,65310,2,0,L|165:82,1,59.9999981689454,8|2,1:2|0:0,0:0:0:0:
313,190,65513,1,2,3:2:0:0:
286,199,65614,1,2,3:2:0:0:
260,208,65715,6,0,L|285:325,2,119.999996337891,2|0|8,1:2|0:0|1:2,0:0:0:0:
102,150,66323,1,2,3:2:0:0:
4,383,66526,6,0,B|41:358|41:358|62:282,1,119.999996337891,6|0,1:2|3:2,0:0:0:0:
165,257,66830,1,2,3:2:0:0:
165,257,66932,2,0,B|207:269|207:269|276:237,1,119.999996337891,10|0,1:2|3:2,0:0:0:0:
512,309,67337,2,0,L|335:346,1,179.999994506836,2|0,1:2|0:0,0:0:0:0:
302,351,67742,2,0,B|261:326|261:326|245:248,1,119.999996337891,10|0,1:2|3:2,0:0:0:0:
512,151,68148,6,0,L|277:100,1,239.999992675781,6|8,1:2|1:2,0:0:0:0:
155,138,68756,1,2,3:2:0:0:
349,10,68959,2,0,B|400:41|400:41|409:100,1,119.999996337891,6|0,1:2|0:0,0:0:0:0:
480,175,69263,1,0,0:0:0:0:
480,175,69364,1,8,1:2:0:0:
412,318,69567,1,2,3:2:0:0:
267,194,69769,5,6,1:2:0:0:
238,200,69870,1,2,0:0:0:0:
209,206,69972,1,2,3:2:0:0:
18,224,70175,5,14,1:2:0:0:
61,233,70276,1,2,0:0:0:0:
105,242,70378,1,2,3:2:0:0:
76,0,70580,6,0,B|88:71|88:71|116:99|116:99|131:165,1,179.999994506836,6|0,1:2|0:0,0:0:0:0:
47,342,70986,2,0,L|106:330,1,59.9999981689454,8|2,1:2|0:0,0:0:0:0:
264,277,71188,2,0,L|206:265,1,59.9999981689454,2|2,3:2|3:2,0:0:0:0:
13,140,71391,6,0,L|130:165,1,119.999996337891,6|0,1:2|3:2,0:0:0:0:
278,120,71695,1,0,3:2:0:0:
278,120,71796,2,0,L|219:133,1,59.9999981689454,8|2,1:2|0:0,0:0:0:0:
329,9,71999,1,2,3:2:0:0:
356,18,72100,1,2,3:2:0:0:
382,27,72201,6,0,L|407:144,2,119.999996337891,2|0|8,1:2|0:0|1:2,0:0:0:0:
220,133,72810,1,2,3:2:0:0:
421,294,73013,6,0,B|470:259|470:259|485:197,1,119.999996337891,6|0,1:2|3:2,0:0:0:0:
410,125,73317,1,2,3:2:0:0:
410,125,73418,2,0,B|346:140|346:140|322:198,1,119.999996337891,10|0,1:2|3:2,0:0:0:0:
259,361,73823,2,0,L|82:324,1,179.999994506836,2|0,1:2|0:0,0:0:0:0:
52,317,74229,2,0,B|14:280|14:280|2:210,1,119.999996337891,10|0,1:2|3:2,0:0:0:0:
145,0,74634,6,0,L|95:234,1,239.999992675781,6|8,1:2|1:2,0:0:0:0:
2,214,75242,1,2,3:2:0:0:
159,80,75445,2,0,B|224:71|224:71|271:113,1,119.999996337891,6|0,1:2|0:0,0:0:0:0:
343,71,75749,1,0,0:0:0:0:
343,71,75850,1,8,1:2:0:0:
414,201,76053,1,2,3:2:0:0:
512,0,76256,5,6,1:2:0:0:
325,171,76459,1,2,3:2:0:0:
369,186,76560,1,2,3:2:0:0:
414,201,76661,1,14,1:2:0:0:
496,46,76864,1,2,3:2:0:0:
512,270,77067,2,0,B|446:285|446:285|418:313|418:313|347:325,1,179.999994506836,6|0,1:2|0:0,0:0:0:0:
238,368,77472,5,8,1:2:0:0:
227,330,77573,1,10,3:2:0:0:
214,366,77675,1,8,3:1:0:0:
246,345,77776,1,8,3:1:0:0:
207,341,77878,6,0,B|149:326|149:326|80:349,1,119.999996337891,6|0,1:2|3:2,0:0:0:0:
0,222,78182,1,0,3:2:0:0:
0,222,78283,2,0,L|59:234,1,59.9999981689454,8|2,1:2|0:0,0:0:0:0:
179,141,78486,1,2,3:2:0:0:
151,129,78587,1,2,3:2:0:0:
123,117,78688,6,0,L|97:0,2,119.999996337891,2|0|8,1:2|0:0|1:2,0:0:0:0:
58,233,79296,1,2,3:2:0:0:
280,127,79499,6,0,B|315:102|315:102|345:26,1,119.999996337891,6|0,1:2|3:2,0:0:0:0:
418,106,79803,1,2,3:2:0:0:
418,106,79905,2,0,B|479:124|479:124|503:174,1,119.999996337891,10|0,1:2|3:2,0:0:0:0:
512,368,80310,2,0,L|336:328,1,179.999994506836,2|0,1:2|0:0,0:0:0:0:
309,324,80715,2,0,B|264:281|264:281|281:214,1,119.999996337891,10|0,1:2|3:2,0:0:0:0:
122,384,81121,6,0,L|174:149,1,239.999992675781,6|8,1:2|1:2,0:0:0:0:
284,101,81729,1,2,3:2:0:0:
181,284,81932,2,0,B|120:300|120:300|69:269,1,119.999996337891,6|0,1:2|0:0,0:0:0:0:
0,207,82236,1,0,0:0:0:0:
0,207,82337,1,8,1:2:0:0:
89,100,82540,1,2,3:2:0:0:
284,101,82742,5,6,1:2:0:0:
290,130,82843,1,2,0:0:0:0:
296,159,82945,1,2,3:2:0:0:
314,350,83148,5,14,1:2:0:0:
323,307,83249,1,2,0:0:0:0:
332,263,83351,1,2,3:2:0:0:
388,0,83553,6,0,B|400:71|400:71|428:99|428:99|443:165,1,179.999994506836,6|0,1:2|0:0,0:0:0:0:
425,330,83959,2,0,L|413:271,1,59.9999981689454,8|2,1:2|0:0,0:0:0:0:
308,100,84161,2,0,L|296:159,1,59.9999981689454,2|2,3:2|3:2,0:0:0:0:
314,350,84364,6,0,B|253:365|253:365|198:345,1,119.999996337891,6|0,1:2|3:2,0:0:0:0:
57,260,84668,1,0,3:2:0:0:
57,260,84769,2,0,L|45:319,1,59.9999981689454,8|2,1:2|0:0,0:0:0:0:
183,234,84972,1,2,3:2:0:0:
190,205,85073,1,2,3:2:0:0:
198,175,85175,6,0,L|80:151,2,119.999996337891,2|0|8,1:2|0:0|1:2,0:0:0:0:
0,202,85783,1,2,3:2:0:0:
128,26,85986,6,0,B|182:12|182:12|249:47,1,119.999996337891,6|0,1:2|3:2,0:0:0:0:
333,89,86290,1,2,3:2:0:0:
333,89,86391,2,0,B|365:44|365:44|439:28,1,119.999996337891,10|0,1:2|3:2,0:0:0:0:
255,190,86796,2,0,L|79:150,1,179.999994506836,2|0,1:2|0:0,0:0:0:0:
51,144,87202,2,0,B|11:112|11:112|33:45,1,119.999996337891,10|0,1:2|3:2,0:0:0:0:
294,0,87607,6,0,L|347:234,1,239.999992675781,6|8,1:2|1:2,0:0:0:0:
448,267,88215,1,2,3:2:0:0:
352,91,88418,2,0,B|292:76|292:76|246:113,1,119.999996337891,6|0,1:2|0:0,0:0:0:0:
176,180,88722,1,0,0:0:0:0:
176,180,88823,1,8,1:2:0:0:
229,293,89026,1,2,3:2:0:0:
0,384,89229,6,0,B|8:348|8:348|14:343|14:343|23:313|23:313|22:306|22:306|35:275,2,112.500004291535,2|2|2,0:0|0:0|0:0,0:0:0:0:
67,303,90040,1,2,0:0:0:0:
67,303,90141,2,0,L|143:275,1,75.0000028610231,2|2,0:0|0:0,0:0:0:0:
63,195,90445,1,2,0:0:0:0:
283,325,90851,6,0,P|354:351|437:261,1,209.999993591309,2|0,0:2|3:2,0:0:0:0:
500,147,91256,2,0,P|477:120|443:113,1,69.9999978637696,10|0,0:2|0:0,0:0:0:0:
293,158,91459,1,2,3:2:0:0:
293,158,91560,2,0,P|254:173|172:130,1,139.999995727539,2|0,3:2|3:2,0:0:0:0:
113,80,91864,1,0,3:2:0:0:
0,304,92067,2,0,P|34:302|61:323,1,69.9999978637696,10|0,0:2|0:0,0:0:0:0:
170,381,92269,2,0,P|204:381|231:360,1,69.9999978637696,2|0,3:2|3:2,0:0:0:0:
379,305,92472,6,0,P|449:290|495:338,2,139.999995727539,2|2|10,0:2|3:2|0:2,0:0:0:0:
170,381,93080,1,2,3:2:0:0:
127,316,93182,2,0,P|100:243|129:192,1,139.999995727539,2|0,3:2|3:2,0:0:0:0:
194,128,93486,1,0,3:2:0:0:
386,226,93688,2,0,P|419:200|422:168,1,69.9999978637696,10|0,0:2|0:0,0:0:0:0:
487,67,93891,2,0,P|487:31|463:6,1,69.9999978637696,2|0,3:2|3:2,0:0:0:0:
310,2,94094,6,0,B|308:6|289:13|269:10|269:10|251:8|232:12|218:26|218:26|205:39|187:45|166:43|166:43|149:41|130:47|116:63,2,209.999993591309,2|2|2,0:2|3:2|3:2,0:0:0:0:
406,213,94905,2,0,P|361:188|290:229,1,139.999995727539,2|0,0:0|3:2,0:0:0:0:
246,320,95209,1,0,3:2:0:0:
246,321,95310,2,0,P|220:343|186:352,1,69.9999978637696,10|0,0:2|0:0,0:0:0:0:
69,320,95513,2,0,P|36:294|33:269,1,69.9999978637696,2|0,3:2|3:2,0:0:0:0:
79,126,95715,6,0,B|121:84|188:56|173:119|237:104|286:68,2,209.999993591309,2|2|2,0:2|0:0|3:2,0:0:0:0:
7,368,96526,2,0,P|83:355|123:233,1,209.999993591309,2|0,0:0|3:2,0:0:0:0:
1,102,96932,2,0,P|18:70|50:53,1,69.9999978637696,10|0,0:2|0:0,0:0:0:0:
156,3,97134,2,0,P|190:3|219:21,1,69.9999978637696,2|0,3:2|3:2,0:0:0:0:
334,6,97337,5,0,3:2:0:0:
503,193,97540,2,0,P|469:195|443:224,1,69.9999978637696,2|0,3:2|3:2,0:0:0:0:
346,312,97742,2,0,P|321:336|287:338,1,69.9999978637696,10|0,0:2|0:0,0:0:0:0:
165,306,97945,1,2,3:2:0:0:
165,305,98046,2,0,P|97:317|45:272,1,139.999995727539,2|0,3:2|3:2,0:0:0:0:
0,190,98351,1,0,3:2:0:0:
239,3,98553,2,0,P|204:8|177:30,1,69.9999978637696,10|0,0:2|0:0,0:0:0:0:
161,151,98756,2,0,P|188:172|222:178,1,69.9999978637696,2|0,3:2|3:2,0:0:0:0:
343,91,98959,6,0,P|414:63|476:88,2,139.999995727539,2|2|10,0:2|3:2|0:2,0:0:0:0:
161,151,99567,1,2,3:2:0:0:
93,187,99668,2,0,P|45:184|2:264,1,139.999995727539,2|0,3:2|3:2,0:0:0:0:
22,328,99972,1,0,3:2:0:0:
238,380,100175,2,0,P|258:353|270:306,1,69.9999978637696,10|0,0:2|0:0,0:0:0:0:
340,238,100378,2,0,P|320:211|308:164,1,69.9999978637696,2|0,3:2|3:2,0:0:0:0:
194,95,100580,6,0,B|180:79|161:73|144:75|144:75|123:77|105:71|92:58|92:58|78:44|59:40|41:42|41:42|21:45|2:38|0:34,2,209.999993591309,2|2|2,0:2|3:2|3:2,0:0:0:0:
407,20,101391,2,0,P|473:14|508:71,1,139.999995727539,2|0,0:0|3:2,0:0:0:0:
458,184,101695,1,0,3:2:0:0:
458,184,101797,2,0,P|423:182|398:205,1,69.9999978637696,10|0,0:2|0:0,0:0:0:0:
272,293,101999,2,0,P|238:299|209:281,1,69.9999978637696,2|0,3:2|3:2,0:0:0:0:
76,233,102202,6,0,B|34:191|6:124|69:139|54:75|18:26,2,209.999993591309,2|2|2,0:2|0:0|3:2,0:0:0:0:
198,347,103013,2,0,P|275:374|367:297,1,209.999993591309,2|0,0:0|3:2,0:0:0:0:
467,192,103418,2,0,P|472:158|452:130,1,69.9999978637696,10|0,0:2|0:0,0:0:0:0:
365,51,103621,2,0,P|337:30|302:29,1,69.9999978637696,2|0,3:2|3:2,0:0:0:0:
219,127,103824,6,0,P|317:125|349:218,1,209.999993591309,2|0,0:2|3:2,0:0:0:0:
216,306,104229,2,0,P|184:320|141:312,1,69.9999978637696,10|0,0:2|0:0,0:0:0:0:
41,256,104432,1,2,3:2:0:0:
41,256,104533,2,0,P|0:197|14:133,1,139.999995727539,2|0,3:2|3:2,0:0:0:0:
64,59,104837,1,0,3:2:0:0:
285,21,105040,2,0,P|246:25|220:50,1,69.9999978637696,10|0,0:2|0:0,0:0:0:0:
152,146,105242,2,0,P|153:181|170:211,1,69.9999978637696,2|0,3:2|3:2,0:0:0:0:
255,314,105445,6,0,P|199:297|140:349,2,139.999995727539,2|2|10,0:2|3:2|0:2,0:0:0:0:
512,384,106053,1,2,3:2:0:0:
457,329,106155,2,0,P|418:261|438:198,1,139.999995727539,2|0,3:2|3:2,0:0:0:0:
478,142,106459,1,0,3:2:0:0:
309,4,106661,2,0,P|266:8|245:28,1,69.9999978637696,10|0,0:2|0:0,0:0:0:0:
151,110,106864,2,0,P|132:149|139:177,1,69.9999978637696,2|0,3:2|3:2,0:0:0:0:
239,265,107067,6,0,B|253:249|272:243|289:245|289:245|310:247|328:241|341:228|341:228|355:214|374:210|392:212|392:212|412:215|431:208|433:204,2,209.999993591309,2|2|2,0:2|3:2|3:2,0:0:0:0:
0,383,107878,2,0,P|70:349|65:220,1,209.999993591309,2|0,0:0|3:2,0:0:0:0:
1,94,108283,2,0,P|32:107|67:105,1,69.9999978637696,10|0,0:2|0:0,0:0:0:0:
189,44,108486,2,0,P|220:30|255:32,1,69.9999978637696,2|0,3:2|3:2,0:0:0:0:
414,28,108688,6,0,B|456:70|484:137|421:122|436:186|472:235,2,209.999993591309,2|2|2,0:2|0:0|3:2,0:0:0:0:
168,192,109499,2,0,P|246:182|308:291,1,209.999993591309,2|0,0:0|3:2,0:0:0:0:
409,377,109905,2,0,P|444:371|472:351,1,69.9999978637696,10|0,0:2|0:0,0:0:0:0:
507,235,110107,2,0,P|486:211|451:194,1,69.9999978637696,2|0,3:2|3:2,0:0:0:0:
407,278,110310,5,0,3:2:0:0:
176,352,110513,2,0,P|149:370|106:370,1,69.9999978637696,2|0,3:2|3:2,0:0:0:0:
1,285,110715,2,0,P|8:252|29:221,1,69.9999978637696,10|0,0:2|0:0,0:0:0:0:
0,88,110918,1,2,3:2:0:0:
0,88,111019,2,0,P|68:102|125:57,1,139.999995727539,2|0,3:2|3:2,0:0:0:0:
201,0,111324,1,0,3:2:0:0:
389,127,111526,2,0,P|416:114|436:77,1,69.9999978637696,10|0,0:2|0:0,0:0:0:0:
326,0,111729,2,0,P|299:13|279:50,1,69.9999978637696,2|0,3:2|3:2,0:0:0:0:
175,162,111932,6,0,P|240:141|295:180,2,139.999995727539,2|2|10,0:2|3:2|0:2,0:0:0:0:
60,334,112540,1,2,3:2:0:0:
130,303,112641,2,0,B|206:280|190:334|265:308,1,139.999995727539,2|0,3:2|3:2,0:0:0:0:
339,285,112945,1,0,3:2:0:0:
500,47,113148,2,0,P|466:49|439:72,1,69.9999978637696,10|0,0:2|0:0,0:0:0:0:
347,146,113351,2,0,P|320:166|282:165,1,69.9999978637696,2|0,3:2|3:2,0:0:0:0:
193,88,113553,6,0,B|179:72|160:66|143:68|143:68|122:70|104:64|91:51|91:51|77:37|58:33|40:35|40:35|20:38|1:31|-1:27,2,209.999993591309,2|2|2,0:2|3:2|3:2,0:0:0:0:
378,303,114364,2,0,P|293:287|205:369,1,209.999993591309,2|0,0:0|3:2,0:0:0:0:
88,331,114770,2,0,P|54:323|26:287,1,69.9999978637696,10|0,0:2|0:0,0:0:0:0:
0,185,114972,2,0,P|16:154|46:138,1,69.9999978637696,2|0,3:2|3:2,0:0:0:0:
106,228,115175,5,2,3:2:0:0:
256,192,115276,12,2,116594,0:0:0:0:
76,338,116797,6,0,L|58:226,1,100,4|8,1:2|3:2,0:0:0:0:
0,149,117101,1,2,3:2:0:0:
0,149,117202,2,0,L|18:37,1,100,6|8,1:2|3:2,0:0:0:0:
143,134,117607,2,0,L|158:232,1,100,6|8,1:2|3:2,0:0:0:0:
198,298,117911,2,0,L|213:199,1,100,6|0,3:2|3:2,0:0:0:0:
238,93,118215,1,14,3:2:0:0:
238,93,118621,5,14,3:2:0:0:
412,6,118824,2,0,L|396:104,1,100,6|8,1:2|3:2,0:0:0:0:
468,181,119128,1,0,3:2:0:0:
468,181,119229,2,0,L|486:293,1,100,6|8,1:2|3:2,0:0:0:0:
512,377,119533,2,0,L|363:353,1,150,6|8,3:2|3:2,0:0:0:0:
18,303,120040,6,0,L|116:318,1,100,4|8,1:2|3:2,0:0:0:0:
228,257,120344,1,2,3:2:0:0:
228,257,120445,2,0,L|243:158,1,100,6|8,1:2|3:2,0:0:0:0:
96,0,120851,2,0,L|111:98,1,100,6|8,1:2|3:2,0:0:0:0:
183,62,121155,2,0,L|281:77,1,100,6|0,3:2|3:2,0:0:0:0:
402,16,121459,1,14,3:2:0:0:
402,16,121864,5,14,3:2:0:0:
512,149,122067,2,0,L|497:247,1,100,6|8,1:2|3:2,0:0:0:0:
410,295,122371,1,0,3:2:0:0:
410,295,122472,2,0,L|395:197,1,100,6|8,1:2|3:2,0:0:0:0:
296,106,122776,2,0,L|272:255,1,150,6|8,3:2|3:2,0:0:0:0:
4,375,123283,6,0,B|37:340|37:340|51:282,1,100,4|10,1:2|3:2,0:0:0:0:
11,195,123587,1,2,3:2:0:0:
11,195,123688,2,0,B|33:175|33:175|53:169,1,50,6|2,1:2|0:0,0:0:0:0:
152,122,123891,2,0,B|184:141|184:141|188:153,1,50,10|2,3:2|3:2,0:0:0:0:
290,114,124094,2,0,B|334:82|334:82|351:31,1,100,6|10,1:2|3:2,0:0:0:0:
425,102,124398,2,0,B|476:126|476:126|505:177,1,100,6|2,3:2|3:2,0:0:0:0:
512,269,124702,1,14,3:2:0:0:
512,269,125209,5,2,3:2:0:0:
445,340,125310,2,0,B|388:358|388:358|350:343,1,100,6|10,1:2|3:2,0:0:0:0:
262,266,125614,1,0,3:2:0:0:
262,266,125715,2,0,B|308:248|308:248|346:198,1,100,4|10,1:2|3:2,0:0:0:0:
231,145,126020,2,0,B|195:146|195:146|169:161|169:161|62:131,1,150,6|8,3:2|3:2,0:0:0:0:
0,315,126526,5,6,1:2:0:0:
6,284,126627,1,2,0:0:0:0:
36,279,126728,1,10,3:2:0:0:
53,305,126830,1,2,3:2:0:0:
82,315,126932,1,6,1:2:0:0:
102,338,127033,1,2,0:0:0:0:
131,327,127134,1,10,3:2:0:0:
132,296,127236,1,2,3:2:0:0:
158,281,127337,6,0,B|177:256|177:256|183:230,2,50,6|2|10,1:2|0:0|3:2,0:0:0:0:
288,226,127641,1,6,3:2:0:0:
288,226,127743,2,0,B|275:197|275:197|256:178,1,50,2|2,1:2|3:2,0:0:0:0:
188,127,127945,2,0,B|201:98|201:98|220:79,1,50,14|2,3:2|0:0,0:0:0:0:
287,23,128148,2,0,B|316:36|316:36|335:55,1,50,2|2,1:2|0:0,0:0:0:0:
415,17,128351,5,14,3:2:0:0:
445,7,128452,1,2,3:2:0:0:
472,25,128553,1,6,1:2:0:0:
474,57,128655,1,2,0:0:0:0:
467,86,128756,1,10,3:2:0:0:
498,93,128857,1,2,3:2:0:0:
512,122,128959,6,0,L|501:175,1,50,6|2,1:2|0:0,0:0:0:0:
484,258,129161,6,0,L|473:311,1,50,10|6,3:2|3:2,0:0:0:0:
409,164,129364,6,0,L|398:217,3,50,2|2|10|2,1:2|3:2|3:2|0:0,0:0:0:0:
256,192,129770,6,0,B|232:185|232:185|204:189,3,50,2|2|2|2,3:2|0:0|0:0|3:2,0:0:0:0:
196,97,130175,2,0,B|178:115|178:115|152:125,3,50,2|2|2|2,3:2|0:0|3:2|0:0,0:0:0:0:
113,40,130580,1,2,3:2:0:0:
98,36,130682,1,2,0:0:0:0:
83,34,130783,6,0,L|68:82,3,50,2|2|2|2,0:0|3:2|3:2|0:0,0:0:0:0:
0,123,131188,2,0,L|15:171,1,50,2|2,3:2|0:0,0:0:0:0:
53,274,131391,5,2,0:0:0:0:
53,274,131493,1,2,0:0:0:0:
165,234,131695,1,2,0:0:0:0:
165,234,131797,1,2,3:2:0:0:
278,195,131999,1,2,3:2:0:0:
392,156,132202,1,2,3:2:0:0:
393,156,132405,1,2,0:0:0:0:
278,195,132607,1,2,0:0:0:0:
