osu file format v14

[General]
AudioFilename: audio.mp3
AudioLeadIn: 0
PreviewTime: 64094
Countdown: 0
SampleSet: Soft
StackLeniency: 0.7
Mode: 0
LetterboxInBreaks: 0
WidescreenStoryboard: 1

[Editor]
Bookmarks: 19499,38959,64499,96729,116797
DistanceSpacing: 0.99
BeatDivisor: 4
GridSize: 32
TimelineZoom: 2.7

[Metadata]
Title:Death by Glamour
TitleUnicode:Death by Glamour
Artist:toby fox
ArtistUnicode:toby fox
Creator:Velamy
Version:Penta & Chef's Another
Source:UNDERTALE
Tags:themagicanimals the magic animals arphimigon deglegneg deg leg neg take sinyus20 sukii vetoed penta -penta pentacoilz yoshiman01 thecosmicchef the cosmic chef an3 -_sandy spxderweeb andrai ai_haibara mettaton undertale indie game rpg jrpg video videogame vgm instrumental soundtrack
BeatmapID:4246660
BeatmapSetID:2036330

[Difficulty]
HPDrainRate:5
CircleSize:4
OverallDifficulty:8
ApproachRate:9
SliderMultiplier:1.4
SliderTickRate:1

[Events]
//Background and Video events
0,0,"thumb-1920-731367.png",0,0
//Break Periods
//Storyboard Layer 0 (Background)
//Storyboard Layer 1 (Fail)
//Storyboard Layer 2 (Pass)
//Storyboard Layer 3 (Foreground)
//Storyboard Layer 4 (Overlay)
//Storyboard Sound Samples

[TimingPoints]
40,405.406385737439,4,2,0,40,1,0
19499,-66.6666666666667,4,2,0,40,0,0
25986,-50,4,2,0,40,0,0
28722,-153.846153846153,4,2,0,40,0,0
29229,-50,4,2,0,40,0,0
31965,-153.846153846154,4,2,0,40,0,0
32472,-50,4,2,0,40,0,0
35209,-153.846153846154,4,2,0,40,0,0
35715,-50,4,2,0,40,0,0
39364,-133.333333333333,4,2,0,40,0,0
41087,-66.6666666666667,4,2,0,40,0,0
41290,-50,4,2,0,40,0,0
41594,-66.6666666666667,4,2,0,40,0,0
41796,-100,4,2,0,40,0,0
41999,-133.333333333333,4,2,0,40,0,0
42202,-50,4,2,0,40,0,0
43823,-50,4,2,0,40,0,0
45445,-50,4,2,0,40,0,0
45850,-133.333333333333,4,2,0,40,0,0
47573,-66.6666666666667,4,2,0,40,0,0
47776,-50,4,2,0,40,0,0
48080,-66.6666666666667,4,2,0,40,0,0
48283,-100,4,2,0,40,0,0
48486,-133.333333333333,4,2,0,40,0,0
48688,-50,4,2,0,40,0,0
50310,-50,4,2,0,40,0,0
51932,-33.3333333333333,4,2,0,40,0,0
52134,-50,4,2,0,40,0,0
52337,-133.333333333333,4,2,0,40,0,0
52641,-66.6666666666667,4,2,0,40,0,0
53350,-133.333333333333,4,2,0,40,0,0
54263,-50,4,2,0,40,0,0
54567,-66.6666666666667,4,2,0,40,0,0
54769,-100,4,2,0,40,0,0
54972,-133.333333333333,4,2,0,40,0,0
55175,-50,4,2,0,40,0,0
58418,-33.3333333333333,4,2,0,40,0,0
58621,-50,4,2,0,40,0,0
58823,-133.333333333333,4,2,0,40,0,0
59127,-66.6666666666667,4,2,0,40,0,0
59837,-133.333333333333,4,2,0,40,0,0
60749,-50,4,2,0,40,0,0
61053,-66.6666666666667,4,2,0,40,0,0
61256,-100,4,2,0,40,0,0
61459,-133.333333333333,4,2,0,40,0,0
61661,-50,4,2,0,40,0,0
64905,-50,4,2,0,40,0,1
65715,-133.333333333333,4,2,0,40,0,1
66526,-50,4,2,0,40,0,1
66932,-133.333333333333,4,2,0,40,0,1
67337,-66.6666666666667,4,2,0,40,0,1
67742,-100,4,2,0,40,0,1
68148,-50,4,2,0,40,0,1
68553,-66.6666666666667,4,2,0,40,0,1
68959,-50,4,2,0,40,0,1
69364,-66.6666666666667,4,2,0,40,0,1
70986,-66.6666666666667,4,2,0,40,0,1
71391,-50,4,2,0,40,0,1
71796,-66.6666666666667,4,2,0,40,0,1
72202,-50,4,2,0,40,0,1
72607,-100,4,2,0,40,0,1
73013,-50,4,2,0,40,0,1
74229,-100,4,2,0,40,0,1
74634,-50,4,2,0,40,0,1
75040,-66.6666666666667,4,2,0,40,0,1
75445,-50,4,2,0,40,0,1
75850,-100,4,2,0,40,0,1
76256,-80,4,2,0,40,0,1
76661,-50,4,2,0,40,0,1
77067,-66.6666666666667,4,2,0,40,0,1
77472,-50,4,2,0,40,0,1
78283,-66.6666666666667,4,2,0,40,0,1
79094,-133.333333333333,4,2,0,40,0,1
79499,-50,4,2,0,40,0,1
79905,-100,4,2,0,40,0,1
80310,-50,4,2,0,40,0,1
80715,-100,4,2,0,40,0,1
81121,-50,4,2,0,40,0,1
81526,-100,4,2,0,40,0,1
82337,-50,4,2,0,40,0,1
83553,-66.6666666666667,4,2,0,40,0,1
84364,-50,4,2,0,40,0,1
85580,-100,4,2,0,40,0,1
85986,-50,4,2,0,40,0,1
86391,-100,4,2,0,40,0,1
86999,-66.6666666666667,4,2,0,40,0,1
87202,-100,4,2,0,40,0,1
87607,-50,4,2,0,40,0,1
88215,-66.6666666666667,4,2,0,40,0,1
88418,-50,4,2,0,40,0,1
88722,-50,4,2,0,40,0,1
89229,-100,4,2,0,40,0,0
90040,-133.333333333333,4,2,0,40,0,0
90851,-57.1428571428571,4,2,0,40,0,0
115175,-100,4,2,0,40,0,0
115986,-133.333333333333,4,2,0,40,0,0
116797,-57.1428571428571,4,2,0,40,0,0
117202,-66.6666666666667,4,2,0,40,0,0
117607,-57.1428571428571,4,2,0,40,0,0
118215,-50,4,2,0,40,0,0
118621,-66.6666666666667,4,2,0,40,0,0
118824,-57.1428571428571,4,2,0,40,0,0
119533,-100,4,2,0,40,0,0
120040,-50,4,2,0,40,0,0
120445,-66.6666666666667,4,2,0,40,0,0
121155,-100,4,2,0,40,0,0
121459,-66.6666666666667,4,2,0,40,0,0
121864,-66.6666666666667,4,2,0,40,0,0
122776,-100,4,2,0,40,0,0
123283,-50,4,2,0,40,0,0
123688,-66.6666666666667,4,2,0,40,0,0
124398,-100,4,2,0,40,0,0
124702,-50,4,2,0,40,0,0
125107,-66.6666666666667,4,2,0,40,0,0
125715,-57.1428571428571,4,2,0,40,0,0
126020,-100,4,2,0,40,0,0
126526,-50,4,2,0,40,0,0
127134,-66.6666666666667,4,2,0,40,0,0
127945,-50,4,2,0,40,0,0
129263,-66.6666666666667,4,2,0,40,0,0
129770,-100,4,2,0,40,0,0

[Colours]
Combo1 : 255,255,0
Combo2 : 128,255,0
Combo3 : 0,128,255
Combo4 : 255,0,0

[HitObjects]
88,354,19499,6,0,L|98:284,1,52.5000020027161,2|0,1:2|0:0,0:0:0:0:
114,193,19702,2,0,B|105:248|105:248|106:260|106:260|100:301,1,105.000004005432,0|10,3:2|1:2,0:0:0:0:
20,75,20107,1,0,3:2:0:0:
33,115,20208,1,0,3:2:0:0:
120,0,20411,2,0,B|98:67|98:67|122:39,1,105.000004005432,0|2,3:2|3:2,0:0:0:0:
200,37,20715,6,0,B|231:31|231:31|242:21|242:21|299:9,1,105.000004005432,8|2,1:2|3:2,0:0:0:0:
296,1,21323,2,0,B|271:71|271:71|271:82|271:82|257:120,1,105.000004005432,2|10,3:2|1:2,0:0:0:0:
379,188,21729,1,0,3:2:0:0:
318,241,21830,2,0,B|378:236|378:236|392:229|392:229|437:240,2,105.000004005432,0|0|2,3:2|3:2|3:2,0:0:0:0:
256,192,22337,5,8,1:2:0:0:
88,354,22742,6,0,L|98:284,1,52.5000020027161,2|0,1:2|0:0,0:0:0:0:
114,193,22945,2,0,B|105:248|105:248|106:260|106:260|100:301,1,105.000004005432,0|10,3:2|1:2,0:0:0:0:
20,75,23350,1,0,3:2:0:0:
33,115,23452,1,0,3:2:0:0:
120,0,23654,2,0,B|98:67|98:67|122:39,1,105.000004005432,0|2,3:2|3:2,0:0:0:0:
200,37,23958,6,0,B|231:31|231:31|242:21|242:21|299:9,1,105.000004005432,8|2,1:2|3:2,0:0:0:0:
296,1,24567,2,0,B|271:71|271:71|271:82|271:82|257:120,1,105.000004005432,2|10,3:2|1:2,0:0:0:0:
379,188,24972,1,0,3:2:0:0:
318,241,25073,2,0,B|378:236|378:236|392:229|392:229|437:240,2,105.000004005432,0|0|2,3:2|3:2|3:2,0:0:0:0:
256,192,25580,5,8,1:2:0:0:
186,169,25681,1,8,3:2:0:0:
139,226,25783,1,8,3:1:0:0:
67,240,25884,1,8,2:1:0:0:
1,196,25986,6,0,B|-20:176|-20:176|4:54,1,140,4|2,1:2|3:2,0:0:0:0:
151,235,26391,2,0,B|172:215|172:215|148:93,1,140,10|2,1:2|3:2,0:0:0:0:
146,90,26796,2,0,L|219:104,1,70,2|0,1:2|3:2,0:0:0:0:
332,41,26999,1,2,3:2:0:0:
299,31,27100,2,0,L|345:88,1,70,2|8,3:2|1:2,0:0:0:0:
444,158,27303,1,2,0:0:0:0:
425,129,27404,2,0,L|423:203,1,70,2|0,3:2|3:2,0:0:0:0:
423,198,27810,1,2,3:2:0:0:
320,367,28013,2,0,B|299:347|299:347|323:225,1,140,10|2,1:2|3:2,0:0:0:0:
168,127,28418,2,0,L|210:205,1,70,2|0,1:2|3:2,0:0:0:0:
288,32,28621,1,2,3:2:0:0:
256,12,28722,6,0,L|260:91,1,68.2499968757631,2|2,3:2|3:2,0:0:0:0:
269,85,29229,6,0,B|346:40|346:40|367:-12,1,140,0|2,1:2|3:2,0:0:0:0:
194,177,29634,2,0,B|117:132|117:132|97:84,1,140,10|2,1:2|3:2,0:0:0:0:
271,289,30040,2,0,L|358:257,1,70,2|0,1:2|3:2,0:0:0:0:
314,157,30242,1,2,3:2:0:0:
337,185,30344,2,0,L|424:216,1,70,2|8,3:2|1:2,0:0:0:0:
450,98,30546,1,2,0:0:0:0:
449,134,30648,2,0,L|495:214,1,70,2|0,3:2|3:2,0:0:0:0:
484,194,31053,1,2,3:2:0:0:
432,366,31256,2,0,B|355:321|355:321|335:273,1,140,10|2,1:2|3:2,0:0:0:0:
160,190,31661,2,0,L|139:258,1,70,2|0,1:2|3:2,0:0:0:0:
227,349,31864,1,2,3:2:0:0:
255,371,31965,6,0,L|255:300,1,68.2499968757631,2|2,3:2|3:2,0:0:0:0:
511,188,32472,6,0,B|532:208|532:208|508:330,1,140,0|2,1:2|3:2,0:0:0:0:
361,149,32877,2,0,B|340:169|340:169|364:291,1,140,10|2,1:2|3:2,0:0:0:0:
366,294,33283,2,0,L|293:280,1,70,2|0,1:2|3:2,0:0:0:0:
180,343,33486,1,2,3:2:0:0:
213,353,33587,2,0,L|167:296,1,70,2|8,3:2|1:2,0:0:0:0:
68,226,33790,1,2,0:0:0:0:
87,255,33891,2,0,L|89:181,1,70,2|0,3:2|3:2,0:0:0:0:
89,186,34296,1,2,3:2:0:0:
192,17,34499,2,0,B|213:37|213:37|189:159,1,140,10|2,1:2|3:2,0:0:0:0:
344,257,34904,2,0,L|302:179,1,70,2|0,1:2|3:2,0:0:0:0:
224,352,35107,1,2,3:2:0:0:
256,372,35209,6,0,L|252:293,1,68.2499968757631,2|2,3:2|3:2,0:0:0:0:
243,292,35715,6,0,B|166:337|166:337|145:389,1,140,0|2,1:2|3:2,0:0:0:0:
318,207,36121,2,0,B|395:252|395:252|415:300,1,140,10|2,1:2|3:2,0:0:0:0:
241,95,36526,2,0,L|154:127,1,70,2|0,1:2|3:2,0:0:0:0:
198,227,36729,1,2,3:2:0:0:
175,199,36830,2,0,L|88:168,1,70,2|8,3:2|1:2,0:0:0:0:
62,286,37033,1,2,0:0:0:0:
63,250,37134,2,0,L|17:170,1,70,2|0,3:2|3:2,0:0:0:0:
28,190,37540,1,2,3:2:0:0:
80,18,37742,2,0,B|157:63|157:63|177:111,1,140,10|2,1:2|3:2,0:0:0:0:
352,194,38148,2,0,L|373:126,1,70,2|0,1:2|3:2,0:0:0:0:
281,55,38350,1,2,3:2:0:0:
249,2,38452,1,2,3:2:0:0:
274,66,38553,5,8,1:2:0:0:
254,133,38654,1,8,3:2:0:0:
263,202,38756,5,8,3:1:0:0:
250,270,38857,1,8,2:1:0:0:
265,342,38959,6,0,B|231:325|231:325|349:305|349:305|423:356,1,210,6|0,1:2|3:2,0:0:0:0:
463,374,39364,1,10,1:2:0:0:
484,331,39465,2,0,L|473:368,1,26.2500010013581,2|0,0:0|3:2,0:0:0:0:
416,256,39668,2,0,L|433:206,1,52.5000020027161,2|2,3:2|3:2,0:0:0:0:
421,261,39972,5,2,3:2:0:0:
441,208,40073,1,2,0:0:0:0:
412,128,40175,1,10,1:2:0:0:
501,16,40377,2,0,L|489:67,2,52.5000020027161,2|2|2,3:2|1:2|3:2,0:0:0:0:
499,7,40986,5,10,1:2:0:0:
487,78,41087,2,0,L|497:140,1,52.5000020027161,2|0,0:0|3:2,0:0:0:0:
299,24,41290,2,0,B|327:24|327:24|280:67|280:67|213:53,1,140,2|2,3:2|0:0,0:0:0:0:
213,56,41594,6,0,L|199:0,1,52.5000020027161,2|2,3:2|3:2,0:0:0:0:
182,145,41796,6,0,L|160:107,1,35,10|0,1:2|0:0,0:0:0:0:
135,212,41999,6,0,L|104:187,1,26.2500010013581,2|0,3:2|3:2,0:0:0:0:
190,2,42202,5,2,1:2:0:0:
181,71,42303,1,2,0:0:0:0:
151,134,42404,1,2,3:2:0:0:
103,185,42506,1,2,0:0:0:0:
46,211,42607,1,10,1:2:0:0:
45,202,43722,6,0,L|37:162,1,35,2|2,0:0|0:0,0:0:0:0:
38,167,43823,6,0,B|40:244|40:244|25:300|25:300|60:383,1,210,2|2,1:2|3:2,0:0:0:0:
52,370,44431,1,2,3:2:0:0:
133,293,44634,1,2,1:2:0:0:
223,278,44837,1,2,3:2:0:0:
51,380,45040,1,10,1:2:0:0:
133,299,45242,1,2,3:2:0:0:
265,342,45445,6,0,B|231:325|231:325|349:305|349:305|423:356,1,210,6|0,1:2|3:2,0:0:0:0:
463,374,45850,1,10,1:2:0:0:
484,331,45952,2,0,L|473:368,1,26.2500010013581,2|0,0:0|3:2,0:0:0:0:
416,256,46154,2,0,L|433:206,1,52.5000020027161,2|2,3:2|3:2,0:0:0:0:
421,261,46459,5,2,3:2:0:0:
441,208,46560,1,2,0:0:0:0:
412,128,46661,1,10,1:2:0:0:
501,16,46864,2,0,L|489:67,2,52.5000020027161,2|2|2,3:2|1:2|3:2,0:0:0:0:
499,7,47472,5,10,1:2:0:0:
487,78,47573,2,0,L|497:140,1,52.5000020027161,2|0,0:0|3:2,0:0:0:0:
299,24,47776,2,0,B|327:24|327:24|280:67|280:67|213:53,1,140,2|2,3:2|0:0,0:0:0:0:
213,56,48080,6,0,L|199:0,1,52.5000020027161,2|2,3:2|3:2,0:0:0:0:
182,145,48283,6,0,L|160:107,1,35,10|0,1:2|0:0,0:0:0:0:
135,212,48486,6,0,L|104:187,1,26.2500010013581,2|0,3:2|3:2,0:0:0:0:
200,5,48688,5,2,1:2:0:0:
209,74,48790,1,2,0:0:0:0:
239,137,48891,1,2,3:2:0:0:
287,188,48992,1,2,0:0:0:0:
344,214,49094,1,10,1:2:0:0:
45,202,50209,6,0,L|37:162,1,35,2|2,0:0|0:0,0:0:0:0:
38,167,50310,6,0,B|40:244|40:244|25:300|25:300|60:383,1,210,2|2,1:2|3:2,0:0:0:0:
54,369,50918,1,2,3:2:0:0:
135,292,51121,1,2,1:2:0:0:
225,277,51323,1,2,3:2:0:0:
53,379,51526,1,8,1:2:0:0:
99,327,51627,1,8,3:2:0:0:
161,294,51729,1,8,3:1:0:0:
230,284,51830,1,8,2:1:0:0:
296,306,51932,6,0,B|327:278|327:278|288:390,1,157.500006008148,6|0,1:2|0:0,0:0:0:0:
225,277,52134,2,0,L|209:196,1,70,2|0,3:2|3:2,0:0:0:0:
270,73,52337,5,10,1:2:0:0:
258,128,52438,2,0,L|266:78,1,26.2500010013581,2|0,0:0|3:2,0:0:0:0:
151,5,52641,6,0,B|169:72|169:72|167:37,1,105.000004005432,2|2,3:2|3:2,0:0:0:0:
144,11,52945,5,2,3:2:0:0:
173,82,53046,1,2,0:0:0:0:
146,153,53148,1,10,1:2:0:0:
369,71,53350,6,0,L|437:65,2,52.5000020027161,2|2|2,3:2|1:2|3:2,0:0:0:0:
369,71,53959,5,10,1:2:0:0:
371,126,54060,2,0,L|364:78,1,26.2500010013581,2|0,0:0|3:2,0:0:0:0:
222,52,54263,2,0,B|246:6|246:6|215:134,1,140,2|2,3:2|0:0,0:0:0:0:
134,160,54567,6,0,L|148:104,1,52.5000020027161,2|2,3:2|3:2,0:0:0:0:
165,249,54769,6,0,L|187:211,1,35,10|0,1:2|0:0,0:0:0:0:
212,316,54972,6,0,L|243:291,1,26.2500010013581,2|0,3:2|3:2,0:0:0:0:
132,150,55175,1,2,1:2:0:0:
141,218,55276,1,2,0:0:0:0:
123,286,55377,1,2,3:2:0:0:
81,341,55479,1,2,0:0:0:0:
20,375,55580,1,10,1:2:0:0:
274,98,56695,6,0,L|266:58,1,35,2|2,0:0|0:0,0:0:0:0:
303,10,56796,6,0,B|291:100|291:100|305:169|305:169|254:262,1,210,2|2,1:2|3:2,0:0:0:0:
226,376,57405,5,2,3:2:0:0:
187,294,57607,1,2,1:2:0:0:
196,208,57810,1,2,3:2:0:0:
175,129,58013,1,10,1:2:0:0:
296,306,58418,6,0,B|327:278|327:278|288:390,1,157.500006008148,6|0,1:2|0:0,0:0:0:0:
225,277,58621,2,0,L|209:196,1,70,2|0,3:2|3:2,0:0:0:0:
270,73,58823,5,10,1:2:0:0:
258,128,58925,2,0,L|266:78,1,26.2500010013581,2|0,0:0|3:2,0:0:0:0:
151,5,59127,6,0,B|169:72|169:72|167:37,1,105.000004005432,2|2,3:2|3:2,0:0:0:0:
144,11,59432,5,2,3:2:0:0:
173,82,59533,1,2,0:0:0:0:
146,153,59634,1,10,1:2:0:0:
369,71,59837,6,0,L|437:65,2,52.5000020027161,2|2|2,3:2|1:2|3:2,0:0:0:0:
369,71,60445,5,10,1:2:0:0:
371,126,60546,2,0,L|364:78,1,26.2500010013581,2|0,0:0|3:2,0:0:0:0:
222,52,60749,2,0,B|246:6|246:6|215:134,1,140,2|2,3:2|0:0,0:0:0:0:
134,160,61053,6,0,L|148:104,1,52.5000020027161,2|2,3:2|3:2,0:0:0:0:
165,249,61256,6,0,L|187:211,1,35,10|0,1:2|0:0,0:0:0:0:
212,316,61459,6,0,L|243:291,1,26.2500010013581,2|0,3:2|3:2,0:0:0:0:
132,150,61661,1,2,1:2:0:0:
141,218,61763,1,2,0:0:0:0:
123,286,61864,1,2,3:2:0:0:
81,341,61965,1,2,0:0:0:0:
20,375,62067,1,10,1:2:0:0:
128,138,62472,1,2,1:2:0:0:
179,184,62573,1,2,3:2:0:0:
209,247,62675,1,2,3:2:0:0:
212,316,62776,1,2,3:2:0:0:
187,381,62877,1,10,1:2:0:0:
121,126,63283,1,2,1:2:0:0:
189,128,63384,1,2,3:2:0:0:
253,157,63486,1,2,3:2:0:0:
299,208,63587,1,2,3:2:0:0:
322,274,63688,6,0,B|297:229|297:229|292:196,1,70,8|10,1:2|3:2,0:0:0:0:
417,0,63891,5,8,3:1:0:0:
468,67,63992,5,8,3:1:0:0:
468,67,64094,5,4,0:0:0:0:
468,67,64905,6,0,B|451:84|451:84|360:105|360:105|328:155|328:155,1,140,6|0,1:2|3:2,0:0:0:0:
347,124,65209,1,0,3:2:0:0:
303,36,65310,2,0,L|394:17,1,70,8|2,1:2|0:0,0:0:0:0:
408,217,65513,1,2,3:2:0:0:
353,205,65614,1,2,3:2:0:0:
298,190,65715,1,2,1:2:0:0:
256,212,65817,1,0,3:2:0:0:
265,237,65918,2,0,L|249:308,1,52.5000020027161,0|8,0:0|1:2,0:0:0:0:
134,365,66323,1,2,3:2:0:0:
134,365,66425,1,0,3:2:0:0:
134,365,66526,6,0,B|69:292|69:292|116:258|116:258|173:268,1,210,6|2,1:2|3:2,0:0:0:0:
361,344,66932,2,0,L|260:360,1,78.7500030040742,10|0,1:2|3:2,0:0:0:0:
399,243,67337,1,2,1:2:0:0:
418,205,67438,1,0,3:2:0:0:
391,161,67540,2,0,B|469:139,1,52.5000020027161
319,284,67742,2,0,B|267:269|267:269|203:300,1,105,10|0,1:2|3:2,0:0:0:0:
134,365,68148,6,0,B|174:208|174:208|114:122,1,210,6|0,1:2|3:2,0:0:0:0:
146,168,68553,2,0,L|242:146,1,52.5000020027161,8|0,1:2|0:0,0:0:0:0:
228,170,68756,1,2,3:2:0:0:
43,32,68959,2,0,B|67:102|67:102|49:136|49:136|81:240,1,210,6|0,1:2|0:0,0:0:0:0:
71,246,69364,2,0,L|37:141,1,105.000004005432,8|2,1:2|3:2,0:0:0:0:
195,34,69769,5,6,1:2:0:0:
251,21,69871,1,2,0:0:0:0:
285,66,69972,1,2,3:2:0:0:
456,87,70175,5,14,1:2:0:0:
490,137,70276,1,2,0:0:0:0:
455,179,70378,1,2,3:2:0:0:
328,323,70580,6,0,B|313:284|313:284|337:214|337:214|322:161,1,157.500006008148,6|0,1:2|0:0,0:0:0:0:
325,173,70986,2,0,L|265:186,1,52.5000020027161,8|2,1:2|0:0,0:0:0:0:
393,263,71188,2,0,L|474:275,1,52.5000020027161,2|2,3:2|3:2,0:0:0:0:
237,335,71391,6,0,B|168:352|168:352|171:299|171:299|134:269|134:269|71:286,1,210,6|0,1:2|3:2,0:0:0:0:
16,341,71796,2,0,L|33:248,1,52.5000020027161,8|2,1:2|0:0,0:0:0:0:
137,159,71999,1,2,3:2:0:0:
137,159,72100,1,2,3:2:0:0:
137,159,72202,2,0,B|177:104|177:104|225:92|225:92|212:36|212:36|241:-14,1,210,2|0,1:2|0:0,0:0:0:0:
221,172,72607,2,0,L|310:150,1,70,8|2,1:2|3:2,0:0:0:0:
288,155,72911,1,0,3:2:0:0:
103,56,73013,6,0,B|62:27|62:27|37:72|37:72|-11:93,1,140,6|0,1:2|3:2,0:0:0:0:
59,153,73317,1,2,3:2:0:0:
183,266,73418,2,0,B|261:205|261:205|280:254|280:254|341:290,1,210,10|0,1:2|3:2,0:0:0:0:
391,239,73823,1,2,1:2:0:0:
351,175,73925,1,0,3:2:0:0:
387,134,74026,1,0,0:0:0:0:
422,145,74128,1,0,0:0:0:0:
439,168,74229,2,0,B|410:182|410:182|405:222|405:222|361:245,1,105,10|0,1:2|3:2,0:0:0:0:
197,62,74634,6,0,B|164:31|164:31|249:20|249:20|277:44|277:44|348:39,1,210,6|0,1:2|3:2,0:0:0:0:
246,200,75040,2,0,L|230:122,1,52.5000020027161,8|0,1:2|0:0,0:0:0:0:
374,237,75242,2,0,L|359:297,1,52.5000020027161,2|0,3:2|3:2,0:0:0:0:
148,384,75445,2,0,B|165:337|165:337|220:322|220:322|234:287|234:287|153:210,1,210,6|0,1:2|0:0,0:0:0:0:
66,152,75850,2,0,B|35:145|35:145|77:170,1,70,8|2,1:2|3:2,0:0:0:0:
263,20,76256,6,0,L|242:107,1,87.5,6|2,1:2|3:2,0:0:0:0:
158,180,76560,1,2,3:2:0:0:
351,12,76661,2,0,L|317:165,1,140,14|2,1:2|3:2,0:0:0:0:
471,295,77067,1,6,1:2:0:0:
418,240,77168,1,0,3:2:0:0:
478,196,77269,2,0,L|447:134,1,52.5000020027161
357,288,77472,2,0,L|378:338,2,35,8|8|10,1:2|0:0|3:2,0:0:0:0:
307,227,77675,1,8,3:1:0:0:
244,269,77776,1,8,3:1:0:0:
109,90,77878,6,0,B|154:100|154:100|199:48|199:48|270:64|270:64|238:74,1,210,6|0,1:2|3:2,0:0:0:0:
222,192,78283,2,0,L|209:122,1,52.5000020027161,8|2,1:2|0:0,0:0:0:0:
39,232,78486,1,2,3:2:0:0:
93,288,78587,1,2,3:2:0:0:
69,365,78688,1,2,1:2:0:0:
110,357,78790,1,0,3:2:0:0:
151,349,78891,1,0,0:0:0:0:
192,341,78992,1,0,0:0:0:0:
240,335,79094,2,0,L|221:390,1,52.5000020027161,8|2,1:2|3:2,0:0:0:0:
240,335,79398,1,0,3:2:0:0:
379,209,79499,6,0,B|364:167|364:167|428:145|428:145|468:195|468:195|512:189,1,210,6|2,1:2|3:2,0:0:0:0:
386,207,79905,2,0,L|414:115,1,70,10|0,1:2|3:2,0:0:0:0:
406,140,80209,1,0,3:2:0:0:
272,45,80310,1,2,1:2:0:0:
275,72,80411,1,0,3:2:0:0:
279,100,80512,1,0,0:0:0:0:
283,128,80614,1,0,0:0:0:0:
287,163,80715,2,0,B|277:205|277:205|247:223|247:223|264:261,1,105,10|0,1:2|3:2,0:0:0:0:
368,380,81121,6,0,B|402:335|402:335|313:364|313:364|220:333,1,210,6|0,1:2|3:2,0:0:0:0:
131,253,81526,2,0,L|155:337,1,70,8|2,1:2|3:2,0:0:0:0:
30,125,81932,2,0,B|58:139|58:139|100:124|100:124|117:86,1,105,6|0,1:2|0:0,0:0:0:0:
44,16,82337,2,0,L|85:181,1,140,8|2,1:2|3:2,0:0:0:0:
307,77,82742,5,6,1:2:0:0:
262,23,82844,1,2,0:0:0:0:
201,53,82945,1,2,3:2:0:0:
457,200,83148,5,14,1:2:0:0:
429,135,83249,1,2,0:0:0:0:
359,145,83351,1,2,3:2:0:0:
271,352,83553,6,0,B|252:314|252:314|281:249|281:249|240:173,1,157.500006008148,6|0,1:2|0:0,0:0:0:0:
339,303,83959,2,0,L|403:285,1,52.5000020027161,8|2,1:2|0:0,0:0:0:0:
198,257,84161,2,0,L|128:269,1,52.5000020027161,2|2,3:2|3:2,0:0:0:0:
333,85,84364,6,0,B|356:141|356:141|188:104,1,210,6|0,1:2|3:2,0:0:0:0:
201,18,84769,2,0,L|276:34,1,70,8|2,1:2|0:0,0:0:0:0:
128,140,84972,1,2,3:2:0:0:
75,77,85073,1,2,3:2:0:0:
116,6,85175,1,2,1:2:0:0:
108,32,85276,1,0,3:2:0:0:
100,59,85377,1,0,0:0:0:0:
93,86,85479,1,0,0:0:0:0:
86,114,85580,2,0,L|63:198,1,70,8|2,1:2|3:2,0:0:0:0:
67,181,85884,1,0,3:2:0:0:
251,329,85986,6,0,B|269:307|269:307|240:233|240:233|288:265,1,140,6|0,1:2|3:2,0:0:0:0:
266,250,86290,1,2,3:2:0:0:
164,368,86391,2,0,B|129:333|129:333|59:355,1,105,10|0,1:2|3:2,0:0:0:0:
41,368,86796,1,2,1:2:0:0:
41,368,86898,1,0,3:2:0:0:
41,368,86999,2,0,L|60:301,1,52.5000020027161
99,197,87202,2,0,B|109:207|109:207|53:219|53:219|19:258,1,105,10|0,1:2|3:2,0:0:0:0:
70,74,87607,6,0,B|87:113|87:113|196:171|196:171|224:226,1,210,6|0,1:2|3:2,0:0:0:0:
215,210,88013,1,8,1:2:0:0:
200,27,88215,2,0,L|180:104,1,52.5000020027161,2|0,3:2|3:2,0:0:0:0:
258,148,88418,2,0,L|290:4,1,140,6|0,1:2|0:0,0:0:0:0:
288,11,88722,1,0,0:0:0:0:
350,77,88823,1,8,1:2:0:0:
215,210,89026,2,0,L|202:264,2,35,2|0|2,3:2|0:0|3:2,0:0:0:0:
152,342,89229,6,0,B|223:316|223:316|257:339|257:339,2,105,2|2|2,0:0|0:0|0:0,0:0:0:0:
328,365,90040,2,0,P|323:304|303:253,1,105.000004005432,2|2,0:0|0:0,0:0:0:0:
262,73,90851,6,0,P|315:51|402:177,1,183.750001752377,2|0,0:2|3:2,0:0:0:0:
345,188,91256,2,0,P|318:158|330:103,1,61.2500005841255,10|0,0:2|0:0,0:0:0:0:
498,90,91459,1,2,3:2:0:0:
498,90,91560,2,0,B|465:186|546:178|477:302,1,183.750001752377,2|0,3:2|3:2,0:0:0:0:
178,357,92067,2,0,P|253:341|283:272,1,122.500001168251,10|2,0:2|3:2,0:0:0:0:
277,306,92371,1,0,3:2:0:0:
178,206,92472,6,0,P|193:249|184:287,1,61.2500005841255,2|0,0:2|0:0,0:0:0:0:
339,237,92675,2,0,P|323:194|330:158,1,61.2500005841255,2|0,3:2|0:0,0:0:0:0:
247,17,92878,2,0,B|217:86|268:71|216:161,1,122.500001168251,10|2,0:2|3:2,0:0:0:0:
229,135,93182,1,2,3:2:0:0:
104,84,93283,2,0,P|156:94|184:95,1,61.2500005841255,0|0,0:0|3:2,0:0:0:0:
373,55,93486,2,0,P|315:60|293:70,1,61.2500005841255,0|0,3:2|3:2,0:0:0:0:
229,135,93688,1,10,0:2:0:0:
14,25,93891,1,2,3:2:0:0:
14,25,93992,1,0,3:2:0:0:
14,25,94094,6,0,P|75:60|68:183,1,183.750001752377,2|2,0:2|3:2,0:0:0:0:
18,232,94499,2,0,P|33:273|28:314,1,61.2500005841255,8|0,0:2|0:0,0:0:0:0:
171,268,94702,2,0,P|158:217|165:185,1,61.2500005841255,2|0,3:2|3:2,0:0:0:0:
106,341,94905,1,2,0:0:0:0:
106,341,95006,1,0,3:2:0:0:
106,341,95107,1,0,3:2:0:0:
380,236,95310,2,0,B|306:219|332:281|260:268,1,122.500001168251,10|2,0:2|3:2,0:0:0:0:
268,269,95614,1,0,3:2:0:0:
109,109,95715,6,0,P|192:123|202:197,1,122.500001168251,2|0,0:2|3:2,0:0:0:0:
158,209,96019,1,2,0:0:0:0:
292,331,96121,2,0,P|274:288|280:247,1,61.2500005841255,8|0,0:2|0:0,0:0:0:0:
380,236,96324,2,0,P|398:280|394:320,1,61.2500005841255,2|0,3:2|3:2,0:0:0:0:
303,193,96526,1,2,0:0:0:0:
303,193,96628,1,0,3:2:0:0:
303,193,96729,1,0,3:2:0:0:
497,75,96932,2,0,P|412:60|369:6,2,122.500001168251,10|2|0,0:2|3:2|3:2,0:0:0:0:
497,75,97540,1,2,3:2:0:0:
221,15,97742,6,0,P|302:65|295:128,1,122.500001168251,10|2,0:2|3:2,0:0:0:0:
179,177,98046,2,0,P|183:141|211:113,1,61.2500005841255,2|0,3:2|0:0,0:0:0:0:
87,84,98249,1,0,3:2:0:0:
87,84,98351,2,0,P|77:125|50:145,1,61.2500005841255,0|0,3:2|3:2,0:0:0:0:
156,52,98553,1,10,0:2:0:0:
11,222,98756,1,2,3:2:0:0:
11,222,98857,1,0,3:2:0:0:
11,222,98959,6,0,B|75:218|54:272|156:270,1,122.500001168251,2|2,0:2|3:2,0:0:0:0:
296,370,99364,2,0,B|263:328|272:291|312:271|335:278|341:307,1,122.500001168251,10|2,0:2|3:2,0:0:0:0:
327,286,99668,1,2,3:2:0:0:
231,175,99769,2,0,P|231:224|223:239,1,61.2500005841255,0|0,0:0|3:2,0:0:0:0:
176,368,99972,2,0,P|178:324|203:294,1,61.2500005841255,0|0,3:2|3:2,0:0:0:0:
11,222,100175,2,0,B|75:218|54:272|156:270,1,122.500001168251,10|2,0:2|3:2,0:0:0:0:
286,49,100580,6,0,P|238:95|173:84,1,122.500001168251,2|0,0:2|3:2,0:0:0:0:
185,91,100884,1,2,3:2:0:0:
377,11,100986,2,0,P|437:68|413:127,1,122.500001168251,8|2,0:2|3:2,0:0:0:0:
371,144,101290,1,0,3:2:0:0:
457,239,101391,2,0,P|444:205|443:149,1,61.2500005841255,2|0,0:0|3:2,0:0:0:0:
316,202,101594,2,0,P|332:248|330:267,1,61.2500005841255,0|0,3:2|3:2,0:0:0:0:
233,333,101797,2,0,B|301:324|285:360|366:353,1,122.500001168251,10|2,0:2|3:2,0:0:0:0:
404,297,102101,1,0,3:2:0:0:
316,202,102202,6,0,P|241:187|170:157,1,122.500001168251,2|0,0:2|3:2,0:0:0:0:
198,170,102506,1,2,0:0:0:0:
216,83,102607,2,0,P|288:95|352:119,1,122.500001168251,8|2,0:2|3:2,0:0:0:0:
334,111,102911,1,0,3:2:0:0:
490,81,103013,2,0,P|482:29|470:11,1,61.2500005841255,2|0,0:0|3:2,0:0:0:0:
399,40,103215,2,0,P|402:79|417:108,1,61.2500005841255,0|0,3:2|3:2,0:0:0:0:
463,154,103418,1,10,0:2:0:0:
275,280,103621,1,2,3:2:0:0:
275,280,103722,1,0,3:2:0:0:
275,280,103824,6,0,B|209:269|218:316|126:301,1,122.500001168251,2|0,0:2|3:2,0:0:0:0:
2,170,104229,2,0,P|42:232|19:291,1,122.500001168251,10|2,0:2|3:2,0:0:0:0:
144,231,104533,2,0,P|137:193|150:155,1,61.2500005841255,2|0,3:2|0:0,0:0:0:0:
191,112,104736,1,0,3:2:0:0:
260,154,104837,2,0,P|276:194|273:236,1,61.2500005841255,0|0,3:2|3:2,0:0:0:0:
128,24,105040,2,0,B|202:8|182:55|282:24,1,122.500001168251,10|2,0:2|3:2,0:0:0:0:
379,135,105445,6,0,B|306:127|313:166|227:149,1,122.500001168251,2|2,0:2|3:2,0:0:0:0:
191,112,105749,1,0,0:0:0:0:
74,235,105851,2,0,P|139:230|171:290,1,122.500001168251,10|2,0:2|3:2,0:0:0:0:
119,377,106155,2,0,P|112:305|119:287,1,61.2500005841255,2|0,3:2|0:0,0:0:0:0:
249,291,106357,1,0,3:2:0:0:
249,291,106459,2,0,P|263:338|261:360,1,61.2500005841255,0|0,3:2|3:2,0:0:0:0:
186,343,106661,1,10,0:2:0:0:
414,380,106864,1,2,3:2:0:0:
414,380,106965,1,0,3:2:0:0:
414,380,107067,6,0,P|353:338|355:272,1,122.500001168251,2|0,0:2|3:2,0:0:0:0:
397,235,107371,1,2,3:2:0:0:
266,112,107472,2,0,B|258:180|209:157|203:249,1,122.500001168251,8|2,0:2|3:2,0:0:0:0:
208,217,107776,1,0,3:2:0:0:
340,93,107878,2,0,P|330:33|314:3,1,61.2500005841255,2|0,0:0|3:2,0:0:0:0:
177,56,108080,2,0,P|181:108|191:127,1,61.2500005841255,0|0,3:2|3:2,0:0:0:0:
343,195,108283,2,0,P|418:177|445:113,1,122.500001168251,10|2,0:2|3:2,0:0:0:0:
227,290,108688,6,0,P|147:284|100:329,1,122.500001168251,2|0,0:2|3:2,0:0:0:0:
57,354,108992,1,2,0:0:0:0:
24,237,109094,2,0,B|25:164|75:194|79:110,1,122.500001168251,8|2,0:2|3:2,0:0:0:0:
76,130,109398,1,0,3:2:0:0:
5,39,109499,2,0,P|8:89|20:106,1,61.2500005841255,2|0,0:0|3:2,0:0:0:0:
139,82,109702,2,0,P|131:27|112:9,1,61.2500005841255,0|0,3:2|3:2,0:0:0:0:
118,219,109905,2,0,P|185:200|259:204,1,122.500001168251,10|2,0:2|3:2,0:0:0:0:
237,200,110209,1,0,3:2:0:0:
237,200,110310,1,0,3:2:0:0:
408,80,110513,6,0,P|346:100|316:99,1,61.2500005841255,2|0,3:2|3:2,0:0:0:0:
212,61,110715,2,0,P|282:86|295:170,1,122.500001168251,10|2,0:2|3:2,0:0:0:0:
261,264,111019,2,0,P|245:220|251:181,1,61.2500005841255,2|0,3:2|0:0,0:0:0:0:
382,180,111222,1,0,3:2:0:0:
382,180,111324,2,0,P|395:216|387:254,1,61.2500005841255,0|0,3:2|3:2,0:0:0:0:
333,341,111526,2,0,P|262:305|218:320,1,122.500001168251,10|2,0:2|3:2,0:0:0:0:
49,147,111932,6,0,B|120:133|114:175|180:166,1,122.500001168251,2|2,0:2|3:2,0:0:0:0:
167,167,112236,1,0,0:0:0:0:
332,64,112337,2,0,B|266:50|277:110|199:79,1,122.500001168251,10|2,0:2|3:2,0:0:0:0:
215,84,112641,1,2,3:2:0:0:
279,211,112742,2,0,P|298:169|289:135,1,61.2500005841255,0|0,0:0|3:2,0:0:0:0:
395,176,112945,2,0,P|386:218|396:249,1,61.2500005841255,0|0,3:2|3:2,0:0:0:0:
319,281,113148,1,10,0:2:0:0:
448,384,113351,1,2,3:2:0:0:
448,384,113452,1,0,3:2:0:0:
448,384,113553,6,0,P|501:327|474:260,1,122.500001168251,2|0,0:2|3:2,0:0:0:0:
496,288,113857,1,2,3:2:0:0:
389,235,113959,2,0,P|341:284|350:353,1,122.500001168251,8|2,0:2|3:2,0:0:0:0:
421,313,114263,1,0,3:2:0:0:
475,208,114364,2,0,P|486:172|507:137,1,61.2500005841255,2|0,0:0|3:2,0:0:0:0:
399,102,114567,2,0,P|378:144|363:165,1,61.2500005841255,0|0,3:2|3:2,0:0:0:0:
262,204,114770,2,0,B|203:201|217:246|135:239,1,122.500001168251,10|2,0:2|3:2,0:0:0:0:
17,105,115175,6,0,P|80:114|103:155,2,105,2|2|2,3:2|0:0|0:0,0:0:0:0:
70,297,115986,2,0,P|33:248|43:197,1,105.000004005432,2|2,3:2|3:2,0:0:0:0:
37,207,116594,1,2,0:0:0:0:
190,92,116797,6,0,B|236:49|236:49|198:133|198:133,1,122.500001168251,4|8,1:2|3:2,0:0:0:0:
163,165,117101,1,2,3:2:0:0:
250,300,117202,2,0,B|234:279|234:279|249:225|249:225|223:184,1,105.000004005432,6|8,1:2|3:2,0:0:0:0:
237,206,117506,1,0,3:2:0:0:
470,77,117607,2,0,B|411:96|411:96|395:158|395:158,1,122.500001168251,6|8,1:2|3:2,0:0:0:0:
441,213,117911,1,6,3:2:0:0:
497,143,118013,2,0,L|469:72,1,61.2500005841255,2|0,1:2|3:2,0:0:0:0:
285,16,118215,6,0,B|249:54|249:54|264:91|264:91|234:217,1,210,14|0,3:2|0:0,0:0:0:0:
179,269,118621,2,0,L|198:331,1,52.5000020027161,14|0,3:2|3:2,0:0:0:0:
87,170,118824,2,0,B|58:143|58:143|116:126|116:126|165:78,1,122.500001168251,6|8,1:2|3:2,0:0:0:0:
185,52,119128,1,0,3:2:0:0:
107,0,119229,2,0,B|81:66|81:66|149:129,1,122.500001168251,6|8,1:2|3:2,0:0:0:0:
236,205,119533,1,6,3:2:0:0:
277,197,119634,1,0,1:2:0:0:
318,189,119735,1,0,3:2:0:0:
364,174,119837,2,0,L|353:228,1,35,8|0,3:2|0:0,0:0:0:0:
436,269,120040,6,0,B|450:195|450:195|479:166|479:166|459:131|459:131|471:56,1,210,4|2,1:2|3:2,0:0:0:0:
280,21,120445,2,0,B|332:66|332:66|397:41|397:41|380:31,1,157.500006008148,6|0,1:2|3:2,0:0:0:0:
213,72,120851,2,0,L|250:127,1,52.5000020027161,6|0,1:2|0:0,0:0:0:0:
143,176,121053,1,8,3:2:0:0:
100,107,121155,2,0,L|139:167,1,70,6|0,3:2|3:2,0:0:0:0:
235,273,121459,6,0,B|270:261|270:261|215:239|215:239|132:267,1,157.500006008148,14|0,3:2|0:0,0:0:0:0:
100,330,121864,1,14,3:2:0:0:
140,342,121965,1,0,3:2:0:0:
180,354,122066,1,6,1:2:0:0:
220,367,122168,1,0,0:0:0:0:
259,383,122270,2,0,L|278:323,1,52.5000020027161,8|0,3:2|3:2,0:0:0:0:
387,255,122472,2,0,L|408:315,1,52.5000020027161,6|0,1:2|0:0,0:0:0:0:
292,203,122675,1,8,3:2:0:0:
295,107,122776,2,0,L|274:215,1,105,6|8,3:2|3:2,0:0:0:0:
478,292,123283,6,0,B|459:225|459:225|483:185|483:185|442:158|442:158|412:85,1,210,4|2,1:2|3:2,0:0:0:0:
389,11,123688,1,6,1:2:0:0:
433,23,123789,1,2,0:0:0:0:
474,34,123891,2,0,L|499:104,1,52.5000020027161,10|2,3:2|3:2,0:0:0:0:
312,193,124094,2,0,B|275:155|275:155|298:97,1,105.000004005432,6|10,1:2|3:2,0:0:0:0:
379,253,124398,2,0,B|352:274|352:274|297:270,1,70,6|2,3:2|3:2,0:0:0:0:
57,180,124702,6,0,B|89:166|89:166|169:192|169:192|195:235|195:235|248:226,1,210,14|2,3:2|0:0,0:0:0:0:
138,147,125107,2,0,L|118:211,1,52.5000020027161,14|2,3:2|3:2,0:0:0:0:
3,342,125310,1,6,1:2:0:0:
44,335,125411,1,2,0:0:0:0:
94,321,125513,2,0,L|71:257,1,52.5000020027161,10|0,3:2|3:2,0:0:0:0:
16,91,125715,2,0,B|49:102|49:102|102:64|102:64|157:77,1,122.500001168251,4|10,1:2|3:2,0:0:0:0:
307,107,126020,2,0,L|183:77,1,105,6|8,3:2|3:2,0:0:0:0:
394,33,126526,6,0,L|485:54,1,70,6|2,1:2|0:0,0:0:0:0:
512,153,126729,1,10,3:2:0:0:
470,160,126830,1,2,3:2:0:0:
429,167,126931,1,6,1:2:0:0:
387,174,127033,1,2,0:0:0:0:
346,180,127134,2,0,L|333:255,1,52.5000020027161,10|2,3:2|3:2,0:0:0:0:
219,328,127337,2,0,L|200:254,1,52.5000020027161,6|2,1:2|0:0,0:0:0:0:
128,200,127540,1,10,3:2:0:0:
105,258,127641,2,0,L|122:201,1,52.5000020027161,6|2,3:2|1:2,0:0:0:0:
190,153,127844,1,2,3:2:0:0:
34,95,127945,6,0,B|73:107|73:107|188:52|188:52|244:72,1,210,14|2,3:2|0:0,0:0:0:0:
162,73,128351,2,0,L|88:106,1,70,14|2,3:2|3:2,0:0:0:0:
270,205,128553,1,6,1:2:0:0:
342,228,128654,1,2,0:0:0:0:
401,181,128756,2,0,L|432:261,1,70,10|2,3:2|3:2,0:0:0:0:
310,355,128959,2,0,L|282:271,1,70,6|2,1:2|0:0,0:0:0:0:
218,260,129161,1,10,3:2:0:0:
31,203,129263,2,0,B|67:179|67:179|102:195|102:195|133:171|133:171|185:189,1,157.500006008148,6|10,3:2|3:2,0:0:0:0:
276,21,129770,6,0,L|268:82,3,35,2|2|2|2,3:2|0:0|0:0|3:2,0:0:0:0:
339,113,130175,2,0,L|349:60,3,35,2|2|2|2,3:2|0:0|3:2|0:0,0:0:0:0:
435,43,130580,1,2,3:2:0:0:
429,77,130681,1,2,0:0:0:0:
423,111,130782,1,2,0:0:0:0:
417,146,130884,1,2,3:2:0:0:
413,178,130986,2,0,L|401:230,3,35,2|2|2|2,3:2|0:0|3:2|0:0,0:0:0:0:
322,275,131391,6,0,L|307:230,3,35,2|2|0|2,0:0|0:0|3:2|0:0,0:0:0:0:
277,173,131797,1,2,3:2:0:0:
277,173,131999,1,2,3:2:0:0:
177,256,132202,1,2,3:2:0:0:
177,256,132405,1,2,0:0:0:0:
76,197,132607,5,2,0:0:0:0:
