osu file format v14

[General]
AudioFilename: audio.mp3
AudioLeadIn: 0
PreviewTime: 64094
Countdown: 0
SampleSet: Soft
StackLeniency: 0.7
Mode: 0
LetterboxInBreaks: 0
WidescreenStoryboard: 1

[Editor]
Bookmarks: 19499,38959,65006,90851,116797,129770
DistanceSpacing: 1
BeatDivisor: 4
GridSize: 32
TimelineZoom: 2.7

[Metadata]
Title:Death by Glamour
TitleUnicode:Death by Glamour
Artist:toby fox
ArtistUnicode:toby fox
Creator:Velamy
Version:Easy
Source:UNDERTALE
Tags:themagicanimals the magic animals arphimigon deglegneg deg leg neg take sinyus20 sukii vetoed penta -penta pentacoilz yoshiman01 thecosmicchef the cosmic chef an3 -_sandy spxderweeb andrai ai_haibara mettaton undertale indie game rpg jrpg video videogame vgm instrumental soundtrack
BeatmapID:4246703
BeatmapSetID:2036330

[Difficulty]
HPDrainRate:2
CircleSize:2
OverallDifficulty:3
ApproachRate:4
SliderMultiplier:0.999999999999999
SliderTickRate:1

[Events]
//Background and Video events
0,0,"thumb-1920-731367.png",0,0
//Break Periods
//Storyboard Layer 0 (Background)
//Storyboard Layer 1 (Fail)
//Storyboard Layer 2 (Pass)
//Storyboard Layer 3 (Foreground)
//Storyboard Layer 4 (Overlay)
//Storyboard Sound Samples

[TimingPoints]
40,405.406385737439,4,2,0,40,1,0
19499,-100,4,2,0,40,0,0
64905,-100,4,2,0,40,0,1
89229,-100,4,2,0,40,0,0

[Colours]
Combo1 : 255,255,0
Combo2 : 0,255,0
Combo3 : 0,128,255
Combo4 : 255,0,0

[HitObjects]
156,89,19499,6,0,L|55:112,2,99.9999999999999,2|10|2,1:2|1:2|1:2,0:0:0:0:
356,89,21121,2,0,L|457:112,2,99.9999999999999,0|10|2,1:2|1:2|1:2,0:0:0:0:
256,262,22742,2,0,L|256:374,2,99.9999999999999,2|10|2,1:2|1:2|1:2,0:0:0:0:
156,88,24364,2,0,B|207:91|207:91|256:85|256:85|305:91|305:91|356:88,1,200,0|2,1:2|1:2,0:0:0:0:
446,266,25986,5,4,1:2:0:0:
362,320,26391,2,0,L|154:283,1,200,10|8,1:2|1:2,0:0:0:0:
65,296,27607,1,0,1:2:0:0:
47,197,28012,2,0,L|255:160,1,200,10|8,1:2|1:2,0:0:0:0:
332,114,29229,2,0,B|343:64|343:64|320:8,2,99.9999999999999,0|10|2,1:2|1:2|1:2,0:0:0:0:
143,181,30850,2,0,B|124:135|124:135|135:85,2,99.9999999999999,0|10|2,1:2|1:2|1:2,0:0:0:0:
338,223,32472,6,0,B|273:256|273:256|255:317|255:317|195:347,1,200,0|2,1:2|1:2,0:0:0:0:
101,318,33688,1,8,1:2:0:0:
24,253,34094,2,0,B|-3:157|-3:157|52:66,1,200,0|2,1:2|1:2,0:0:0:0:
248,61,35715,1,0,1:2:0:0:
333,112,36121,2,0,L|288:308,1,200,10|8,1:2|1:2,0:0:0:0:
201,357,37337,1,0,1:2:0:0:
109,317,37742,2,0,B|88:271|88:271|99:218,1,99.9999999999999,10|2,1:2|1:2,0:0:0:0:
229,71,38959,6,0,B|329:82|329:82|424:37,1,200,6|0,1:2|1:2,0:0:0:0:
504,91,40175,1,10,1:2:0:0:
448,174,40580,2,0,L|464:284,1,99.9999999999999,2|10,1:2|1:2,0:0:0:0:
383,334,41391,1,0,1:2:0:0:
187,292,42202,1,2,1:2:0:0:
187,292,43823,2,0,B|182:212|182:212|201:182,1,99.9999999999999,2|8,1:2|1:2,0:0:0:0:
273,135,44634,2,0,B|283:118|283:118|278:38,1,99.9999999999999,2|10,1:2|1:2,0:0:0:0:
183,5,45445,6,0,B|84:23|84:23|108:121,1,200,6|0,1:2|1:2,0:0:0:0:
49,201,46661,1,10,1:2:0:0:
126,264,47067,2,0,L|116:370,2,99.9999999999999,2|10|0,1:2|1:2|1:2,0:0:0:0:
233,95,48688,1,2,1:2:0:0:
233,95,50310,2,0,B|216:45|216:45|266:29,1,99.9999999999999,2|8,1:2|1:2,0:0:0:0:
329,104,51121,2,0,B|345:153|345:153|295:169,1,99.9999999999999,2|8,1:2|1:2,0:0:0:0:
205,201,51932,6,0,B|130:192|130:192|173:323,1,200,6|0,1:2|1:2,0:0:0:0:
260,350,53148,1,10,1:2:0:0:
334,283,53553,2,0,B|481:244|481:244|502:292,2,200,2|0|2,1:2|1:2|1:2,0:0:0:0:
334,283,56796,2,0,L|308:178,1,99.9999999999999,2|8,1:2|1:2,0:0:0:0:
386,121,57607,2,0,L|412:16,1,99.9999999999999,2|10,1:2|1:2,0:0:0:0:
310,17,58418,6,0,B|241:10|241:10|120:93,1,200,6|0,1:2|1:2,0:0:0:0:
34,99,59634,1,10,1:2:0:0:
0,193,60040,2,0,L|24:311,1,99.9999999999999,2|10,1:2|1:2,0:0:0:0:
110,333,60850,2,0,L|228:309,1,99.9999999999999,0|10,1:2|1:2,0:0:0:0:
304,285,61661,1,2,1:2:0:0:
355,92,62472,1,2,1:2:0:0:
162,40,63283,1,2,1:2:0:0:
110,233,64094,1,4,0:0:0:0:
304,285,64905,6,0,B|366:281|366:281|436:146,1,200,6|2,1:2|1:2,0:0:0:0:
355,92,66121,1,8,1:2:0:0:
259,120,66526,2,0,B|208:117|208:117|161:79,1,99.9999999999999,6|10,1:2|1:2,0:0:0:0:
69,90,67337,2,0,B|84:204,1,99.9999999999999,2|10,1:2|1:2,0:0:0:0:
96,288,68148,2,0,B|194:267|194:267|280:325,1,200,6|6,1:2|1:2,0:0:0:0:
369,359,69364,1,8,1:2:0:0:
455,309,69769,2,0,L|476:199,1,99.9999999999999,6|14,1:2|1:2,0:0:0:0:
432,119,70580,1,6,1:2:0:0:
246,43,71391,6,0,L|268:256,1,200,6|2,1:2|1:2,0:0:0:0:
204,320,72607,1,8,1:2:0:0:
108,290,73013,2,0,L|98:191,1,99.9999999999999,6|10,1:2|1:2,0:0:0:0:
49,103,73823,2,0,B|93:75|93:75|162:90,1,99.9999999999999,2|10,1:2|1:2,0:0:0:0:
227,133,74634,2,0,B|325:108|325:108|398:30,2,200,6|6|6,1:2|1:2|1:2,0:0:0:0:
158,206,76661,2,0,L|168:305,1,99.9999999999999,14|6,1:2|1:2,0:0:0:0:
362,352,77878,6,0,B|383:307|383:307|341:216|341:216|365:164,1,200,6|2,1:2|1:2,0:0:0:0:
431,98,79094,1,8,1:2:0:0:
347,42,79499,2,0,L|241:68,1,99.9999999999999,6|10,1:2|1:2,0:0:0:0:
191,147,80310,2,0,L|93:123,1,99.9999999999999,2|10,1:2|1:2,0:0:0:0:
7,174,81121,2,0,B|27:272|27:272|132:292,1,200,6|6,1:2|1:2,0:0:0:0:
224,300,82337,1,8,1:2:0:0:
300,235,82742,2,0,B|351:230|351:230|401:252,1,99.9999999999999,6|14,1:2|1:2,0:0:0:0:
455,329,83553,1,6,1:2:0:0:
503,134,84364,6,0,B|435:117|435:117|379:141|379:141|307:123,1,200,6|2,1:2|1:2,0:0:0:0:
237,57,85580,1,8,1:2:0:0:
165,127,85986,2,0,B|122:145|122:145|65:134,1,99.9999999999999,6|10,1:2|1:2,0:0:0:0:
6,212,86796,2,0,L|29:322,1,99.9999999999999,2|10,1:2|1:2,0:0:0:0:
121,342,87607,2,0,B|216:313|216:313|230:259|266:225,2,200,6|6|2,1:2|1:2|0:0,0:0:0:0:
121,342,90851,6,0,P|98:276|106:225,1,99.9999999999999,2|10,0:2|0:2,0:0:0:0:
169,175,91661,1,0,0:0:0:0:
269,179,92067,2,0,P|363:160|403:72,2,200,10|10|10,0:2|0:2|0:2,0:0:0:0:
169,175,94094,2,0,P|156:223|168:270,1,99.9999999999999,2|8,0:2|0:2,0:0:0:0:
247,332,94905,2,0,P|306:300|342:299,1,99.9999999999999,2|10,0:0|0:2,0:0:0:0:
433,327,95715,2,0,P|461:281|468:234,2,99.9999999999999,2|8|2,0:2|0:2|0:0,0:0:0:0:
264,218,97337,5,0,3:2:0:0:
183,158,97742,2,0,P|180:115|203:43,1,99.9999999999999,10|0,0:2|0:0,0:0:0:0:
293,54,98553,2,0,P|424:56|490:13,2,200,10|10|10,0:2|0:2|0:2,0:0:0:0:
194,60,100580,2,0,P|181:108|183:158,1,99.9999999999999,2|8,0:2|0:2,0:0:0:0:
264,218,101391,2,0,P|277:266|275:316,1,99.9999999999999,2|10,0:0|0:2,0:0:0:0:
186,362,102202,1,2,0:2:0:0:
21,248,103013,1,2,0:0:0:0:
177,89,103824,6,0,B|207:69|246:77|266:105|266:105|286:134|326:141|355:121,1,200,2|0,0:2|0:0,0:0:0:0:
441,71,105040,1,10,0:2:0:0:
490,157,105445,2,0,P|473:213|481:268,1,99.9999999999999,2|10,0:2|0:2,0:0:0:0:
510,348,106256,1,0,0:0:0:0:
310,338,107067,2,0,P|292:261|315:235,1,99.9999999999999,2|8,0:2|0:2,0:0:0:0:
374,180,107878,2,0,P|388:133|364:91,1,99.9999999999999,2|10,0:0|0:2,0:0:0:0:
272,50,108688,2,0,P|160:113|157:186,1,200,2|2,0:2|0:0,0:0:0:0:
77,358,110310,5,0,3:2:0:0:
17,277,110715,2,0,P|4:233|12:174,1,99.9999999999999,10|0,0:2|0:0,0:0:0:0:
64,96,111526,2,0,P|77:52|69:-7,2,99.9999999999999,10|2|10,0:2|0:2|0:2,0:0:0:0:
9,179,112742,1,0,0:0:0:0:
141,329,113553,2,0,B|152:303|181:291|208:300|223:320|223:320|239:343|270:348|295:334|306:311,1,200,2|2,0:2|0:0,0:0:0:0:
361,228,114770,1,10,0:2:0:0:
285,163,115175,1,2,3:2:0:0:
285,163,116797,6,0,L|276:63,2,99.9999999999999,4|6|6,1:2|1:2|1:2,0:0:0:0:
205,224,118013,1,2,1:2:0:0:
181,321,118418,2,0,B|37:372|37:372|-1:345,1,200,0|6,1:2|1:2,0:0:0:0:
16,247,119634,1,0,1:2:0:0:
38,149,120040,2,0,B|132:116|132:116|235:148,1,200,4|6,1:2|1:2,0:0:0:0:
296,218,121256,1,2,1:2:0:0:
389,183,121661,2,0,L|400:73,2,99.9999999999999,0|6|6,1:2|1:2|1:2,0:0:0:0:
239,316,123283,6,0,B|193:295|193:295|175:136,1,200,4|6,1:2|1:2,0:0:0:0:
98,82,124499,1,2,1:2:0:0:
25,150,124905,2,0,B|18:200|18:200|43:254,1,99.9999999999999,2|6,1:2|1:2,0:0:0:0:
122,298,125715,2,0,L|220:280,1,99.9999999999999,4|2,1:2|1:2,0:0:0:0:
317,303,126526,2,0,B|327:202|327:202|291:100,1,200,6|6,1:2|1:2,0:0:0:0:
214,48,127743,1,2,1:2:0:0:
128,98,128148,2,0,B|134:148|134:148|85:154|85:154|98:253|98:253|48:260|48:260|54:309,1,300,2|2,1:2|1:2,0:0:0:0:
150,336,129770,6,0,B|250:313|250:313|333:358|333:358|433:335,1,300,2|2,3:2|3:2,0:0:0:0:
471,242,131391,2,0,B|449:196|449:196|468:140,2,99.9999999999999,2|2|2,0:0|3:2|3:2,0:0:0:0:
433,334,132607,1,2,0:0:0:0:
