osu file format v14

[General]
AudioFilename: audio.mp3
AudioLeadIn: 0
PreviewTime: 64094
Countdown: 0
SampleSet: Soft
StackLeniency: 0.7
Mode: 0
LetterboxInBreaks: 0
WidescreenStoryboard: 1

[Editor]
Bookmarks: 19499,25990,38959,65006,90851,116797,129770
DistanceSpacing: 1.78
BeatDivisor: 8
GridSize: 32
TimelineZoom: 2.7

[Metadata]
Title:Death by Glamour
TitleUnicode:Death by Glamour
Artist:toby fox
ArtistUnicode:toby fox
Creator:Velamy
Version:Arphimigon's Advanced
Source:UNDERTALE
Tags:themagicanimals the magic animals arphimigon deglegneg deg leg neg take sinyus20 sukii vetoed penta -penta pentacoilz yoshiman01 thecosmicchef the cosmic chef an3 -_sandy spxderweeb andrai ai_haibara mettaton undertale indie game rpg jrpg video videogame vgm instrumental soundtrack
BeatmapID:4301885
BeatmapSetID:2036330

[Difficulty]
HPDrainRate:3
CircleSize:3
OverallDifficulty:5
ApproachRate:6
SliderMultiplier:1.3
SliderTickRate:1

[Events]
//Background and Video events
0,0,"thumb-1920-731367.png",0,0
//Break Periods
//Storyboard Layer 0 (Background)
//Storyboard Layer 1 (Fail)
//Storyboard Layer 2 (Pass)
//Storyboard Layer 3 (Foreground)
//Storyboard Layer 4 (Overlay)
//Storyboard Sound Samples

[TimingPoints]
40,405.406385737439,4,2,0,40,1,0
19499,-100,4,2,0,40,0,0
38959,-83.3333333333333,4,2,0,40,0,0
51932,-80,4,2,0,40,0,0
64905,-74.0740740740741,4,2,0,40,0,1
68148,-83.3333333333333,4,2,0,40,0,1
69773,-74.0740740740741,4,2,0,40,0,1
74634,-83.3333333333333,4,2,0,40,0,1
76256,-74.0740740740741,4,2,0,40,0,1
81121,-83.3333333333333,4,2,0,40,0,1
82742,-74.0740740740741,4,2,0,40,0,1
87607,-83.3333333333333,4,2,0,40,0,1
89229,-83.3333333333333,4,2,0,40,0,0
90851,-80,4,2,0,40,0,0
116797,-74.0740740740741,4,2,0,40,0,0
129770,-100,4,2,0,40,0,0
130580,-105.263157894737,4,2,0,40,0,0
131391,-111.111111111111,4,2,0,40,0,0
132202,-117.647058823529,4,2,0,40,0,0

[Colours]
Combo1 : 255,255,0
Combo2 : 0,255,0
Combo3 : 0,128,255
Combo4 : 255,0,0

[HitObjects]
101,346,19499,6,0,L|90:265,1,65,2|0,1:2|3:2,0:0:0:0:
84,216,19904,1,10,1:2:0:0:
213,229,20310,2,0,L|191:67,1,130,2|8,1:2|1:2,0:0:0:0:
310,39,21121,2,0,L|299:120,2,65,0|2|10,1:2|3:2|1:2,0:0:0:0:
439,40,21931,1,2,1:2:0:0:
449,169,22337,2,0,L|438:250,1,65,8|2,1:2|3:2,0:0:0:0:
403,286,22742,6,0,L|322:297,1,65,2|0,1:2|3:2,0:0:0:0:
274,305,23148,1,10,1:2:0:0:
308,179,23553,2,0,L|166:159,1,130,2|8,1:2|1:2,0:0:0:0:
89,255,24364,2,0,L|153:246,2,65,0|2|10,1:2|3:2|1:2,0:0:0:0:
34,136,25175,1,2,1:2:0:0:
92,19,25580,2,0,L|185:34,1,65,8|8,1:2|3:1,0:0:0:0:
221,37,25986,6,0,L|319:24,1,65,4|2,1:2|3:2,0:0:0:0:
349,18,26391,1,10,1:2:0:0:
442,107,26796,2,0,B|462:166|462:166|458:205,2,97.5,2|2|2,1:2|3:2|3:2,0:0:0:0:
322,179,27810,1,2,3:2:0:0:
322,179,28013,2,0,L|261:155,1,65,10|2,1:2|3:2,0:0:0:0:
201,130,28418,2,0,B|142:154|142:154|127:218,1,130,2|8,1:2|1:2,0:0:0:0:
237,287,29229,6,0,L|244:369,2,65,0|2|10,1:2|3:2|1:2,0:0:0:0:
212,152,30040,2,0,B|245:137|245:137|305:132,2,97.5,2|2|2,1:2|3:2|3:2,0:0:0:0:
275,265,31053,1,2,3:2:0:0:
275,265,31256,2,0,L|339:258,1,65,10|2,1:2|3:2,0:0:0:0:
403,246,31661,2,0,B|424:181|424:181|407:114,1,130,2|8,1:2|1:2,0:0:0:0:
331,27,32472,6,0,L|260:49,1,65,0|2,1:2|3:2,0:0:0:0:
207,68,32877,1,10,1:2:0:0:
176,194,33283,2,0,B|176:229|176:229|150:288,2,97.5,2|2|2,1:2|3:2|3:2,0:0:0:0:
47,172,34296,1,2,3:2:0:0:
47,172,34499,2,0,L|51:238,1,65,10|2,1:2|3:2,0:0:0:0:
54,301,34904,2,0,B|96:292|96:292|135:311|135:311|178:303,1,130,2|8,1:2|1:2,0:0:0:0:
308,304,35715,6,0,L|393:314,2,65,0|2|10,1:2|3:2|1:2,0:0:0:0:
210,206,36526,2,0,B|207:173|207:173|228:112,2,97.5,2|2|2,1:2|3:2|3:2,0:0:0:0:
343,223,37540,1,2,3:2:0:0:
343,223,37742,2,0,L|346:149,1,65,10|2,1:2|3:2,0:0:0:0:
352,92,38148,1,2,1:2:0:0:
255,19,38553,5,8,1:2:0:0:
194,42,38756,1,8,3:1:0:0:
133,65,38959,2,0,L|103:211,1,116.999996429443,6|0,1:2|3:2,0:0:0:0:
151,324,39668,1,2,3:2:0:0:
361,324,40175,1,10,1:2:0:0:
422,180,40580,6,0,L|414:87,2,77.999997619629,2|2|10,1:2|3:2|1:2,0:0:0:0:
361,280,41290,1,2,3:2:0:0:
151,280,41797,1,10,1:2:0:0:
158,124,42202,6,0,B|121:138|121:138|101:170|101:170|99:211,1,116.999996429443,2|2,1:2|0:0,0:0:0:0:
354,260,43823,5,2,1:2:0:0:
324,94,44229,1,8,1:2:0:0:
158,124,44634,1,2,1:2:0:0:
188,290,45040,1,10,1:2:0:0:
343,286,45445,6,0,B|323:224|323:224|351:180,1,116.999996429443,6|0,1:2|3:2,0:0:0:0:
453,68,46154,1,2,3:2:0:0:
256,29,46661,1,10,1:2:0:0:
256,186,47067,2,0,L|256:274,2,77.999997619629,2|2|10,1:2|3:2|1:2,0:0:0:0:
256,70,47776,1,2,3:2:0:0:
59,109,48283,1,10,1:2:0:0:
46,264,48688,6,0,B|77:288|77:288|114:293|114:293|161:281,1,116.999996429443,2|2,1:2|0:0,0:0:0:0:
354,124,50310,5,2,1:2:0:0:
324,290,50716,1,8,1:2:0:0:
158,260,51121,1,2,1:2:0:0:
188,94,51527,1,8,1:2:0:0:
322,14,51932,6,0,L|446:37,1,121.875,6|0,1:2|3:2,0:0:0:0:
506,175,52641,2,0,L|405:194,1,81.25,2|2,3:2|3:2,0:0:0:0:
391,198,52945,2,0,B|361:256|361:256|359:290|359:290|332:355,1,162.5,2|2,3:2|3:2,0:0:0:0:
256,368,53553,5,2,1:2:0:0:
186,326,53756,5,2,3:2:0:0:
256,286,53959,5,10,1:2:0:0:
96,255,54263,1,2,3:2:0:0:
199,132,54567,1,2,3:2:0:0:
199,132,54769,1,10,1:2:0:0:
421,232,55175,6,0,B|406:150|406:150|348:204,1,162.5,2|10,1:2|1:2,0:0:0:0:
128,280,56796,5,2,1:2:0:0:
167,64,57202,1,8,1:2:0:0:
383,103,57607,1,2,1:2:0:0:
344,319,58013,1,10,1:2:0:0:
181,329,58418,6,0,L|158:205,1,121.875,6|0,1:2|3:2,0:0:0:0:
11,228,59127,2,0,L|31:116,1,81.25,2|2,3:2|3:2,0:0:0:0:
37,108,59432,2,0,B|95:78|95:78|129:76|129:76|194:49,1,162.5,2|2,3:2|3:2,0:0:0:0:
262,21,60040,5,2,1:2:0:0:
342,22,60242,5,2,3:2:0:0:
304,93,60445,5,10,1:2:0:0:
464,95,60749,1,2,3:2:0:0:
388,237,61053,1,2,3:2:0:0:
388,237,61256,1,10,1:2:0:0:
236,295,61661,6,0,B|161:261|161:261|237:213,1,162.5,2|10,1:2|1:2,0:0:0:0:
362,125,62472,6,0,B|429:82|429:82|354:48,1,162.5,2|10,1:2|1:2,0:0:0:0:
192,32,63283,6,0,L|183:115,1,81.25,2|2,1:2|3:2,0:0:0:0:
182,194,63688,2,0,L|190:274,1,81.25,8|8,1:2|3:1,0:0:0:0:
203,355,64094,5,4,0:0:0:0:
447,102,64905,6,0,B|274:70|274:70|211:141,1,263.250001004219,6|2,1:2|3:2,0:0:0:0:
174,212,65715,6,0,B|347:244|347:244|410:173,1,263.250001004219,2|2,1:2|3:2,0:0:0:0:
447,102,66526,5,6,1:2:0:0:
493,271,66932,1,10,1:2:0:0:
349,371,67337,5,2,1:2:0:0:
303,202,67743,1,10,1:2:0:0:
256,32,68148,6,0,B|99:58|99:58|70:131,1,233.999992858887,6|2,1:2|3:2,0:0:0:0:
59,214,68958,6,0,B|215:187|215:187|244:114,1,233.999992858887,6|2,1:2|3:2,0:0:0:0:
256,32,69769,5,6,1:2:0:0:
457,161,70175,5,14,1:2:0:0:
246,267,70580,5,6,1:2:0:0:
256,32,70986,5,8,1:2:0:0:
256,32,71188,1,2,3:2:0:0:
256,32,71391,2,0,B|195:54|195:54|127:59|127:59|88:112|88:112|32:143,1,263.250001004219,6|2,1:2|3:2,0:0:0:0:
32,240,72202,6,0,B|88:271|88:271|127:324|127:324|195:329|195:329|256:352,1,263.250001004219,2|2,1:2|3:2,0:0:0:0:
332,322,73013,5,6,1:2:0:0:
175,243,73418,1,10,1:2:0:0:
336,228,73823,5,2,1:2:0:0:
179,149,74228,1,10,1:2:0:0:
256,32,74634,6,0,B|308:57|308:57|367:65|367:65|398:116|398:116|446:148,1,233.999992858887,6|2,1:2|3:2,0:0:0:0:
446,235,75445,6,0,B|398:267|398:267|367:318|367:318|308:326|308:326|256:352,1,233.999992858887,6|2,1:2|3:2,0:0:0:0:
175,318,76256,6,0,L|168:230,1,87.7500003347397,6|2,1:2|3:2,0:0:0:0:
89,193,76661,6,0,L|82:105,1,87.7500003347397,14|2,1:2|3:2,0:0:0:0:
14,51,77067,5,6,1:2:0:0:
192,27,77472,5,8,1:2:0:0:
192,27,77675,1,8,3:1:0:0:
192,27,77878,2,0,B|324:17|324:17|421:112,1,263.250001004219,6|2,1:2|3:2,0:0:0:0:
395,193,78688,6,0,B|263:183|263:183|166:278,1,263.250001004219,2|2,1:2|3:2,0:0:0:0:
110,339,79499,5,6,1:2:0:0:
279,384,79905,1,10,1:2:0:0:
402,259,80310,5,2,1:2:0:0:
233,214,80716,1,10,1:2:0:0:
55,153,81121,6,0,B|169:161|169:161|254:79,1,233.999992858887,6|2,1:2|3:2,0:0:0:0:
308,11,81931,6,0,B|422:2|422:2|507:84,1,233.999992858887,6|2,1:2|3:2,0:0:0:0:
509,165,82742,5,6,1:2:0:0:
380,366,83148,5,14,1:2:0:0:
274,155,83553,5,6,1:2:0:0:
509,165,83959,5,8,1:2:0:0:
509,165,84161,1,2,3:2:0:0:
509,165,84364,2,0,B|450:228|450:228|361:234|361:234|302:299,1,263.250001004219,6|2,1:2|3:2,0:0:0:0:
209,299,85175,6,0,B|150:234|150:234|61:228|61:228|3:165,1,263.250001004219,2|2,1:2|3:2,0:0:0:0:
2,76,85986,5,6,1:2:0:0:
165,13,86391,1,10,1:2:0:0:
347,13,86796,5,2,1:2:0:0:
510,76,87202,1,10,1:2:0:0:
409,173,87607,6,0,B|355:228|355:228|354:307|354:307|299:362,1,233.999992858887,6|2,1:2|3:2,0:0:0:0:
212,362,88418,2,0,B|157:307|157:307|156:228|156:228|103:173,1,233.999992858887,6|2,1:2|3:2,0:0:0:0:
115,89,90851,5,2,0:2:0:0:
85,248,91256,1,10,0:2:0:0:
197,291,91560,2,0,P|252:278|314:291,1,121.875,2|0,3:2|3:2,0:0:0:0:
402,332,92067,1,10,0:2:0:0:
402,332,92269,1,2,3:2:0:0:
402,332,92472,2,0,P|413:290|418:239,1,81.25,2|2,0:2|3:2,0:0:0:0:
410,171,92878,1,10,0:2:0:0:
315,93,93182,2,0,P|260:106|198:93,1,121.875,2|0,3:2|3:2,0:0:0:0:
122,59,93688,5,10,0:2:0:0:
122,59,93891,1,2,3:2:0:0:
122,59,94094,1,2,0:2:0:0:
57,162,94398,1,2,3:2:0:0:
142,249,94702,1,2,3:2:0:0:
142,249,94905,2,0,B|214:233|228:273|303:248,1,162.5,2|10,0:0|0:2,0:0:0:0:
375,212,95513,1,2,3:2:0:0:
375,212,95715,1,2,0:2:0:0:
457,122,96019,1,2,0:0:0:0:
387,21,96324,1,2,3:2:0:0:
387,21,96526,2,0,B|315:5|301:45|226:20,1,162.5,2|10,0:0|0:2,0:0:0:0:
145,13,97134,1,2,3:2:0:0:
66,155,97540,6,0,P|71:200|58:243,1,81.25,2|10,3:2|0:2,0:0:0:0:
49,314,97945,2,0,P|57:346|65:362,1,40.625,2|2,3:2|3:2,0:0:0:0:
252,286,98553,2,0,P|261:246|255:206,1,81.25,10|2,0:2|3:2,0:0:0:0:
174,202,98959,2,0,P|164:241|170:281,2,81.25,2|2|10,0:2|3:2|0:2,0:0:0:0:
201,125,99567,2,0,P|195:92|189:75,1,40.625,2|2,3:2|3:2,0:0:0:0:
384,16,100175,6,0,P|402:68|401:108,1,81.25,10|2,0:2|3:2,0:0:0:0:
374,170,100580,2,0,P|356:222|361:294,2,121.875,2|2|2,0:2|3:2|3:2,0:0:0:0:
454,156,101391,2,0,P|461:236|437:313,1,162.5,2|10,0:0|0:2,0:0:0:0:
382,373,101999,1,2,3:2:0:0:
382,373,102202,2,0,P|331:338|273:321,1,121.875,2|2,0:2|0:0,0:0:0:0:
161,274,102810,1,2,3:2:0:0:
161,274,103013,2,0,P|211:239|316:223,1,162.5,2|10,0:0|0:2,0:0:0:0:
470,197,103824,5,2,0:2:0:0:
425,40,104229,1,10,0:2:0:0:
314,92,104533,2,0,P|256:106|196:92,1,121.875,2|0,3:2|3:2,0:0:0:0:
123,57,105040,1,10,0:2:0:0:
123,57,105242,1,2,3:2:0:0:
123,57,105445,1,2,0:2:0:0:
99,218,105851,1,10,0:2:0:0:
196,291,106155,2,0,P|256:277|314:291,1,121.875,2|0,3:2|3:2,0:0:0:0:
393,346,106661,5,10,0:2:0:0:
393,346,106864,1,2,3:2:0:0:
393,346,107067,1,2,0:2:0:0:
451,234,107371,1,2,3:2:0:0:
369,151,107675,1,2,3:2:0:0:
369,151,107878,2,0,P|341:99|279:151,1,162.5,2|10,0:0|0:2,0:0:0:0:
327,222,108486,1,2,3:2:0:0:
327,222,108688,1,2,0:2:0:0:
253,318,108992,1,2,0:0:0:0:
133,291,109297,1,2,3:2:0:0:
133,291,109499,2,0,P|105:343|43:291,1,162.5,2|10,0:0|0:2,0:0:0:0:
88,221,110107,1,2,3:2:0:0:
89,58,110513,6,0,P|134:53|177:66,1,81.25,2|10,3:2|0:2,0:0:0:0:
248,75,110918,2,0,P|280:67|296:59,1,40.625,2|2,3:2|3:2,0:0:0:0:
471,148,111526,2,0,P|476:193|463:236,1,81.25,10|2,0:2|3:2,0:0:0:0:
385,219,111932,2,0,P|380:174|393:131,2,81.25,2|2|10,0:2|3:2|0:2,0:0:0:0:
394,299,112540,2,0,P|386:331|378:347,1,40.625,2|2,3:2|3:2,0:0:0:0:
187,282,113148,2,0,P|132:273|95:276,1,81.25,10|2,0:2|3:2,0:0:0:0:
36,233,113553,2,0,P|18:181|23:109,2,121.875,2|2|2,0:2|3:2|3:2,0:0:0:0:
107,194,114364,2,0,P|114:114|90:37,1,162.5,2|10,0:0|0:2,0:0:0:0:
14,6,114972,1,2,3:2:0:0:
255,293,116797,5,4,1:2:0:0:
343,141,117202,1,6,1:2:0:0:
169,141,117607,1,6,1:2:0:0:
103,255,117911,1,6,3:2:0:0:
37,141,118215,1,14,3:2:0:0:
169,25,118621,1,14,3:2:0:0:
169,25,118824,1,6,1:2:0:0:
343,25,119229,2,0,L|452:123,1,131.62500050211,6|6,1:2|3:2,0:0:0:0:
256,303,120040,5,4,1:2:0:0:
159,136,120445,1,6,1:2:0:0:
351,135,120850,1,6,1:2:0:0:
424,261,121154,1,6,3:2:0:0:
496,135,121458,1,14,3:2:0:0:
351,17,121864,1,14,3:2:0:0:
351,17,122067,1,6,1:2:0:0:
161,17,122472,2,0,L|52:115,1,131.62500050211,6|6,1:2|3:2,0:0:0:0:
162,348,123283,5,4,1:2:0:0:
256,160,123688,1,6,1:2:0:0:
350,348,124094,1,6,1:2:0:0:
430,212,124398,1,6,3:2:0:0:
509,348,124702,1,14,3:2:0:0:
509,137,125107,1,14,3:2:0:0:
509,137,125310,1,6,1:2:0:0:
385,0,125715,2,0,B|334:41|334:41|334:107,1,131.62500050211,4|6,1:2|3:2,0:0:0:0:
350,348,126526,5,6,1:2:0:0:
256,140,126931,1,6,1:2:0:0:
162,348,127337,1,6,1:2:0:0:
82,196,127641,1,6,3:2:0:0:
3,348,127945,1,14,3:2:0:0:
8,124,128350,1,14,3:2:0:0:
8,124,128553,1,6,1:2:0:0:
205,10,128958,2,0,B|255:51|255:51|255:117,1,131.62500050211,6|6,1:2|3:2,0:0:0:0:
256,280,129770,6,0,B|319:301|319:301|379:280,1,130,2|2,3:2|3:2,0:0:0:0:
440,173,130580,2,0,B|380:153|380:153|323:173,1,123.499996702194,2|2,3:2|3:2,0:0:0:0:
211,210,131391,6,0,B|154:228|154:228|101:210,1,116.999996429443,2|2,0:0|3:2,0:0:0:0:
101,99,132202,1,2,3:2:0:0:
211,99,132607,1,2,0:0:0:0:
