osu file format v14

[General]
AudioFilename: toby fox - UNDERTALE Soundtrack - 68 Death by Glamour.mp3
AudioLeadIn: 0
PreviewTime: 64489
Countdown: 1
SampleSet: Normal
StackLeniency: 0.7
Mode: 0
LetterboxInBreaks: 1
WidescreenStoryboard: 1

[Editor]
DistanceSpacing: 1
BeatDivisor: 4
GridSize: 4
TimelineZoom: 2.7

[Metadata]
Title:Death by Glamour
TitleUnicode:Death by Glamour
Artist:toby fox
ArtistUnicode:toby fox
Creator:Chamle
Version:OH YES!
Source:UNDERTALE
Tags:
BeatmapID:1004386
BeatmapSetID:469681

[Difficulty]
HPDrainRate:8
CircleSize:5
OverallDifficulty:7
ApproachRate:8.5
SliderMultiplier:2.7
SliderTickRate:1

[Events]
//Background and Video events
0,0,"ut___death_by_glamour_by_karinexe-d9kt31y.jpg",0,0
//Break Periods
//Storyboard Layer 0 (Background)
//Storyboard Layer 1 (Fail)
//Storyboard Layer 2 (Pass)
//Storyboard Layer 3 (Foreground)
//Storyboard Sound Samples

[TimingPoints]
30,405.405405405405,4,1,0,25,1,0
25975,-100,4,1,0,50,0,0
64894,-100,4,1,0,75,0,1
90840,-100,4,1,0,50,0,0
116786,-100,4,1,0,100,0,1
129759,-100,4,1,0,30,0,0

[Colours]
Combo1 : 230,0,230
Combo2 : 255,128,0
Combo3 : 0,255,255
Combo4 : 0,0,0

[HitObjects]
88,68,30,5,0,0:0:0:0:
48,336,435,1,0,0:0:0:0:
176,96,840,2,0,P|256:44|336:96,1,202.5
464,336,1448,1,0,0:0:0:0:
424,68,1853,1,0,0:0:0:0:
336,96,2057,1,0,0:0:0:0:
336,288,2462,2,0,P|256:340|176:288,1,202.5
256,80,3273,5,0,0:0:0:0:
92,292,3678,1,0,0:0:0:0:
332,164,4084,2,0,P|256:80|284:8,1,202.5
200,192,4692,1,0,0:0:0:0:
496,292,5097,1,0,0:0:0:0:
420,292,5300,1,0,0:0:0:0:
180,164,5705,2,0,P|256:80|228:8,1,202.5
400,56,6516,6,0,P|380:108|396:252,1,202.5
444,300,6921,2,0,L|324:360,2,135
456,164,7529,2,0,P|488:148|508:120,2,67.5
320,144,7935,1,0,0:0:0:0:
112,316,8239,5,0,0:0:0:0:
112,316,8340,2,0,P|88:304|48:304,2,67.5
112,316,8746,1,0,0:0:0:0:
44,56,8948,2,0,P|32:120|56:184,1,135
116,220,9252,2,0,P|180:232|244:208,1,135
243,208,9557,1,0,0:0:0:0:
112,56,9759,6,0,P|132:108|116:252,1,202.5
68,300,10164,2,0,L|188:360,2,135
56,164,10772,2,0,P|24:148|4:120,2,67.5
192,144,11178,1,0,0:0:0:0:
400,316,11482,5,0,0:0:0:0:
400,316,11583,2,0,P|424:304|464:304,2,67.5
400,316,11989,1,0,0:0:0:0:
468,56,12191,2,0,P|480:120|456:184,1,135
396,220,12495,2,0,P|332:232|268:208,1,135
269,208,12800,1,0,0:0:0:0:
428,76,13002,6,0,P|456:192|364:236,1,202.5
400,234,13408,1,0,0:0:0:0:
368,148,13611,1,0,0:0:0:0:
368,148,13712,1,0,0:0:0:0:
368,148,13813,2,0,P|300:184|300:300,2,202.5
256,56,14624,5,0,0:0:0:0:
168,140,14827,1,0,0:0:0:0:
168,140,14928,1,0,0:0:0:0:
168,140,15029,2,0,P|108:152|64:116,1,67.5
48,116,15232,2,0,P|36:56|72:12,1,67.5
144,24,15435,2,0,L|276:56,1,135
420,112,15739,2,0,L|288:144,1,135
220,108,16043,1,0,0:0:0:0:
84,76,16246,6,0,P|56:192|148:236,1,202.5
111,234,16651,1,0,0:0:0:0:
144,148,16855,1,0,0:0:0:0:
144,148,16956,1,0,0:0:0:0:
144,148,17057,2,0,P|212:184|212:304,2,202.5
256,56,17867,5,0,0:0:0:0:
344,140,18070,1,0,0:0:0:0:
344,140,18171,1,0,0:0:0:0:
344,140,18272,2,0,P|404:152|448:116,1,67.5
464,116,18475,2,0,P|476:56|440:12,1,67.5
368,24,18678,2,0,L|236:56,1,135
92,112,18982,2,0,L|224:144,1,135
292,108,19286,1,0,0:0:0:0:
448,312,19489,5,0,0:0:0:0:
392,276,19590,1,0,0:0:0:0:
324,268,19692,2,0,L|256:272,1,67.5
192,296,19894,2,0,P|156:268|160:184,1,135
208,232,20198,2,0,P|256:184|320:160,1,135
384,176,20502,1,0,0:0:0:0:
452,176,20604,1,0,0:0:0:0:
508,136,20705,2,0,P|492:68|440:24,1,135
380,44,21009,6,0,L|240:28,1,135
188,64,21313,1,0,0:0:0:0:
120,56,21415,1,0,0:0:0:0:
68,12,21516,2,0,P|4:36|-8:96,1,135
28,152,21820,2,0,L|0:288,1,135
20,348,22124,2,0,P|48:360|84:352,1,67.5
116,292,22327,1,0,0:0:0:0:
180,308,22428,1,0,0:0:0:0:
244,324,22529,1,0,0:0:0:0:
308,340,22631,1,0,0:0:0:0:
368,308,22732,6,0,L|384:240,1,67.5
456,192,22935,2,0,L|440:260,1,67.5
400,180,23138,2,0,L|416:112,2,67.5
348,136,23442,2,0,P|288:96|288:36,1,135
348,68,23746,1,0,0:0:0:0:
348,68,23847,1,0,0:0:0:0:
348,68,23948,2,0,L|228:132,1,135
166,102,24252,6,0,P|171:167|228:200,1,135
296,208,24557,1,0,0:0:0:0:
352,248,24658,1,0,0:0:0:0:
420,244,24759,2,0,P|408:332|376:368,1,135
368,184,25063,2,0,P|456:196|492:228,1,135
304,228,25367,2,0,P|316:140|348:104,1,135
376,92,25621,2,0,L|411:97,2,33.75
372,60,25773,2,8,P|352:32|320:24,1,67.5
256,40,25975,6,0,L|124:64,1,135
40,172,26381,2,0,L|64:304,1,135,8|0,0:0|0:0,0:0:0:0:
208,244,26786,2,0,P|260:280|296:340,1,135
234,124,27090,2,0,P|177:151|107:152,1,135,8|0,0:0|0:0,0:0:0:0:
325,207,27394,2,0,P|330:144|364:83,1,135
432,68,27698,6,0,L|452:0,2,67.5
480,116,28002,2,0,L|496:252,1,135,8|0,0:0|0:0,0:0:0:0:
440,288,28307,1,0,0:0:0:0:
380,260,28408,2,0,P|316:240|256:264,1,135
252,50,28712,2,0,P|267:116|318:156,1,135,8|0,0:0|0:0,0:0:0:0:
135,265,29016,2,0,P|184:219|193:156,1,135
176,88,29320,5,0,0:0:0:0:
120,40,29421,1,0,0:0:0:0:
120,40,29624,2,0,L|124:176,1,135,8|0,0:0|0:0,0:0:0:0:
244,232,30029,2,0,B|232:300|232:300|176:336,1,135
227,161,30334,2,0,B|174:117|174:117|171:50,1,135,8|0,0:0|0:0,0:0:0:0:
296,182,30638,2,0,B|361:158|361:158|420:189,1,135
456,248,30942,5,0,0:0:0:0:
440,312,31043,1,0,0:0:0:0:
376,332,31144,1,0,0:0:0:0:
308,316,31246,2,0,L|300:384,2,67.5,8|0|0,0:0|0:0|0:0,0:0:0:0:
196,236,31651,6,0,B|144:192|144:192|76:200,1,135
324,221,31955,2,0,B|312:288|312:288|352:343,1,135,8|0,0:0|0:0,0:0:0:0:
247,118,32259,2,0,B|311:95|311:95|339:32,1,135,0|0,0:0|0:0,3:0:0:0:
412,148,32665,5,0,0:0:0:0:
412,148,32867,2,0,P|420:216|392:276,1,135,8|0,0:0|0:0,0:0:0:0:
284,196,33273,2,0,L|168:264,1,135
208,168,33577,2,0,L|208:32,1,135,8|0,0:0|0:0,0:0:0:0:
284,104,33881,1,0,0:0:0:0:
256,320,34084,5,0,0:0:0:0:
388,352,34286,2,0,P|452:340|480:280,1,135,0|8,0:0|0:0,0:0:0:0:
364,212,34692,1,0,0:0:0:0:
276,108,34894,2,0,L|152:52,1,135
312,176,35198,2,0,L|368:52,1,135,8|0,0:0|0:0,0:0:0:0:
276,20,35502,1,0,0:0:0:0:
88,112,35705,5,0,0:0:0:0:
24,232,35908,2,0,B|48:296|48:296|44:368,2,135,0|8|0,0:0|0:0|0:0,0:0:0:0:
148,284,36516,2,0,B|196:236|196:236|192:168,1,135
148,284,36820,2,0,B|212:261|212:261|238:199,1,135,8|0,0:0|0:0,0:0:0:0:
148,284,37124,2,0,B|215:292|215:292|266:247,1,135
400,276,37529,5,0,0:0:0:0:
468,264,37631,1,0,0:0:0:0:
500,204,37732,1,8,0:0:0:0:
468,72,37935,1,0,0:0:0:0:
348,8,38138,2,0,P|296:56|236:44,1,135,0|8,0:0|0:0,0:0:0:0:
172,60,38442,1,0,0:0:0:0:
104,72,38543,2,0,P|80:92|64:128,1,67.5
80,192,38746,2,0,L|88:224,3,33.75,8|0|0|0,0:0|0:0|0:0|0:0,0:0:0:0:
84,256,38948,6,0,P|128:308|192:328,1,135
268,216,39354,2,0,L|268:140,1,67.5
368,40,39658,2,0,P|431:60|474:111,1,135
408,128,39962,2,0,L|444:188,1,67.5
376,204,40165,2,0,L|412:264,1,67.5
344,272,40367,2,0,L|380:332,2,67.5
212,300,40773,5,0,0:0:0:0:
112,208,40975,2,0,L|104:284,1,67.5
64,148,41279,2,0,P|120:104|184:92,1,135
248,112,41584,2,0,P|313:98|365:55,2,135
440,360,42192,5,0,0:0:0:0:
440,250,42293,1,0,0:0:0:0:
375,339,42394,1,0,0:0:0:0:
479,305,42496,1,0,0:0:0:0:
375,271,42597,1,0,0:0:0:0:
72,24,43002,5,0,0:0:0:0:
72,134,43103,1,0,0:0:0:0:
137,45,43204,1,0,0:0:0:0:
33,79,43306,1,0,0:0:0:0:
137,113,43407,1,0,0:0:0:0:
304,124,43611,2,0,L|308:160,3,33.75
312,192,43813,2,0,P|244:260|148:232,1,202.5
112,180,44219,2,0,P|88:120|96:52,1,135
152,12,44624,5,0,0:0:0:0:
112,180,44827,1,0,0:0:0:0:
312,192,45029,1,0,0:0:0:0:
