osu file format v14

[General]
AudioFilename: audio.mp3
AudioLeadIn: 0
PreviewTime: 13761
Countdown: 0
SampleSet: Normal
StackLeniency: 0.7
Mode: 1
LetterboxInBreaks: 0
WidescreenStoryboard: 1

[Editor]
DistanceSpacing: 1
BeatDivisor: 4
GridSize: 32
TimelineZoom: 1.7

[Metadata]
Title:Can You Really Call This A Hotel I Didnt Receive A Mint On My Pillow Or Anything
TitleUnicode:Can You Really Call This A Hotel I Didnt Receive A Mint On My Pillow Or Anything
Artist:toby fox
ArtistUnicode:toby fox
Creator:Antti
Version:Muzukashii
Source:UNDERTALE
Tags:Flavoured Mettaton Instrumental Video Game Soundtrack OST Cooking Show Once Upon a Time MTT-Brand Radiation Sans Hotel, Didn't
BeatmapID:2502530
BeatmapSetID:1201538

[Difficulty]
HPDrainRate:8
CircleSize:2
OverallDifficulty:5
ApproachRate:10
SliderMultiplier:1.4
SliderTickRate:1

[Events]
//Background and Video events
0,0,"undertalebg.jpeg",0,0
//Break Periods
//Storyboard Layer 0 (Background)
//Storyboard Layer 1 (Fail)
//Storyboard Layer 2 (Pass)
//Storyboard Layer 3 (Foreground)
//Storyboard Layer 4 (Overlay)
//Storyboard Sound Samples

[TimingPoints]
533,472.44094488189,4,1,0,45,1,0
8092,-95.2380952380952,4,1,0,65,0,0
13761,-100,4,1,0,50,0,0
15651,-90.9090909090909,4,1,0,70,0,1
30533,-95.2380952380952,4,1,0,70,0,1
30769,-97.5609756097561,4,1,0,65,0,0
31241,-100,4,1,0,65,0,0
59115,-100,4,1,0,50,0,0

[HitObjects]
256,192,533,5,0,0:0:0:0:
256,192,1005,1,0,0:0:0:0:
256,192,1123,1,8,0:0:0:0:
256,192,1359,1,0,0:0:0:0:
256,192,1832,1,8,0:0:0:0:
256,192,2186,1,8,0:0:0:0:
256,192,2422,1,0,0:0:0:0:
256,192,2895,1,0,0:0:0:0:
256,192,3013,1,8,0:0:0:0:
256,192,3249,1,0,0:0:0:0:
256,192,3721,1,8,0:0:0:0:
256,192,4076,1,8,0:0:0:0:
256,192,4312,1,0,0:0:0:0:
256,192,4784,1,0,0:0:0:0:
256,192,4903,1,8,0:0:0:0:
256,192,5139,1,0,0:0:0:0:
256,192,5611,1,8,0:0:0:0:
256,192,5966,1,8,0:0:0:0:
256,192,6202,1,0,0:0:0:0:
256,192,6674,1,0,0:0:0:0:
256,192,6792,1,8,0:0:0:0:
256,192,7029,1,0,0:0:0:0:
256,192,7501,1,8,0:0:0:0:
256,192,7855,1,8,0:0:0:0:
256,192,8092,1,0,0:0:0:0:
256,192,8564,1,0,0:0:0:0:
256,192,8682,1,8,0:0:0:0:
256,192,8918,1,0,0:0:0:0:
256,192,9155,1,8,0:0:0:0:
256,192,9391,1,8,0:0:0:0:
256,192,9745,1,8,0:0:0:0:
256,192,9981,1,0,0:0:0:0:
256,192,10454,1,0,0:0:0:0:
256,192,10572,1,8,0:0:0:0:
256,192,10808,1,0,0:0:0:0:
256,192,11044,1,8,0:0:0:0:
256,192,11281,1,8,0:0:0:0:
256,192,11635,1,8,0:0:0:0:
256,192,11871,1,0,0:0:0:0:
256,192,12344,1,0,0:0:0:0:
256,192,12462,1,8,0:0:0:0:
256,192,12698,1,0,0:0:0:0:
256,192,12934,1,8,0:0:0:0:
256,192,13170,1,8,0:0:0:0:
256,192,13407,1,0,0:0:0:0:
256,192,13525,1,8,0:0:0:0:
256,192,13761,1,0,0:0:0:0:
256,192,14233,1,0,0:0:0:0:
256,192,14588,1,0,0:0:0:0:
256,192,15178,1,0,0:0:0:0:
256,192,15651,1,0,0:0:0:0:
256,192,15887,1,8,0:0:0:0:
256,192,16005,1,8,0:0:0:0:
256,192,16123,1,8,0:0:0:0:
256,192,16477,1,0,0:0:0:0:
256,192,16950,1,8,0:0:0:0:
256,192,17068,1,0,0:0:0:0:
256,192,17304,1,8,0:0:0:0:
256,192,17540,1,0,0:0:0:0:
256,192,17777,1,8,0:0:0:0:
256,192,17895,1,8,0:0:0:0:
256,192,18013,1,8,0:0:0:0:
256,192,18367,1,0,0:0:0:0:
256,192,18840,1,8,0:0:0:0:
256,192,18958,1,0,0:0:0:0:
256,192,19194,1,8,0:0:0:0:
256,192,19430,1,0,0:0:0:0:
256,192,19666,1,0,0:0:0:0:
256,192,19784,1,0,0:0:0:0:
256,192,19903,1,0,0:0:0:0:
256,192,20257,1,8,0:0:0:0:
256,192,21084,1,8,0:0:0:0:
256,192,21320,1,8,0:0:0:0:
256,192,21792,1,8,0:0:0:0:
256,192,22147,1,0,0:0:0:0:
256,192,22501,1,8,0:0:0:0:
256,192,22619,1,8,0:0:0:0:
256,192,22737,1,8,0:0:0:0:
256,192,22973,1,8,0:0:0:0:
256,192,23210,1,0,0:0:0:0:
256,192,23446,1,8,0:0:0:0:
256,192,23564,1,8,0:0:0:0:
256,192,23682,1,8,0:0:0:0:
256,192,24036,1,0,0:0:0:0:
256,192,24509,1,8,0:0:0:0:
256,192,24627,1,0,0:0:0:0:
256,192,24863,1,8,0:0:0:0:
256,192,25099,1,0,0:0:0:0:
256,192,25336,1,8,0:0:0:0:
256,192,25454,1,8,0:0:0:0:
256,192,25572,1,8,0:0:0:0:
256,192,25926,1,0,0:0:0:0:
256,192,26281,1,8,0:0:0:0:
256,192,26517,1,8,0:0:0:0:
256,192,26753,1,0,0:0:0:0:
256,192,26989,1,0,0:0:0:0:
256,192,27225,1,0,0:0:0:0:
256,192,27344,1,0,0:0:0:0:
256,192,27462,1,0,0:0:0:0:
256,192,27816,1,8,0:0:0:0:
256,192,28288,1,8,0:0:0:0:
256,192,28407,1,0,0:0:0:0:
256,192,28643,1,8,0:0:0:0:
256,192,28879,1,8,0:0:0:0:
256,192,29351,1,0,0:0:0:0:
256,192,29706,1,0,0:0:0:0:
256,192,29942,1,8,0:0:0:0:
256,192,30296,1,8,0:0:0:0:
256,192,30533,1,8,0:0:0:0:
256,192,30769,1,0,0:0:0:0:
256,192,31241,1,8,0:0:0:0:
256,192,31477,1,0,0:0:0:0:
256,192,31714,1,8,0:0:0:0:
256,192,31950,1,8,0:0:0:0:
256,192,32186,1,0,0:0:0:0:
256,192,32304,1,8,0:0:0:0:
256,192,32540,1,8,0:0:0:0:
256,192,33131,1,8,0:0:0:0:
256,192,33485,1,0,0:0:0:0:
256,192,34076,1,0,0:0:0:0:
256,192,34548,1,0,0:0:0:0:
256,192,35021,1,8,0:0:0:0:
256,192,35257,1,8,0:0:0:0:
256,192,35493,1,8,0:0:0:0:
256,192,35729,1,0,0:0:0:0:
256,192,35966,1,0,0:0:0:0:
256,192,36084,1,8,0:0:0:0:
256,192,36320,1,0,0:0:0:0:
256,192,36910,1,8,0:0:0:0:
256,192,37147,1,8,0:0:0:0:
256,192,37265,1,0,0:0:0:0:
256,192,37737,1,0,0:0:0:0:
256,192,37973,1,8,0:0:0:0:
256,192,38092,1,0,0:0:0:0:
256,192,38328,1,0,0:0:0:0:
256,192,38800,1,8,0:0:0:0:
256,192,39036,1,8,0:0:0:0:
256,192,39273,1,8,0:0:0:0:
256,192,39509,1,0,0:0:0:0:
256,192,39745,1,0,0:0:0:0:
256,192,39863,1,8,0:0:0:0:
256,192,40099,1,8,0:0:0:0:
256,192,41162,1,0,0:0:0:0:
256,192,41517,1,8,0:0:0:0:
256,192,41871,1,0,0:0:0:0:
256,192,42107,1,0,0:0:0:0:
256,192,42580,1,0,0:0:0:0:
256,192,42816,1,8,0:0:0:0:
256,192,43052,1,8,0:0:0:0:
256,192,43170,1,8,0:0:0:0:
256,192,43288,1,8,0:0:0:0:
256,192,43525,1,8,0:0:0:0:
256,192,43997,1,8,0:0:0:0:
256,192,44233,1,8,0:0:0:0:
256,192,44351,1,0,0:0:0:0:
256,192,44706,1,8,0:0:0:0:
256,192,45060,1,0,0:0:0:0:
256,192,45414,1,8,0:0:0:0:
256,192,45651,1,0,0:0:0:0:
256,192,45887,1,0,0:0:0:0:
256,192,46359,1,8,0:0:0:0:
256,192,46595,1,8,0:0:0:0:
256,192,46832,1,0,0:0:0:0:
256,192,47068,1,8,0:0:0:0:
256,192,47304,1,0,0:0:0:0:
256,192,47422,1,8,0:0:0:0:
256,192,47658,1,0,0:0:0:0:
256,192,48249,1,8,0:0:0:0:
256,192,48603,1,0,0:0:0:0:
256,192,48958,1,0,0:0:0:0:
256,192,49194,1,8,0:0:0:0:
256,192,49666,1,0,0:0:0:0:
256,192,50139,1,8,0:0:0:0:
256,192,50375,1,8,0:0:0:0:
256,192,50611,1,0,0:0:0:0:
256,192,50847,1,8,0:0:0:0:
256,192,51084,1,0,0:0:0:0:
256,192,51202,1,8,0:0:0:0:
256,192,51438,1,0,0:0:0:0:
256,192,52029,1,8,0:0:0:0:
256,192,52265,1,8,0:0:0:0:
256,192,52383,1,8,0:0:0:0:
256,192,52855,1,0,0:0:0:0:
256,192,53092,1,8,0:0:0:0:
256,192,53210,1,0,0:0:0:0:
256,192,53446,1,0,0:0:0:0:
256,192,53918,1,8,0:0:0:0:
256,192,54155,1,8,0:0:0:0:
256,192,54391,1,0,0:0:0:0:
256,192,54627,1,8,0:0:0:0:
256,192,54863,1,0,0:0:0:0:
256,192,54981,1,8,0:0:0:0:
256,192,55218,1,0,0:0:0:0:
256,192,56281,1,0,0:0:0:0:
256,192,56635,1,8,0:0:0:0:
256,192,56989,1,0,0:0:0:0:
256,192,57225,1,8,0:0:0:0:
256,192,58170,1,8,0:0:0:0:
256,192,58643,1,8,0:0:0:0:
256,192,58761,1,8,0:0:0:0:
256,192,58879,1,8,0:0:0:0:
256,192,59115,1,8,0:0:0:0:
256,192,59470,1,8,0:0:0:0:
256,192,59824,1,0,0:0:0:0:
256,192,60178,1,0,0:0:0:0:
256,192,60533,1,8,0:0:0:0:
256,192,60769,1,0,0:0:0:0:
