osu file format v14

[General]
AudioFilename: audio.mp3
AudioLeadIn: 0
PreviewTime: 13761
Countdown: 0
SampleSet: Normal
StackLeniency: 0.7
Mode: 1
LetterboxInBreaks: 0
WidescreenStoryboard: 1

[Editor]
DistanceSpacing: 1
BeatDivisor: 4
GridSize: 32
TimelineZoom: 1

[Metadata]
Title:Can You Really Call This A Hotel I Didnt Receive A Mint On My Pillow Or Anything
TitleUnicode:Can You Really Call This A Hotel I Didnt Receive A Mint On My Pillow Or Anything
Artist:toby fox
ArtistUnicode:toby fox
Creator:Antti
Version:Kantan
Source:UNDERTALE
Tags:Flavoured Mettaton Instrumental Video Game Soundtrack OST Cooking Show Once Upon a Time MTT-Brand Radiation Sans Hotel, Didn't
BeatmapID:2527782
BeatmapSetID:1201538

[Difficulty]
HPDrainRate:9.5
CircleSize:2
OverallDifficulty:3.5
ApproachRate:10
SliderMultiplier:1.4
SliderTickRate:1

[Events]
//Background and Video events
0,0,"undertalebg.jpeg",0,0
//Break Periods
//Storyboard Layer 0 (Background)
//Storyboard Layer 1 (Fail)
//Storyboard Layer 2 (Pass)
//Storyboard Layer 3 (Foreground)
//Storyboard Layer 4 (Overlay)
//Storyboard Sound Samples

[TimingPoints]
533,472.44094488189,4,1,0,45,1,0
8092,-100,4,1,0,65,0,0
13761,-100,4,1,0,50,0,0
15651,-95.2380952380952,4,1,0,70,0,1
30769,-100,4,1,0,65,0,0
59115,-100,4,1,0,50,0,0

[HitObjects]
256,192,533,5,0,0:0:0:0:
256,192,1359,1,8,0:0:0:0:
256,192,2422,1,0,0:0:0:0:
256,192,3249,1,8,0:0:0:0:
256,192,4312,1,0,0:0:0:0:
256,192,5139,1,0,0:0:0:0:
256,192,6202,1,0,0:0:0:0:
256,192,7029,1,0,0:0:0:0:
256,192,7619,1,8,0:0:0:0:
256,192,8092,1,0,0:0:0:0:
256,192,8918,1,8,0:0:0:0:
256,192,9509,1,0,0:0:0:0:
256,192,9981,1,0,0:0:0:0:
256,192,10808,1,8,0:0:0:0:
256,192,11399,1,0,0:0:0:0:
256,192,11871,1,0,0:0:0:0:
256,192,12698,1,8,0:0:0:0:
256,192,13288,1,0,0:0:0:0:
256,192,13761,1,0,0:0:0:0:
256,192,15651,1,0,0:0:0:0:
256,192,16123,1,8,0:0:0:0:
256,192,16477,1,0,0:0:0:0:
256,192,17540,1,0,0:0:0:0:
256,192,18013,1,8,0:0:0:0:
256,192,18367,1,0,0:0:0:0:
256,192,19430,1,0,0:0:0:0:
256,192,19903,1,8,0:0:0:0:
256,192,20257,1,8,0:0:0:0:
256,192,21320,1,8,0:0:0:0:
256,192,21792,1,8,0:0:0:0:
256,192,22147,1,0,0:0:0:0:
256,192,23210,1,0,0:0:0:0:
256,192,23682,1,8,0:0:0:0:
256,192,24036,1,0,0:0:0:0:
256,192,25099,1,0,0:0:0:0:
256,192,25572,1,8,0:0:0:0:
256,192,25926,1,0,0:0:0:0:
256,192,26989,1,0,0:0:0:0:
256,192,27462,1,8,0:0:0:0:
256,192,27816,1,8,0:0:0:0:
256,192,28879,1,8,0:0:0:0:
256,192,29351,1,0,0:0:0:0:
256,192,29706,1,0,0:0:0:0:
256,192,30296,1,8,0:0:0:0:
256,192,30769,1,0,0:0:0:0:
256,192,31714,1,8,0:0:0:0:
256,192,32540,1,8,0:0:0:0:
256,192,33485,1,0,0:0:0:0:
256,192,34548,1,0,0:0:0:0:
256,192,35493,1,8,0:0:0:0:
256,192,36320,1,8,0:0:0:0:
256,192,36910,1,8,0:0:0:0:
256,192,37265,1,0,0:0:0:0:
256,192,38328,1,0,0:0:0:0:
256,192,39273,1,8,0:0:0:0:
256,192,40099,1,8,0:0:0:0:
256,192,41162,1,0,0:0:0:0:
256,192,42107,1,0,0:0:0:0:
256,192,43997,1,8,0:0:0:0:
256,192,44706,1,8,0:0:0:0:
256,192,45414,1,8,0:0:0:0:
256,192,45887,1,0,0:0:0:0:
256,192,46832,1,0,0:0:0:0:
256,192,47658,1,8,0:0:0:0:
256,192,48249,1,8,0:0:0:0:
256,192,48603,1,0,0:0:0:0:
256,192,49666,1,0,0:0:0:0:
256,192,50611,1,0,0:0:0:0:
256,192,51438,1,8,0:0:0:0:
256,192,52029,1,8,0:0:0:0:
256,192,52383,1,8,0:0:0:0:
256,192,53446,1,0,0:0:0:0:
256,192,54391,1,8,0:0:0:0:
256,192,55218,1,8,0:0:0:0:
256,192,56281,1,0,0:0:0:0:
256,192,57225,1,8,0:0:0:0:
256,192,58170,1,8,0:0:0:0:
256,192,59115,1,8,0:0:0:0:
256,192,59824,1,0,0:0:0:0:
256,192,60533,1,8,0:0:0:0:
