osu file format v14

[General]
AudioFilename: audio.mp3
AudioLeadIn: 0
PreviewTime: 61733
Countdown: 0
SampleSet: Soft
StackLeniency: 0.7
Mode: 0
LetterboxInBreaks: 0
EpilepsyWarning: 1
WidescreenStoryboard: 1

[Editor]
DistanceSpacing: 1.2
BeatDivisor: 4
GridSize: 8
TimelineZoom: 1.8

[Metadata]
Title:CORE
TitleUnicode:CORE
Artist:toby fox
ArtistUnicode:toby fox
Creator:Yahuri
Version:HardCORE
Source:UNDERTALE
Tags:Stingy Ralcore alphys mettaton flowey radiation 8bit 8-bit game videogame
BeatmapID:1027647
BeatmapSetID:481511

[Difficulty]
HPDrainRate:5
CircleSize:4.5
OverallDifficulty:7.5
ApproachRate:8.5
SliderMultiplier:1.4
SliderTickRate:1

[Events]
//Background and Video events
0,0,"Undertalebg.jpg",0,0
//Break Periods
//Storyboard Layer 0 (Background)
//Storyboard Layer 1 (Fail)
//Storyboard Layer 2 (Pass)
//Storyboard Layer 3 (Foreground)
//Storyboard Sound Samples

[TimingPoints]
126,428.571428571429,4,2,1,30,1,0
20697,-83.3333333333333,4,2,1,40,0,0
61840,-71.4285714285714,4,2,1,50,0,1
89268,-83.3333333333333,4,2,1,40,0,0
116697,-83.3333333333333,4,2,1,50,0,0
130411,-71.4285714285714,4,2,1,50,0,1
157840,-100,4,2,1,30,0,0
163840,-100,4,2,2,100,0,0
164161,-100,4,2,1,30,0,0

[Colours]
Combo1 : 200,0,0
Combo2 : 74,119,253
Combo3 : 128,182,255
Combo4 : 162,181,217
Combo5 : 114,243,103
SliderBorder : 89,214,255
SliderTrackOverride : 0,0,0

[HitObjects]
79,161,126,5,2,0:0:0:0:
149,117,554,1,2,0:0:0:0:
213,172,983,2,0,L|325:192,2,105,2|0|0,0:0|0:0|0:0,0:0:0:0:
149,117,2054,1,0,0:0:0:0:
165,78,2268,1,0,0:0:0:0:
242,46,2697,2,0,L|354:66,1,105,2|0,0:0|0:0,0:0:0:0:
371,166,3554,6,0,P|309:182|269:261,1,140,2|2,0:0|0:0,0:0:0:0:
192,276,4411,2,0,B|156:276|156:276|124:270|124:270|87:270,2,105,2|0|0,0:0|0:0|0:0,0:0:0:0:
270,243,5483,1,0,0:0:0:0:
297,211,5697,1,0,0:0:0:0:
224,167,6126,2,0,B|188:167|188:167|156:161|156:161|119:161,1,105,2|0,0:0|0:0,0:0:0:0:
119,161,6983,6,0,L|90:257,1,70,2|0,0:0|0:0,0:0:0:0:
169,273,7411,2,0,L|169:365,1,70,2|0,0:0|0:0,0:0:0:0:
232,217,7840,2,0,P|267:209|318:218,1,70,2|0,0:0|0:0,0:0:0:0:
336,233,8161,2,0,P|371:225|422:234,1,70
440,249,8483,1,0,0:0:0:0:
320,130,8911,5,0,0:0:0:0:
360,56,9126,1,0,0:0:0:0:
443,62,9340,1,0,0:0:0:0:
320,130,9554,2,0,L|226:115,1,70,2|0,0:0|0:0,0:0:0:0:
212,136,9876,2,0,L|105:119,1,105
205,220,10411,22,0,P|213:260|193:309,1,70,2|0,0:0|0:0,0:0:0:0:
212,136,10840,2,0,P|251:149|284:191,1,70,2|0,0:0|0:0,0:0:0:0:
126,256,11268,2,0,L|36:256,1,70,2|0,0:0|0:0,0:0:0:0:
30,222,11590,2,0,P|23:187|31:154,1,70
49,116,11911,1,0,0:0:0:0:
192,203,12340,5,0,0:0:0:0:
265,163,12554,1,0,0:0:0:0:
285,81,12768,1,0,0:0:0:0:
192,203,12983,2,0,P|219:235|274:244,1,70,2|0,0:0|0:0,0:0:0:0:
272,275,13304,2,0,L|379:292,1,105
265,163,13840,6,0,L|294:67,1,70,2|0,0:0|0:0,0:0:0:0:
159,17,14268,2,0,L|179:84,1,70,2|0,0:0|0:0,0:0:0:0:
349,139,14697,2,0,L|432:139,1,70,2|0,0:0|0:0,0:0:0:0:
446,170,15018,2,0,P|453:203|446:237,1,70
431,276,15340,1,0,0:0:0:0:
285,191,15768,5,2,0:0:0:0:
273,107,15983,1,2,0:0:0:0:
340,56,16197,1,0,0:0:0:0:
285,191,16411,2,0,L|191:206,1,70,2|0,0:0|0:0,0:0:0:0:
177,185,16733,2,0,L|70:202,1,105
167,268,17268,22,0,P|174:301|167:335,1,70,2|0,0:0|0:0,0:0:0:0:
177,185,17697,2,0,P|169:151|176:117,1,70,2|0,0:0|0:0,0:0:0:0:
250,236,18126,2,0,L|344:251,1,70,2|0,0:0|0:0,0:0:0:0:
358,230,18447,2,0,L|456:245,1,70
459,267,18768,1,0,0:0:0:0:
256,62,20697,5,6,0:0:0:0:
176,1,20911,1,0,0:0:0:0:
95,62,21126,2,0,L|101:145,1,83.9999974365235,10|0,0:0|0:0,0:0:0:0:
172,217,21554,2,0,P|210:232|252:232,1,83.9999974365235,6|0,0:0|0:0,0:0:0:0:
300,214,21876,2,0,L|352:214,1,41.9999987182618,0|8,0:0|0:0,0:0:0:0:
387,235,22090,1,0,0:0:0:0:
387,235,22197,1,0,0:0:0:0:
476,75,22411,5,4,0:0:0:0:
387,124,22626,1,0,0:0:0:0:
342,214,22840,1,8,0:0:0:0:
335,314,23054,1,0,0:0:0:0:
283,153,23268,2,0,P|245:134|204:130,1,83.9999974365235,6|0,0:0|0:0,0:0:0:0:
160,156,23590,1,0,0:0:0:0:
118,184,23697,2,0,L|31:191,1,83.9999974365235,8|0,0:0|0:0,0:0:0:0:
192,250,24126,6,0,P|210:287|214:329,1,83.9999974365235,6|0,0:0|0:0,0:0:0:0:
288,260,24554,2,0,P|329:263|367:282,1,83.9999974365235,10|0,0:0|0:0,0:0:0:0:
347,183,24983,2,0,P|372:149|408:128,1,83.9999974365235,6|0,0:0|0:0,0:0:0:0:
454,108,25304,2,0,L|454:57,1,41.9999987182618,0|8,0:0|0:0,0:0:0:0:
492,33,25518,1,0,0:0:0:0:
492,33,25626,1,0,0:0:0:0:
440,223,25840,21,4,0:0:0:0:
347,183,26054,1,0,0:0:0:0:
277,110,26268,1,8,0:0:0:0:
258,11,26483,1,0,0:0:0:0:
226,175,26697,2,0,P|204:210|171:236,1,83.9999974365235,6|0,0:0|0:0,0:0:0:0:
125,256,27018,1,0,0:0:0:0:
77,272,27126,2,0,L|77:362,1,83.9999974365235,8|0,0:0|0:0,0:0:0:0:
232,293,27554,6,0,B|273:283|273:283|329:297,1,83.9999974365235,6|0,0:0|0:0,0:0:0:0:
409,324,27983,2,0,B|450:334|450:334|490:323,1,83.9999974365235,10|0,0:0|0:0,0:0:0:0:
357,222,28411,2,0,P|346:181|351:140,1,83.9999974365235,6|0,0:0|0:0,0:0:0:0:
325,96,28733,2,0,L|325:35,1,41.9999987182618,0|8,0:0|0:0,0:0:0:0:
358,16,28947,1,0,0:0:0:0:
358,16,29054,1,0,0:0:0:0:
444,171,29268,5,4,0:0:0:0:
357,222,29483,1,0,0:0:0:0:
256,235,29697,1,8,0:0:0:0:
164,193,29911,1,0,0:0:0:0:
245,134,30126,2,0,P|256:93|251:52,1,83.9999974365235,6|0,0:0|0:0,0:0:0:0:
213,18,30447,1,0,0:0:0:0:
164,30,30554,2,0,B|123:40|123:40|83:29,1,83.9999974365235,8|0,0:0|0:0,0:0:0:0:
164,193,30983,5,6,0:0:0:0:
82,309,31197,1,0,0:0:0:0:
80,167,31411,1,10,0:0:0:0:
165,281,31626,1,0,0:0:0:0:
29,240,31840,1,6,0:0:0:0:
164,193,32054,1,0,0:0:0:0:
213,205,32161,2,0,L|269:205,1,41.9999987182618,0|8,0:0|0:0,0:0:0:0:
305,219,32376,1,0,0:0:0:0:
305,219,32483,1,0,0:0:0:0:
390,333,32697,21,4,0:0:0:0:
254,292,32911,1,0,0:0:0:0:
389,245,33126,1,8,0:0:0:0:
307,361,33340,1,0,0:0:0:0:
305,219,33554,2,0,L|305:132,1,83.9999974365235,6|0,0:0|0:0,0:0:0:0:
305,84,33876,1,0,0:0:0:0:
267,49,33983,2,0,B|226:39|226:39|186:50,1,83.9999974365235,8|0,0:0|0:0,0:0:0:0:
82,135,34411,6,0,B|82:170|82:170|79:183|79:183|79:239,1,83.9999974365235,6|0,0:0|0:0,0:0:0:0:
110,314,34840,1,10,0:0:0:0:
176,238,35054,2,0,B|176:202|176:202|179:189|179:189|179:154,1,83.9999974365235,0|6,0:0|0:0,0:0:0:0:
214,59,35483,1,0,0:0:0:0:
258,36,35590,1,0,0:0:0:0:
309,36,35697,2,0,L|365:36,2,41.9999987182618,8|0|0,0:0|0:0|0:0,0:0:0:0:
179,154,36126,5,4,0:0:0:0:
278,136,36340,1,0,0:0:0:0:
214,59,36554,2,0,B|172:51|172:51|133:64,1,83.9999974365235,8|0,0:0|0:0,0:0:0:0:
80,150,36983,1,6,0:0:0:0:
126,239,37197,2,0,L|126:287,1,41.9999987182618
162,315,37411,2,0,P|203:304|244:309,1,83.9999974365235,8|0,0:0|0:0,0:0:0:0:
393,231,37840,6,0,B|358:231|358:231|345:234|345:234|309:234,1,83.9999974365235,6|0,0:0|0:0,0:0:0:0:
244,309,38268,1,10,0:0:0:0:
341,329,38483,2,0,B|376:329|376:329|389:326|389:326|424:326,1,83.9999974365235,0|6,0:0|0:0,0:0:0:0:
490,250,38911,2,0,L|490:206,1,41.9999987182618
474,159,39126,1,8,0:0:0:0:
458,111,39233,1,0,0:0:0:0:
442,63,39340,1,0,0:0:0:0:
297,147,39554,22,0,P|255:154|215:146,1,83.9999974365235,4|0,0:0|0:0,0:0:0:0:
116,168,39983,2,0,L|86:260,1,83.9999974365235,8|0,0:0|0:0,0:0:0:0:
189,260,40411,2,0,P|230:252|270:260,1,83.9999974365235,6|0,0:0|0:0,0:0:0:0:
316,282,40733,1,0,0:0:0:0:
362,302,40840,2,0,L|388:222,1,83.9999974365235,8|0,0:0|0:0,0:0:0:0:
511,107,41268,6,0,P|519:178|448:164,1,167.999994873047,6|10,0:0|0:0,0:0:0:0:
418,68,41911,1,0,0:0:0:0:
350,143,42126,2,0,P|309:151|269:143,1,83.9999974365235,6|0,0:0|0:0,0:0:0:0:
226,114,42447,2,0,L|170:114,1,41.9999987182618,0|8,0:0|0:0,0:0:0:0:
140,89,42661,1,0,0:0:0:0:
140,89,42768,1,0,0:0:0:0:
292,222,42983,6,0,P|299:264|291:304,1,83.9999974365235,4|0,0:0|0:0,0:0:0:0:
199,262,43411,2,0,P|190:221|197:179,1,83.9999974365235,8|0,0:0|0:0,0:0:0:0:
279,121,43840,2,0,L|356:44,1,83.9999974365235,6|0,0:0|0:0,0:0:0:0:
384,42,44161,1,0,0:0:0:0:
430,61,44268,2,0,L|489:120,1,83.9999974365235,8|0,0:0|0:0,0:0:0:0:
459,285,44697,6,0,B|377:250|377:305|283:282,1,167.999994873047,6|10,0:0|0:0,0:0:0:0:
228,208,45340,1,0,0:0:0:0:
197,303,45554,2,0,P|174:338|139:363,1,83.9999974365235,6|0,0:0|0:0,0:0:0:0:
89,363,45876,1,0,0:0:0:0:
42,344,45983,2,0,L|0:344,2,41.9999987182618,8|0|0,0:0|0:0|0:0,0:0:0:0:
103,264,46411,22,0,L|47:264,1,41.9999987182618,4|0,0:0|0:0,0:0:0:0:
13,245,46626,1,0,0:0:0:0:
74,165,46840,2,0,P|83:124|76:82,1,83.9999974365235,8|0,0:0|0:0,0:0:0:0:
165,131,47268,2,0,B|205:142|205:142|246:132,1,83.9999974365235,6|0,0:0|0:0,0:0:0:0:
294,116,47590,1,0,0:0:0:0:
341,100,47697,2,0,B|382:90|382:90|422:101,1,83.9999974365235,8|0,0:0|0:0,0:0:0:0:
299,216,48126,6,0,B|299:251|299:251|302:264|302:264|302:320,1,83.9999974365235,6|0,0:0|0:0,0:0:0:0:
246,131,48554,1,10,0:0:0:0:
192,216,48768,2,0,B|192:251|192:251|189:264|189:264|189:299,1,83.9999974365235,0|6,0:0|0:0,0:0:0:0:
106,356,49197,2,0,L|106:312,1,41.9999987182618
90,265,49411,1,8,0:0:0:0:
74,217,49518,1,0,0:0:0:0:
58,169,49626,1,0,0:0:0:0:
192,216,49840,5,4,0:0:0:0:
246,131,50054,2,0,B|246:96|246:96|249:83|249:83|249:27,1,83.9999974365235,0|8,0:0|0:0,0:0:0:0:
339,92,50483,1,0,0:0:0:0:
307,187,50697,1,6,0:0:0:0:
371,264,50911,2,0,L|371:313,1,41.9999987182618
338,344,51126,2,0,P|298:336|256:342,1,83.9999974365235,8|0,0:0|0:0,0:0:0:0:
99,280,51554,6,0,B|140:290|140:290|180:279,1,83.9999974365235,6|0,0:0|0:0,0:0:0:0:
275,243,51983,1,10,0:0:0:0:
371,264,52197,2,0,P|403:290|424:326,1,83.9999974365235,0|6,0:0|0:0,0:0:0:0:
467,234,52626,1,0,0:0:0:0:
475,184,52733,1,0,0:0:0:0:
466,134,52840,2,0,L|466:80,2,41.9999987182618,8|0|0,0:0|0:0|0:0,0:0:0:0:
371,264,53268,21,4,0:0:0:0:
271,281,53483,1,0,0:0:0:0:
172,261,53697,1,8,0:0:0:0:
85,208,53911,1,0,0:0:0:0:
174,161,54126,2,0,P|196:125|203:84,1,83.9999974365235,6|0,0:0|0:0,0:0:0:0:
246,58,54447,1,0,0:0:0:0:
289,32,54554,2,0,L|385:32,1,83.9999974365235,8|0,0:0|0:0,0:0:0:0:
479,162,54983,6,0,P|489:217|407:201,1,167.999994873047,6|10,0:0|0:0,0:0:0:0:
342,128,55626,1,0,0:0:0:0:
311,223,55840,2,0,L|283:305,1,83.9999974365235,6|0,0:0|0:0,0:0:0:0:
244,333,56161,2,0,L|202:333,1,41.9999987182618,0|8,0:0|0:0,0:0:0:0:
158,306,56376,1,0,0:0:0:0:
158,306,56483,1,0,0:0:0:0:
356,342,56697,5,4,0:0:0:0:
406,255,56911,1,0,0:0:0:0:
311,223,57126,2,0,B|277:198|277:198|259:160,1,83.9999974365235,8|0,0:0|0:0,0:0:0:0:
214,70,57554,2,0,B|180:95|180:95|162:133,1,83.9999974365235,6|0,0:0|0:0,0:0:0:0:
143,180,57876,1,0,0:0:0:0:
124,227,57983,2,0,B|106:265|106:265|72:290,1,83.9999974365235,8|0,0:0|0:0,0:0:0:0:
20,130,58411,5,4,0:0:0:0:
256,192,58518,12,6,60983,0:0:0:0:
256,192,61197,22,0,L|256:154,4,20.9999993591309,8|8|8|8|8,0:0|0:0|0:0|0:0|0:0,0:0:0:0:
256,293,61626,1,8,0:0:0:0:
335,116,61840,6,0,B|370:106|370:106|392:93|392:93|439:80,1,97.9999970092774,4|2,0:0|0:0,0:0:0:0:
416,200,62268,2,0,P|443:241|443:312,1,97.9999970092774,10|0,0:0|0:0,0:0:0:0:
440,337,62590,1,0,0:0:0:0:
410,376,62697,2,0,L|297:376,1,97.9999970092774,4|0,0:0|0:0,0:0:0:0:
252,274,63126,2,0,L|350:274,1,97.9999970092774,10|0,0:0|0:0,0:0:0:0:
423,83,63554,6,0,P|375:89|335:116,1,97.9999970092774,4|2,0:0|0:0,0:0:0:0:
246,193,63983,1,10,0:0:0:0:
154,266,64197,1,0,0:0:0:0:
136,220,64304,1,0,0:0:0:0:
119,174,64411,1,4,0:0:0:0:
102,128,64518,1,0,0:0:0:0:
84,82,64626,1,0,0:0:0:0:
197,117,64840,2,0,P|245:111|285:84,1,97.9999970092774,10|0,0:0|0:0,0:0:0:0:
382,251,65268,6,0,B|382:214|382:214|375:190|375:190|375:141,1,97.9999970092774,4|2,0:0|0:0,0:0:0:0:
285,84,65697,2,0,L|156:84,1,97.9999970092774,10|2,0:0|0:0,0:0:0:0:
153,119,66018,1,0,0:0:0:0:
119,155,66126,2,0,B|127:204|127:204|118:251,1,97.9999970092774,4|0,0:0|0:0,0:0:0:0:
194,340,66554,2,0,L|292:340,1,97.9999970092774,10|0,0:0|0:0,0:0:0:0:
449,222,66983,22,0,P|401:228|361:255,1,97.9999970092774,4|2,0:0|0:0,0:0:0:0:
396,143,67411,2,0,P|351:124|303:127,1,97.9999970092774,10|0,0:0|0:0,0:0:0:0:
257,147,67733,1,0,0:0:0:0:
212,166,67840,2,0,B|163:174|163:174|115:165,1,97.9999970092774,4|0,0:0|0:0,0:0:0:0:
151,256,68268,2,0,B|112:287|112:287|67:304,1,97.9999970092774,10|0,0:0|0:0,0:0:0:0:
212,166,68697,6,0,B|220:201|220:201|233:223|233:223|245:271,1,97.9999970092774,4|2,0:0|0:0,0:0:0:0:
194,366,69126,1,10,0:0:0:0:
305,329,69340,1,0,0:0:0:0:
347,301,69447,2,0,L|400:301,1,48.9999985046387,0|4,0:0|0:0,0:0:0:0:
435,329,69661,2,0,L|488:329,1,48.9999985046387
438,225,69983,2,0,P|426:178|437:131,1,97.9999970092774,10|0,0:0|0:0,0:0:0:0:
347,301,70411,6,0,P|323:258|321:210,1,97.9999970092774,4|2,0:0|0:0,0:0:0:0:
361,98,70840,2,0,B|312:90|312:90|264:98,1,97.9999970092774,10|0,0:0|0:0,0:0:0:0:
217,110,71161,1,0,0:0:0:0:
168,112,71268,1,4,0:0:0:0:
121,98,71376,1,0,0:0:0:0:
83,68,71483,1,0,0:0:0:0:
124,179,71697,2,0,L|167:287,1,97.9999970092774,10|0,0:0|0:0,0:0:0:0:
356,274,72126,6,0,P|313:250|265:248,1,97.9999970092774,4|2,0:0|0:0,0:0:0:0:
233,362,72554,1,10,0:0:0:0:
160,270,72768,1,0,0:0:0:0:
142,223,72876,2,0,L|142:173,1,48.9999985046387,0|4,0:0|0:0,0:0:0:0:
161,128,73090,2,0,L|161:78,1,48.9999985046387
258,144,73411,1,10,0:0:0:0:
366,97,73626,1,0,0:0:0:0:
382,142,73733,1,0,0:0:0:0:
399,187,73840,22,0,B|399:223|399:223|406:247|406:247|406:284,1,97.9999970092774,4|2,0:0|0:0,0:0:0:0:
311,259,74268,2,0,L|195:286,1,97.9999970092774,10|0,0:0|0:0,0:0:0:0:
169,262,74589,1,0,0:0:0:0:
120,262,74696,1,4,0:0:0:0:
74,243,74804,1,0,0:0:0:0:
25,243,74911,1,0,0:0:0:0:
125,181,75126,1,10,0:0:0:0:
75,74,75340,1,0,0:0:0:0:
169,262,75554,6,0,B|169:298|169:298|176:322|176:322|176:359,1,97.9999970092774,4|2,0:0|0:0,0:0:0:0:
268,285,75983,2,0,P|311:262|359:262,1,97.9999970092774,10|0,0:0|0:0,0:0:0:0:
406,275,76304,1,0,0:0:0:0:
452,258,76411,2,0,L|452:151,1,97.9999970092774,4|0,0:0|0:0,0:0:0:0:
360,85,76840,2,0,L|360:192,1,97.9999970092774,10|0,0:0|0:0,0:0:0:0:
199,295,77268,6,0,P|247:296|291:276,1,97.9999970092774,4|2,0:0|0:0,0:0:0:0:
360,183,77697,1,10,0:0:0:0:
277,99,77911,1,0,0:0:0:0:
230,85,78018,1,0,0:0:0:0:
183,71,78126,1,4,0:0:0:0:
136,57,78233,1,0,0:0:0:0:
89,43,78340,1,0,0:0:0:0:
136,151,78554,2,0,P|148:198|137:245,1,97.9999970092774,10|0,0:0|0:0,0:0:0:0:
277,99,78983,6,0,B|313:99|313:99|337:92|337:92|374:92,1,97.9999970092774,4|2,0:0|0:0,0:0:0:0:
436,191,79411,2,0,B|444:239|444:239|436:288,1,97.9999970092774,10|0,0:0|0:0,0:0:0:0:
391,307,79733,1,0,0:0:0:0:
345,288,79840,2,0,L|228:266,1,97.9999970092774,4|0,0:0|0:0,0:0:0:0:
203,251,80161,1,0,0:0:0:0:
156,266,80268,2,0,B|148:314|148:314|156:363,1,97.9999970092774,10|0,0:0|0:0,0:0:0:0:
151,166,80697,22,0,L|34:144,1,97.9999970092774,4|2,0:0|0:0,0:0:0:0:
153,82,81126,2,0,L|270:104,1,97.9999970092774,10|0,0:0|0:0,0:0:0:0:
297,105,81447,1,0,0:0:0:0:
345,93,81554,1,4,0:0:0:0:
385,65,81661,1,0,0:0:0:0:
411,24,81768,1,0,0:0:0:0:
459,131,81983,2,0,P|471:178|460:225,1,97.9999970092774,10|0,0:0|0:0,0:0:0:0:
297,105,82411,6,0,B|261:105|261:105|237:112|237:112|200:112,1,97.9999970092774,4|2,0:0|0:0,0:0:0:0:
89,69,82840,1,10,0:0:0:0:
96,186,83054,1,0,0:0:0:0:
68,226,83161,2,0,L|68:279,1,48.9999985046387,0|4,0:0|0:0,0:0:0:0:
40,314,83375,2,0,L|40:367,1,48.9999985046387
156,339,83697,2,0,B|205:331|205:331|253:339,1,97.9999970092774,10|0,0:0|0:0,0:0:0:0:
432,258,84126,6,0,B|383:250|383:250|335:258,1,97.9999970092774,4|2,0:0|0:0,0:0:0:0:
222,225,84554,2,0,P|210:177|222:130,1,97.9999970092774,10|0,0:0|0:0,0:0:0:0:
250,89,84876,1,0,0:0:0:0:
298,81,84983,1,4,0:0:0:0:
346,74,85090,1,0,0:0:0:0:
395,66,85197,1,0,0:0:0:0:
433,178,85411,2,0,L|433:284,1,97.9999970092774,10|0,0:0|0:0,0:0:0:0:
246,212,85840,6,0,B|283:212|283:212|307:205|307:205|343:205,1,97.9999970092774,4|2,0:0|0:0,0:0:0:0:
433,276,86268,1,10,0:0:0:0:
324,321,86483,1,0,0:0:0:0:
278,304,86590,2,0,L|225:304,1,48.9999985046387,0|4,0:0|0:0,0:0:0:0:
183,321,86804,2,0,L|130:321,1,48.9999985046387
75,218,87126,1,10,0:0:0:0:
126,112,87340,1,0,0:0:0:0:
171,94,87447,1,0,0:0:0:0:
216,112,87554,22,0,B|224:147|224:147|236:168|236:168|244:205,1,97.9999970092774,4|2,0:0|0:0,0:0:0:0:
411,210,87983,2,0,P|376:244|329:257,1,97.9999970092774,10|0,0:0|0:0,0:0:0:0:
300,64,88411,2,0,B|308:99|308:99|320:120|320:120|328:157,1,97.9999970092774,4|0,0:0|0:0,0:0:0:0:
242,305,88840,2,0,P|195:291|156:252,1,97.9999970092774,10|0,0:0|0:0,0:0:0:0:
328,156,89268,5,6,0:0:0:0:
411,210,89483,1,0,0:0:0:0:
472,129,89697,1,10,0:0:0:0:
389,75,89911,1,0,0:0:0:0:
328,156,90126,1,6,0:0:0:0:
235,116,90340,1,0,0:0:0:0:
191,141,90447,2,0,L|131:141,1,41.9999987182618,0|10,0:0|0:0,0:0:0:0:
103,118,90661,1,0,0:0:0:0:
103,118,90768,1,0,0:0:0:0:
203,246,90983,6,0,P|210:288|202:328,1,83.9999974365235,4|0,0:0|0:0,0:0:0:0:
101,328,91411,2,0,P|94:286|102:246,1,83.9999974365235,8|0,0:0|0:0,0:0:0:0:
201,328,91840,2,0,B|241:339|241:339|282:329,1,83.9999974365235,6|0,0:0|0:0,0:0:0:0:
329,310,92161,1,0,0:0:0:0:
375,329,92268,2,0,B|416:339|416:339|456:328,1,83.9999974365235,8|0,0:0|0:0,0:0:0:0:
417,138,92697,6,0,L|417:180,1,41.9999987182618,6|0,0:0|0:0,0:0:0:0:
340,104,92911,2,0,L|340:62,1,41.9999987182618
263,138,93126,2,0,L|263:180,1,41.9999987182618,10|0,0:0|0:0,0:0:0:0:
186,104,93340,2,0,L|186:62,1,41.9999987182618
109,138,93554,1,6,0:0:0:0:
125,185,93661,1,0,0:0:0:0:
139,233,93768,1,0,0:0:0:0:
155,281,93876,1,0,0:0:0:0:
171,329,93983,2,0,L|171:371,3,41.9999987182618,8|0|0|0,0:0|0:0|0:0|0:0,0:0:0:0:
238,279,94411,22,0,L|239:237,2,41.9999987182618,4|0|0,0:0|0:0|0:0,0:0:0:0:
297,360,94840,2,0,P|337:368|379:361,1,83.9999974365235,8|0,0:0|0:0,0:0:0:0:
424,271,95268,2,0,L|423:178,1,83.9999974365235,6|0,0:0|0:0,0:0:0:0:
392,146,95590,1,0,0:0:0:0:
362,105,95697,2,0,B|322:116|322:116|281:106,1,83.9999974365235,8|0,0:0|0:0,0:0:0:0:
343,262,96126,5,6,0:0:0:0:
265,323,96340,1,0,0:0:0:0:
197,248,96554,1,10,0:0:0:0:
275,187,96768,1,0,0:0:0:0:
343,262,96983,6,0,P|416:263|376:193,1,167.999994873047,6|8,0:0|0:0,0:0:0:0:
197,248,97840,2,0,P|123:249|163:179,1,167.999994873047,4|8,0:0|0:0,0:0:0:0:
343,312,98697,6,0,P|415:315|395:246,1,167.999994873047,6|8,0:0|0:0,0:0:0:0:
197,298,99554,2,0,P|125:301|146:232,1,167.999994873047,6|10,0:0|0:0,0:0:0:0:
244,209,100197,1,0,0:0:0:0:
341,232,100411,1,6,0:0:0:0:
349,208,100626,1,0,0:0:0:0:
358,185,100840,1,8,0:0:0:0:
366,161,101054,1,0,0:0:0:0:
256,192,101268,12,0,102768,0:0:0:0:
256,192,102983,22,0,B|256:227|256:227|253:240|253:240|253:296,1,83.9999974365235,6|0,0:0|0:0,0:0:0:0:
284,371,103411,1,10,0:0:0:0:
350,295,103626,2,0,B|350:259|350:259|353:246|353:246|353:211,1,83.9999974365235,0|6,0:0|0:0,0:0:0:0:
451,191,104054,1,0,0:0:0:0:
451,140,104161,1,0,0:0:0:0:
451,89,104268,2,0,L|451:41,2,41.9999987182618,8|0|0,0:0|0:0|0:0,0:0:0:0:
353,211,104697,5,4,0:0:0:0:
280,140,104911,1,0,0:0:0:0:
208,211,105126,2,0,B|167:221|167:221|127:210,1,83.9999974365235,8|0,0:0|0:0,0:0:0:0:
53,140,105554,1,6,0:0:0:0:
31,238,105768,2,0,L|31:286,1,41.9999987182618
67,314,105983,2,0,P|108:306|149:315,1,83.9999974365235,8|0,0:0|0:0,0:0:0:0:
308,369,106411,6,0,B|308:334|308:334|311:321|311:321|311:285,1,83.9999974365235,6|0,0:0|0:0,0:0:0:0:
311,184,106840,1,10,0:0:0:0:
224,235,107054,2,0,B|189:235|189:235|176:238|176:238|141:238,1,83.9999974365235,0|6,0:0|0:0,0:0:0:0:
53,185,107483,2,0,L|53:132,1,41.9999987182618
74,97,107697,1,8,0:0:0:0:
95,51,107804,1,0,0:0:0:0:
116,5,107911,1,0,0:0:0:0:
281,39,108126,5,4,0:0:0:0:
300,138,108340,1,0,0:0:0:0:
391,181,108554,2,0,P|399:140|391:99,1,83.9999974365235,8|0,0:0|0:0,0:0:0:0:
300,138,108983,2,0,B|289:178|289:178|299:219,1,83.9999974365235,6|0,0:0|0:0,0:0:0:0:
314,267,109304,1,0,0:0:0:0:
300,315,109411,2,0,B|278:351|278:351|242:371,1,83.9999974365235,8|0,0:0|0:0,0:0:0:0:
76,339,109840,22,0,B|121:267|193:260|193:260|212:296,1,167.999994873047,6|10,0:0|0:0,0:0:0:0:
241,371,110483,1,0,0:0:0:0:
302,291,110697,2,0,P|325:256|359:232,1,83.9999974365235,6|0,0:0|0:0,0:0:0:0:
403,208,111018,1,0,0:0:0:0:
448,184,111126,2,0,L|502:184,2,41.9999987182618,8|0|0,0:0|0:0|0:0,0:0:0:0:
280,173,111554,6,0,B|270:132|270:132|281:92,1,83.9999974365235,4|0,0:0|0:0,0:0:0:0:
189,134,111983,2,0,B|148:144|148:144|108:133,1,83.9999974365235,8|0,0:0|0:0,0:0:0:0:
147,225,112411,2,0,B|157:266|157:266|146:306,1,83.9999974365235,6|0,0:0|0:0,0:0:0:0:
192,286,112733,1,0,0:0:0:0:
239,266,112840,2,0,B|280:256|280:256|320:267,1,83.9999974365235,8|0,0:0|0:0,0:0:0:0:
479,318,113268,6,0,B|514:236|459:236|482:142,1,167.999994873047,6|10,0:0|0:0,0:0:0:0:
507,56,113911,1,0,0:0:0:0:
409,82,114126,2,0,L|315:82,1,83.9999974365235,6|0,0:0|0:0,0:0:0:0:
287,116,114447,1,0,0:0:0:0:
251,152,114554,2,0,L|209:153,2,41.9999987182618,8|0|0,0:0|0:0|0:0,0:0:0:0:
409,206,114983,6,0,L|451:206,1,41.9999987182618,4|0,0:0|0:0,0:0:0:0:
487,242,115197,1,0,0:0:0:0:
410,306,115411,2,0,P|368:299|327:308,1,83.9999974365235,8|0,0:0|0:0,0:0:0:0:
238,354,115840,2,0,L|238:260,1,83.9999974365235,6|0,0:0|0:0,0:0:0:0:
196,240,116161,1,0,0:0:0:0:
156,270,116268,2,0,L|156:354,1,83.9999974365235,8|0,0:0|0:0,0:0:0:0:
264,190,116697,22,0,B|299:190|299:190|312:187|312:187|368:187,1,83.9999974365235,6|0,0:0|0:0,0:0:0:0:
191,123,117126,1,10,0:0:0:0:
115,190,117340,2,0,B|115:225|115:225|112:238|112:238|112:273,1,83.9999974365235,0|6,0:0|0:0,0:0:0:0:
191,335,117768,2,0,L|235:335,1,41.9999987182618
282,319,117983,1,8,0:0:0:0:
330,303,118090,1,0,0:0:0:0:
378,287,118197,1,0,0:0:0:0:
256,171,118411,5,4,0:0:0:0:
194,251,118626,2,0,B|194:286|194:286|191:299|191:299|191:355,1,83.9999974365235,0|8,0:0|0:0,0:0:0:0:
98,293,119054,1,0,0:0:0:0:
112,193,119268,1,6,0:0:0:0:
194,251,119483,2,0,L|243:251,1,41.9999987182618
273,217,119697,2,0,P|281:177|275:135,1,83.9999974365235,8|0,0:0|0:0,0:0:0:0:
313,298,120126,6,0,B|354:308|354:308|394:297,1,83.9999974365235,6|0,0:0|0:0,0:0:0:0:
489,261,120554,1,10,0:0:0:0:
411,197,120768,2,0,P|403:157|409:115,1,83.9999974365235,0|6,0:0|0:0,0:0:0:0:
331,49,121197,1,0,0:0:0:0:
280,49,121304,1,0,0:0:0:0:
229,49,121411,2,0,L|175:49,2,41.9999987182618,8|0|0,0:0|0:0|0:0,0:0:0:0:
339,176,121840,5,4,0:0:0:0:
285,261,122054,1,0,0:0:0:0:
231,176,122268,2,0,B|190:166|190:166|150:177,1,83.9999974365235,8|0,0:0|0:0,0:0:0:0:
78,249,122697,2,0,P|55:212|48:171,1,83.9999974365235,6|0,0:0|0:0,0:0:0:0:
63,124,123018,1,0,0:0:0:0:
84,78,123126,2,0,L|180:78,1,83.9999974365235,8|0,0:0|0:0,0:0:0:0:
326,132,123554,22,0,B|323:47|264:5|264:5|246:16,1,167.999994873047,6|10,0:0|0:0,0:0:0:0:
168,78,124197,1,0,0:0:0:0:
194,175,124411,2,0,B|205:215|205:215|195:256,1,83.9999974365235,6|0,0:0|0:0,0:0:0:0:
181,304,124733,1,0,0:0:0:0:
167,352,124840,2,0,L|125:352,2,41.9999987182618,8|0|0,0:0|0:0|0:0,0:0:0:0:
292,240,125268,5,4,0:0:0:0:
383,281,125483,1,0,0:0:0:0:
374,180,125697,2,0,B|370:137|370:137|387:100,1,83.9999974365235,8|0,0:0|0:0,0:0:0:0:
289,125,126126,2,0,P|249:133|207:127,1,83.9999974365235,6|0,0:0|0:0,0:0:0:0:
157,116,126447,1,0,0:0:0:0:
120,150,126554,2,0,P|112:190|118:232,1,83.9999974365235,8|0,0:0|0:0,0:0:0:0:
256,330,126983,5,6,0:0:0:0:
256,192,127090,12,2,129554,0:0:0:0:
256,92,129768,5,8,0:0:0:0:
256,142,129876,1,8,0:0:0:0:
256,192,129983,1,8,0:0:0:0:
256,293,130197,1,8,0:0:0:0:
177,116,130411,22,0,B|142:106|142:106|120:93|120:93|73:80,1,97.9999970092774,4|2,0:0|0:0,0:0:0:0:
96,200,130840,2,0,P|69:241|69:312,1,97.9999970092774,10|2,0:0|0:0,0:0:0:0:
72,337,131161,1,0,0:0:0:0:
102,376,131268,2,0,L|215:376,1,97.9999970092774,4|0,0:0|0:0,0:0:0:0:
260,274,131697,2,0,L|162:274,1,97.9999970092774,10|0,0:0|0:0,0:0:0:0:
89,83,132126,6,0,P|137:89|177:116,1,97.9999970092774,4|2,0:0|0:0,0:0:0:0:
266,193,132554,1,10,0:0:0:0:
358,266,132768,1,0,0:0:0:0:
376,220,132876,1,0,0:0:0:0:
393,174,132983,1,4,0:0:0:0:
410,128,133090,1,0,0:0:0:0:
428,82,133197,1,0,0:0:0:0:
315,117,133411,2,0,P|267:111|227:84,1,97.9999970092774,10|0,0:0|0:0,0:0:0:0:
130,251,133840,6,0,B|130:214|130:214|137:190|137:190|137:141,1,97.9999970092774,4|2,0:0|0:0,0:0:0:0:
227,84,134268,2,0,L|356:84,1,97.9999970092774,10|0,0:0|0:0,0:0:0:0:
359,119,134590,1,0,0:0:0:0:
393,155,134697,2,0,B|385:204|385:204|394:251,1,97.9999970092774,4|0,0:0|0:0,0:0:0:0:
363,289,135018,1,0,0:0:0:0:
329,324,135126,2,0,L|231:324,1,97.9999970092774,10|0,0:0|0:0,0:0:0:0:
63,222,135554,6,0,P|111:228|151:255,1,97.9999970092774,4|2,0:0|0:0,0:0:0:0:
116,143,135983,2,0,P|161:124|209:127,1,97.9999970092774,10|0,0:0|0:0,0:0:0:0:
255,147,136304,1,0,0:0:0:0:
300,166,136411,2,0,B|349:174|349:174|397:165,1,97.9999970092774,4|0,0:0|0:0,0:0:0:0:
361,256,136840,2,0,B|400:287|400:287|445:304,1,97.9999970092774,10|0,0:0|0:0,0:0:0:0:
300,166,137268,22,0,B|292:201|292:201|279:223|279:223|267:271,1,97.9999970092774,4|2,0:0|0:0,0:0:0:0:
318,366,137697,1,10,0:0:0:0:
207,329,137911,1,0,0:0:0:0:
165,301,138018,2,0,L|112:301,1,48.9999985046387,0|4,0:0|0:0,0:0:0:0:
77,329,138232,2,0,L|24:329,1,48.9999985046387
74,225,138554,2,0,P|86:178|75:131,1,97.9999970092774,10|0,0:0|0:0,0:0:0:0:
165,301,138983,6,0,P|189:258|191:210,1,97.9999970092774,4|2,0:0|0:0,0:0:0:0:
151,98,139411,2,0,B|200:90|200:90|248:98,1,97.9999970092774,10|0,0:0|0:0,0:0:0:0:
295,110,139733,1,0,0:0:0:0:
344,112,139840,1,4,0:0:0:0:
391,98,139947,1,0,0:0:0:0:
429,68,140054,1,0,0:0:0:0:
388,179,140268,2,0,L|345:287,1,97.9999970092774,10|0,0:0|0:0,0:0:0:0:
156,274,140697,6,0,P|199:250|247:248,1,97.9999970092774,4|2,0:0|0:0,0:0:0:0:
279,362,141126,1,10,0:0:0:0:
352,270,141340,1,0,0:0:0:0:
370,223,141447,2,0,L|370:173,1,48.9999985046387,0|4,0:0|0:0,0:0:0:0:
351,128,141661,2,0,L|351:78,1,48.9999985046387
254,144,141983,1,10,0:0:0:0:
146,97,142197,1,0,0:0:0:0:
130,142,142304,1,0,0:0:0:0:
113,187,142411,6,0,B|113:223|113:223|106:247|106:247|106:284,1,97.9999970092774,4|2,0:0|0:0,0:0:0:0:
201,259,142840,2,0,L|317:286,1,97.9999970092774,10|0,0:0|0:0,0:0:0:0:
343,262,143161,1,0,0:0:0:0:
392,262,143268,1,4,0:0:0:0:
438,243,143376,1,0,0:0:0:0:
487,243,143483,1,0,0:0:0:0:
387,181,143697,1,10,0:0:0:0:
437,74,143911,1,0,0:0:0:0:
343,262,144126,22,0,B|343:298|343:298|336:322|336:322|336:359,1,97.9999970092774,4|2,0:0|0:0,0:0:0:0:
244,285,144554,2,0,P|201:262|153:262,1,97.9999970092774,10|0,0:0|0:0,0:0:0:0:
106,275,144876,1,0,0:0:0:0:
60,258,144983,2,0,L|60:151,1,97.9999970092774,4|0,0:0|0:0,0:0:0:0:
152,85,145411,2,0,L|152:192,1,97.9999970092774,10|0,0:0|0:0,0:0:0:0:
313,295,145840,6,0,P|265:296|221:276,1,97.9999970092774,4|2,0:0|0:0,0:0:0:0:
152,183,146268,1,10,0:0:0:0:
235,99,146483,1,0,0:0:0:0:
282,85,146590,1,0,0:0:0:0:
329,71,146697,1,4,0:0:0:0:
376,57,146804,1,0,0:0:0:0:
423,43,146911,1,0,0:0:0:0:
376,151,147126,2,0,P|364:198|375:245,1,97.9999970092774,10|0,0:0|0:0,0:0:0:0:
235,99,147554,6,0,B|199:99|199:99|175:92|175:92|138:92,1,97.9999970092774,4|2,0:0|0:0,0:0:0:0:
76,191,147983,2,0,B|68:239|68:239|76:288,1,97.9999970092774,10|0,0:0|0:0,0:0:0:0:
121,307,148304,1,0,0:0:0:0:
167,288,148411,2,0,L|284:266,1,97.9999970092774,4|0,0:0|0:0,0:0:0:0:
309,251,148733,1,0,0:0:0:0:
356,266,148840,2,0,B|364:314|364:314|356:363,1,97.9999970092774,10|0,0:0|0:0,0:0:0:0:
361,166,149268,6,0,L|478:144,1,97.9999970092774,4|2,0:0|0:0,0:0:0:0:
359,82,149697,2,0,L|242:104,1,97.9999970092774,10|0,0:0|0:0,0:0:0:0:
215,105,150018,1,0,0:0:0:0:
167,93,150126,1,4,0:0:0:0:
127,65,150233,1,0,0:0:0:0:
101,24,150340,1,0,0:0:0:0:
53,131,150554,2,0,P|41:178|52:225,1,97.9999970092774,10|0,0:0|0:0,0:0:0:0:
215,105,150983,22,0,B|251:105|251:105|275:112|275:112|312:112,1,97.9999970092774,4|2,0:0|0:0,0:0:0:0:
423,69,151411,1,10,0:0:0:0:
416,186,151626,1,0,0:0:0:0:
444,226,151733,2,0,L|444:279,1,48.9999985046387,0|4,0:0|0:0,0:0:0:0:
472,314,151947,2,0,L|472:367,1,48.9999985046387
356,339,152268,2,0,B|307:331|307:331|259:339,1,97.9999970092774,10|0,0:0|0:0,0:0:0:0:
80,258,152697,6,0,B|129:250|129:250|177:258,1,97.9999970092774,4|2,0:0|0:0,0:0:0:0:
290,225,153126,2,0,P|302:177|290:130,1,97.9999970092774,10|0,0:0|0:0,0:0:0:0:
262,89,153447,1,0,0:0:0:0:
214,81,153554,1,4,0:0:0:0:
166,74,153661,1,0,0:0:0:0:
117,66,153768,1,0,0:0:0:0:
79,178,153983,2,0,L|79:284,1,97.9999970092774,10|0,0:0|0:0,0:0:0:0:
266,212,154411,6,0,B|229:212|229:212|205:205|205:205|169:205,1,97.9999970092774,4|2,0:0|0:0,0:0:0:0:
79,276,154840,1,10,0:0:0:0:
188,321,155054,1,0,0:0:0:0:
234,304,155161,2,0,L|287:304,1,48.9999985046387,0|4,0:0|0:0,0:0:0:0:
329,321,155376,2,0,L|382:321,1,48.9999985046387
437,218,155697,1,10,0:0:0:0:
386,112,155911,1,0,0:0:0:0:
341,94,156018,1,0,0:0:0:0:
296,112,156126,6,0,B|288:147|288:147|276:168|276:168|267:205,1,97.9999970092774,4|2,0:0|0:0,0:0:0:0:
101,210,156554,2,0,P|136:244|183:257,1,97.9999970092774,10|0,0:0|0:0,0:0:0:0:
212,64,156983,2,0,B|204:99|204:99|192:120|192:120|183:157,1,97.9999970092774,4|0,0:0|0:0,0:0:0:0:
270,305,157411,2,0,P|317:291|356:252,1,97.9999970092774,10|0,0:0|0:0,0:0:0:0:
183,157,157840,21,2,0:0:0:0:
118,210,158268,1,2,0:0:0:0:
51,157,158697,2,0,B|40:121|40:121|27:91|27:91|18:57,2,105,2|0|0,0:0|0:0|0:0,0:0:0:0:
118,210,159768,1,0,0:0:0:0:
155,190,159983,1,0,0:0:0:0:
236,210,160411,2,0,B|271:215|271:215|337:193,1,105,2|0,0:0|0:0,0:0:0:0:
337,193,161268,6,0,P|299:139|327:55,1,140,2|2,0:0|0:0,0:0:0:0:
381,121,162126,2,0,B|485:105,2,105,2|0|0,0:0|0:0|0:0,0:0:0:0:
337,193,163197,1,0,0:0:0:0:
315,229,163411,1,0,0:0:0:0:
256,289,163840,38,0,P|218:257|238:205,1,105,8|0,0:0|0:0,0:0:0:0:
