osu file format v14

[General]
AudioFilename: audio.mp3
AudioLeadIn: 0
PreviewTime: 254907
Countdown: 1
SampleSet: Normal
StackLeniency: 0.7
Mode: 0
LetterboxInBreaks: 0
EpilepsyWarning: 1
WidescreenStoryboard: 1

[Editor]
Bookmarks: 320573,360528
DistanceSpacing: 1.8
BeatDivisor: 4
GridSize: 4
TimelineZoom: 3.4

[Metadata]
Title:Bring It In, Guys! & Last Goodbye
TitleUnicode:Bring It In, Guys! & Last Goodbye
Artist:toby fox
ArtistUnicode:toby fox
Creator:[ Drop ]
Version:Finale
Source:UNDERTALE
Tags:chiptune sahuang choikapo ost soundtrack radiation My Angel Azusa Compilation Anticipation Enemy Approaching Nyeh Heh Heh! sans snowy Snowdin Town Undyne An Ending Death by Glamour Another Medium Bergentrückung Fallen Down Once Upon a Time Hopes and Dreams SAVE the World
BeatmapID:976159
BeatmapSetID:455403

[Difficulty]
HPDrainRate:6
CircleSize:4
OverallDifficulty:8
ApproachRate:9
SliderMultiplier:1.7
SliderTickRate:1

[Events]
//Background and Video events
0,0,"playfield.jpg",0,0
Video,-534,"Video.mp4"
//Break Periods
2,88001,89914
2,131669,135111
2,203546,206815
2,224757,227224
2,249272,251307
2,297773,317165
//Storyboard Layer 0 (Background)
//Storyboard Layer 1 (Fail)
//Storyboard Layer 2 (Pass)
//Storyboard Layer 3 (Foreground)
//Storyboard Sound Samples

[TimingPoints]
30,342.857142857143,4,2,1,70,1,0
30,-100,4,2,1,70,0,0
4144,-100,4,2,1,90,0,0
5515,-100,4,2,1,70,0,0
9630,-100,4,2,1,90,0,0
10658,-100,4,2,1,70,0,0
11001,-142.857142857143,4,2,1,40,0,0
11858,-142.857142857143,4,2,1,5,0,0
12544,-142.857142857143,4,2,1,20,0,0
13744,-100,4,2,1,70,0,0
21972,-100,4,2,1,80,0,0
23344,-100,4,2,1,90,0,0
24715,-100,4,2,1,70,0,0
27801,-100,4,2,1,100,0,0
27972,-100,4,2,1,70,0,0
28315,-100,4,2,1,100,0,0
28487,-100,4,2,1,70,0,0
32944,-142.857142857143,4,2,1,40,0,0
33630,-166.666666666667,4,2,1,30,0,0
34315,-83.3333333333333,4,2,1,90,0,0
35687,-100,4,2,1,70,0,0
41172,-100,4,2,1,50,0,0
44258,-100,4,2,1,65,0,0
53515,-100,4,2,1,40,0,0
54201,-100,4,2,1,80,0,0
54887,-100,4,2,1,70,0,0
60372,-100,4,2,1,50,0,0
63115,-100,4,2,1,70,0,0
71344,-100,4,2,1,50,0,0
74087,-100,4,2,1,70,0,0
76830,-142.857142857143,4,2,1,30,0,0
87801,-200,4,1,8,70,0,0
90514,585.080448561677,4,3,1,90,1,0
90514,-76.9230769230769,4,3,1,90,0,0
90709,-76.9230769230769,4,3,1,5,0,0
90806,-76.9230769230769,4,3,1,90,0,0
91684,-76.9230769230769,4,3,1,90,0,0
91879,-76.9230769230769,4,3,1,5,0,0
91976,-76.9230769230769,4,3,1,90,0,0
92854,-76.9230769230769,4,3,1,90,0,0
93049,-76.9230769230769,4,3,1,5,0,0
93146,-76.9230769230769,4,3,1,90,0,0
94024,-76.9230769230769,4,3,1,80,0,0
94219,-76.9230769230769,4,3,1,70,0,0
94414,-76.9230769230769,4,3,1,60,0,0
94609,-76.9230769230769,4,3,1,70,0,0
94804,-76.9230769230769,4,3,1,60,0,0
94999,-76.9230769230769,4,3,1,80,0,0
95194,-76.9230769230769,4,3,1,90,0,0
95389,-76.9230769230769,4,3,1,5,0,0
95487,-76.9230769230769,4,3,1,90,0,0
96364,-76.9230769230769,4,3,1,90,0,0
96559,-76.9230769230769,4,3,1,5,0,0
96657,-76.9230769230769,4,3,1,90,0,0
97534,-76.9230769230769,4,3,1,90,0,0
97729,-76.9230769230769,4,3,1,5,0,0
97827,-76.9230769230769,4,3,1,90,0,0
98705,-76.9230769230769,4,3,1,80,0,0
98900,-76.9230769230769,4,3,1,70,0,0
99095,-76.9230769230769,4,3,1,60,0,0
99290,-76.9230769230769,4,3,1,70,0,0
99485,-76.9230769230769,4,3,1,60,0,0
99680,-76.9230769230769,4,3,1,50,0,0
99875,-100,4,3,1,60,0,0
103580,-100,4,3,1,50,0,0
103775,-100,4,3,1,40,0,0
103970,-100,4,3,1,50,0,0
104165,-100,4,3,1,30,0,0
104360,-100,4,3,1,40,0,0
104555,-100,4,3,1,60,0,0
108261,-100,4,3,1,50,0,0
108456,-100,4,3,1,40,0,0
108651,-100,4,3,1,50,0,0
108846,-100,4,3,1,40,0,0
109041,-100,4,3,1,30,0,0
109236,-100,4,3,1,50,0,0
111771,-100,4,3,1,25,0,0
112747,-100,4,3,1,50,0,0
121133,-100,4,3,1,25,0,0
122108,-100,4,3,1,50,0,0
127959,-133.333333333333,4,3,1,30,0,0
130299,-200,4,3,1,20,0,0
135710,363.636363636364,4,1,1,20,1,0
135710,-133.333333333333,4,1,1,20,0,0
141528,-166.666666666667,4,1,1,30,0,0
151710,-100,4,1,1,10,0,0
152073,-100,4,1,1,20,0,0
152437,-100,4,1,1,30,0,0
152800,-100,4,1,1,20,0,0
153164,-83.3333333333333,4,1,1,40,0,0
164800,-83.3333333333333,4,1,1,60,0,0
170619,-83.3333333333333,4,1,1,40,0,0
173164,-83.3333333333333,4,1,1,50,0,0
176437,-83.3333333333333,4,1,1,40,0,0
182255,-83.3333333333333,4,1,1,40,0,0
184800,-83.3333333333333,4,1,1,50,0,0
188073,-83.3333333333333,4,1,1,40,0,0
199710,-83.3333333333333,4,1,1,40,0,0
201164,-166.666666666667,4,1,1,30,0,0
201528,-166.666666666667,4,1,1,5,0,0
201891,-166.666666666667,4,1,1,30,0,0
202619,-166.666666666667,4,1,1,30,0,0
202982,-166.666666666667,4,1,1,5,0,0
203346,-166.666666666667,4,1,1,30,0,0
207415,774.193548387097,4,2,2,40,1,0
208189,800,4,2,2,40,1,0
208989,779.220779220779,4,2,2,40,1,0
210157,-100,4,2,2,5,0,0
210541,779.220779220779,4,2,2,40,1,0
212099,775.293798449612,4,2,2,40,1,0
213645,1178.78192534381,4,2,2,30,1,0
214529,-100,4,2,2,5,0,0
214825,1161.66505324298,4,2,2,20,1,0
215696,-100,4,2,2,5,0,0
215986,747.19800747198,4,2,2,40,1,0
216733,663.716814159292,4,2,2,40,1,0
217396,685.244239631336,4,2,2,40,1,0
218081,766.650779220779,4,2,2,40,1,0
218855,753.643670886076,4,2,2,40,1,0
219612,658.240659340659,4,2,2,40,1,0
220270,687.855172413793,4,2,2,40,1,0
220957,746.616981132075,4,2,2,40,1,0
221703,722.016981132075,4,2,2,40,1,0
222425,672.616981132075,4,2,2,40,1,0
223097,688.616981132075,4,2,2,40,1,0
223785,772.616981132075,4,2,2,40,1,0
224557,1631.99115680495,4,2,2,40,1,0
227824,869.565217391304,4,1,2,20,1,0
228693,-100,4,1,2,30,0,0
229563,-100,4,1,2,40,0,0
230867,-100,4,1,2,5,0,0
231302,-100,4,1,2,30,0,0
232171,-100,4,1,2,40,0,0
233041,-100,4,1,2,20,0,0
234780,-100,4,1,2,20,0,0
235650,-100,4,1,2,40,0,0
236519,-100,4,1,2,30,0,0
237389,-100,4,1,2,50,0,0
238258,-100,4,1,2,50,0,0
242606,895.522388059701,4,1,2,50,1,0
243501,880.522388059701,4,1,2,50,1,0
244383,937.5,4,1,2,50,1,0
245285,1863.35403726708,4,1,2,50,1,0
247148,1924.82802547771,4,1,2,50,1,0
249072,-100,4,1,2,5,0,0
251907,333.333333333333,4,3,2,5,1,0
252573,-100,4,3,2,20,0,0
253240,-100,4,3,2,30,0,0
253907,-100,4,3,2,40,0,0
254573,-100,4,3,2,50,0,0
254740,-100,4,3,2,5,0,0
254907,333.333333333333,4,3,2,80,1,1
254907,-100,4,3,2,80,0,1
270907,-100,4,3,2,90,0,1
273407,-100,4,3,2,80,0,1
274907,-100,4,3,2,80,0,0
276240,-100,4,3,2,80,0,1
296240,-100,4,3,2,80,0,0
297573,360.576923076923,4,3,2,5,1,0
317765,387.096774193548,4,3,2,5,1,0
318152,379.746835443038,4,3,2,5,1,0
318531,340.909090909091,4,3,2,5,1,0
318871,491.803278688525,4,3,2,5,1,0
319362,437.956204379562,4,3,2,5,1,0
319799,384.615384615385,4,3,2,5,1,0
320568,333.333333333333,4,3,2,80,1,1
320568,-83.3333333333333,4,3,2,80,0,1
341901,-90.9090909090909,4,3,2,80,0,0
351234,-76.9230769230769,4,3,2,80,0,0
355067,-90.9090909090909,4,3,2,5,0,0
355234,-90.9090909090909,4,3,2,80,0,0
357734,-90.9090909090909,4,3,2,5,0,0
357906,324.324324324324,4,3,2,90,1,0
360500,465.116279069767,4,3,2,80,1,0
360993,487.80487804878,4,3,2,80,1,0
361480,484.723662884927,4,3,2,80,1,0
361964,489.996411092985,4,3,2,80,1,0
362453,333.333333333333,4,3,2,80,1,0
363119,476.190476190476,4,3,2,80,1,0
363595,531.045789473684,4,3,2,80,1,0
364126,582.52427184466,4,3,2,50,1,0
364708,618.556701030928,4,3,2,40,1,0
365326,461.538461538462,4,3,2,40,1,0
365787,530.973451327434,4,3,2,30,1,0
366317,987.9,4,2,0,40,1,0
367304,1051.9,4,2,0,15,1,0
368355,1052.63157894737,4,2,0,15,1,0
371512,988.467874794069,4,2,0,15,1,0
372500,1562.5,4,2,0,15,1,0
375234,-100,4,2,0,5,0,0
375625,1829.26829268293,4,2,0,15,1,0
378826,-100,4,2,0,5,0,0
379283,3275.10917030568,4,2,0,15,1,0
381739,-100,4,2,0,5,0,0
382558,2149.30505803124,4,2,0,5,1,0
382558,-200,4,2,0,5,0,0

[Colours]
Combo1 : 255,0,255
Combo2 : 255,255,0
Combo3 : 128,128,255
Combo4 : 128,255,255
Combo5 : 255,0,0
Combo6 : 0,128,255
Combo7 : 0,255,0
Combo8 : 128,0,255

[HitObjects]
92,96,30,5,8,0:0:0:0:
292,48,201,1,0,0:0:0:0:
276,40,287,1,0,0:0:0:0:
258,31,372,2,0,L|166:29,2,85,8|0|8,0:0|0:0|0:0,0:0:0:0:
392,116,887,2,0,L|490:113,2,85,0|8|0,0:0|0:0|0:0,0:0:0:0:
281,185,1401,6,0,P|273:253|296:363,1,170,8|8,0:0|0:0,0:0:0:0:
220,116,1915,2,0,P|261:98|316:49,1,85,0|8,0:0|0:0,0:0:0:0:
188,200,2258,2,0,P|151:173|81:150,2,85,0|8|0,0:0|0:0|0:0,0:0:0:0:
378,79,2772,6,0,L|268:73,1,85,8|0,0:0|0:0,0:0:0:0:
272,84,3030,1,0,0:0:0:0:
252,93,3115,2,0,L|267:262,1,170,8|8,0:0|0:0,0:0:0:0:
392,172,3630,2,0,L|376:341,1,170
267,262,4144,5,8,0:0:0:0:
488,220,4315,1,0,0:0:0:0:
488,220,4401,1,0,0:0:0:0:
488,220,4487,1,8,0:0:0:0:
252,93,4658,2,0,P|182:61|116:144,1,170
114,140,5087,1,0,0:0:0:0:
120,168,5172,2,8,P|96:119|44:88,1,85,0|0,0:0|0:0,0:0:0:0:
60,256,5515,5,8,0:0:0:0:
224,192,5687,1,0,0:0:0:0:
36,176,5858,2,0,L|46:361,1,170,8|8,0:0|0:0,0:0:0:0:
143,272,6372,2,0,B|182:256|229:273|229:273|267:290|316:270,1,170
312,136,6887,6,0,P|271:175|267:210,1,85,8|0,0:0|0:0,0:0:0:0:
340,342,7230,1,8,0:0:0:0:
424,208,7401,2,0,L|330:203,1,85,0|8,0:0|0:0,0:0:0:0:
196,240,7744,2,0,P|193:193|200:155,1,85,0|8,0:0|0:0,0:0:0:0:
256,68,8087,1,0,0:0:0:0:
339,203,8258,5,8,0:0:0:0:
196,240,8430,1,0,0:0:0:0:
196,240,8515,1,0,0:0:0:0:
196,240,8601,2,0,L|104:236,1,85,8|0,0:0|0:0,0:0:0:0:
148,324,8944,1,8,0:0:0:0:
328,136,9115,2,0,L|420:132,1,85,0|8,0:0|0:0,0:0:0:0:
376,220,9458,1,0,0:0:0:0:
184,68,9630,6,0,P|112:91|25:7,1,170,8|8,0:0|0:0,0:0:0:0:
264,16,10144,2,0,L|248:216,1,170
216,252,10572,1,0,0:0:0:0:
216,252,10658,2,0,L|228:344,1,85,8|0,0:0|0:0,0:0:0:0:
436,340,11001,5,4,0:0:0:0:
384,248,11172,1,0,0:0:0:0:
490,244,11344,1,0,0:0:0:0:
324,336,11515,6,0,P|236:352|305:191,1,356.999989105225,4|0,0:0|0:0,0:0:0:0:
266,270,12715,1,0,0:0:0:0:
266,270,12887,1,0,0:0:0:0:
128,172,13058,1,0,0:0:0:0:
128,172,13230,1,0,0:0:0:0:
276,96,13401,1,0,0:0:0:0:
276,96,13572,1,0,0:0:0:0:
91,92,13744,6,0,P|142:87|181:103,1,85,8|0,0:0|0:0,0:0:0:0:
195,128,14001,1,0,0:0:0:0:
212,162,14087,2,0,B|252:252|176:232|216:336,1,170,2|0,0:0|0:0,0:0:0:0:
48,212,14601,2,0,L|132:210,2,85,0|2|0,0:0|0:0|0:0,0:0:0:0:
140,364,15115,6,0,B|204:361|204:361|241:344|241:344|311:341,1,170,8|2,0:0|0:0,0:0:0:0:
428,212,15630,2,0,B|364:215|364:215|327:232|327:232|257:235,1,170
166,153,16144,2,0,P|152:113|159:67,1,85,2|0,0:0|0:0,0:0:0:0:
312,48,16487,6,0,P|326:88|319:134,1,85,8|0,0:0|0:0,0:0:0:0:
300,168,16744,1,0,0:0:0:0:
272,192,16830,2,0,L|303:399,1,170,2|8,0:0|0:0,0:0:0:0:
324,124,17344,2,0,P|280:107|213:126,1,85,8|2,0:0|0:0,0:0:0:0:
58,150,17687,1,0,0:0:0:0:
58,150,17858,6,0,P|102:167|169:148,1,85,8|0,0:0|0:0,0:0:0:0:
112,88,18201,1,2,0:0:0:0:
8,207,18372,2,0,P|74:237|180:228,1,170
272,192,18887,1,2,0:0:0:0:
156,336,19058,1,0,0:0:0:0:
112,88,19230,6,0,L|211:80,1,85,8|0,0:0|0:0,0:0:0:0:
224,96,19487,1,0,0:0:0:0:
256,112,19572,2,0,L|459:95,1,170,2|8,0:0|0:0,0:0:0:0:
404,188,20087,2,0,L|302:196,1,85,0|2,0:0|0:0,0:0:0:0:
380,20,20430,1,0,0:0:0:0:
480,152,20601,6,0,P|485:210|462:254,2,85,8|0|2,0:0|0:0|0:0,0:0:0:0:
238,174,21115,2,0,B|292:170|292:170|354:192|354:192|422:186,1,170
284,256,21630,1,2,0:0:0:0:
284,256,21801,1,0,0:0:0:0:
199,94,21972,5,8,0:0:0:0:
284,256,22144,1,8,0:0:0:0:
383,100,22315,1,2,0:0:0:0:
192,178,22658,5,8,0:0:0:0:
376,184,22830,1,8,0:0:0:0:
291,22,23001,1,2,0:0:0:0:
224,280,23344,6,0,L|230:373,1,85
376,184,23687,2,0,L|382:91,1,85,2|0,0:0|0:0,0:0:0:0:
477,217,24030,1,8,0:0:0:0:
238,153,24201,1,2,0:0:0:0:
393,346,24372,1,2,0:0:0:0:
381,99,24544,1,2,0:0:0:0:
246,306,24715,6,0,P|196:314|148:299,1,85,8|0,0:0|0:0,0:0:0:0:
116,200,25058,2,0,L|140:367,1,170,2|8,0:0|0:0,0:0:0:0:
164,140,25572,2,0,P|115:122|70:137,1,85,0|2,0:0|0:0,0:0:0:0:
116,200,25915,1,0,0:0:0:0:
116,200,26087,5,8,0:0:0:0:
248,96,26258,1,0,0:0:0:0:
75,38,26430,1,2,0:0:0:0:
116,200,26601,2,0,P|159:257|262:241,1,170
304,176,27115,2,0,P|258:160|198:179,1,85,2|0,0:0|0:0,0:0:0:0:
388,272,27458,6,0,L|385:146,1,85,8|0,0:0|0:0,0:0:0:0:
430,32,27801,2,0,P|487:84|464:176,1,170,2|0,0:0|0:0,0:0:0:0:
288,208,28315,2,0,P|287:171|315:119,1,85,0|2,0:0|0:0,0:0:0:0:
480,264,28658,1,0,0:0:0:0:
340,336,28830,6,0,B|292:347|259:333|259:333|217:313|157:332,1,170,8|2,0:0|0:0,0:0:0:0:
48,256,29344,1,0,0:0:0:0:
171,163,29515,2,0,P|197:204|196:244,1,85,8|0,0:0|0:0,0:0:0:0:
92,148,29858,2,0,P|109:109|144:87,1,85,2|0,0:0|0:0,0:0:0:0:
249,177,30201,6,0,P|206:181|170:162,1,85
248,80,30544,2,0,P|329:117|337:220,1,170,2|0,0:0|0:0,0:0:0:0:
249,177,31058,1,0,0:0:0:0:
424,24,31230,2,0,L|416:112,1,85,2|0,0:0|0:0,0:0:0:0:
249,177,31572,6,0,P|203:166|170:126,1,85,8|0,0:0|0:0,0:0:0:0:
320,152,31915,1,2,0:0:0:0:
320,152,32087,2,0,L|324:239,1,85,0|8,0:0|0:0,0:0:0:0:
408,336,32430,1,0,0:0:0:0:
488,196,32601,2,0,L|403:192,1,85,2|0,0:0|0:0,0:0:0:0:
240,192,32944,6,4,L|172:196,2,59.4999981842042
300,280,33630,6,4,L|368:284,2,50.9999984436036
240,368,34315,5,8,0:0:0:0:
92,184,34487,1,0,0:0:0:0:
325,147,34658,2,0,L|288:264,1,101.999996887207,2|0,0:0|0:0,0:0:0:0:
190,76,35001,5,8,0:0:0:0:
240,368,35172,1,2,0:0:0:0:
370,101,35344,1,2,0:0:0:0:
109,240,35515,1,2,0:0:0:0:
403,282,35687,6,0,P|453:288|496:276,1,85,8|0,0:0|0:0,0:0:0:0:
488,152,36030,2,0,P|438:146|395:158,1,85,2|0,0:0|0:0,0:0:0:0:
364,355,36372,2,0,P|393:314|403:270,1,85,8|0,0:0|0:0,0:0:0:0:
268,212,36715,2,0,P|238:252|228:296,1,85,2|0,0:0|0:0,0:0:0:0:
348,208,37058,6,0,P|327:160|208:157,1,170,8|2,0:0|0:0,0:0:0:0:
316,284,37572,1,0,0:0:0:0:
384,108,37744,2,0,P|334:68|282:54,1,85,8|0,0:0|0:0,0:0:0:0:
192,248,38087,2,0,P|251:224|289:186,1,85,2|0,0:0|0:0,0:0:0:0:
166,11,38430,6,0,P|156:74|170:126,1,85,8|0,0:0|0:0,0:0:0:0:
336,260,38772,2,0,P|345:218|342:176,1,85,2|0,0:0|0:0,0:0:0:0:
220,336,39115,2,0,B|276:332|276:332|324:344|324:344|396:340,1,170,8|2,0:0|0:0,0:0:0:0:
460,280,39630,1,0,0:0:0:0:
416,200,39801,6,8,P|380:236|372:280,1,85,8|0,0:0|0:0,0:0:0:0:
320,76,40144,2,0,P|356:112|400:120,1,85,2|0,0:0|0:0,0:0:0:0:
196,172,40487,2,0,P|232:136|240:92,1,85,8|0,0:0|0:0,0:0:0:0:
292,296,40830,2,0,P|256:260|212:252,1,85,2|0,0:0|0:0,0:0:0:0:
49,320,41172,5,8,0:0:0:0:
49,320,41344,1,0,0:0:0:0:
49,320,41515,2,0,B|96:307|134:323|134:323|172:340|218:328,1,170,2|8,0:0|0:0,0:0:0:0:
360,256,42030,1,0,0:0:0:0:
360,256,42201,2,0,L|368:56,1,170,2|8,0:0|0:0,0:0:0:0:
240,180,42715,5,0,0:0:0:0:
290,308,42887,2,0,P|350:342|438:296,1,170,2|8,0:0|0:0,0:0:0:0:
360,256,43401,1,0,0:0:0:0:
200,316,43572,2,0,P|140:282|52:328,1,170,2|8,0:0|0:0,0:0:0:0:
129,365,44087,5,0,0:0:0:0:
264,264,44258,2,0,L|268:160,1,85,2|0,0:0|0:0,0:0:0:0:
160,96,44601,2,0,L|156:200,1,85,8|0,0:0|0:0,0:0:0:0:
248,44,44944,2,0,B|167:12|167:12|65:40,1,170,2|8,0:0|0:0,0:0:0:0:
156,180,45458,6,0,B|184:176|184:176|212:184|212:184|252:180,1,85,0|2,0:0|0:0,0:0:0:0:
22,120,45801,2,0,L|28:292,1,170
96,352,46315,2,0,P|137:337|189:341,1,85,2|0,0:0|0:0,0:0:0:0:
399,263,46658,6,0,B|349:261|324:301|324:301|273:303|227:269,1,170,8|2,0:0|0:0,0:0:0:0:
204,208,47172,1,0,0:0:0:0:
399,263,47344,2,0,P|409:305|398:345,1,85,8|0,0:0|0:0,0:0:0:0:
292,216,47687,2,0,P|282:174|293:134,1,85,2|0,0:0|0:0,0:0:0:0:
365,176,48030,6,0,L|196:180,1,170,8|2,0:0|0:0,0:0:0:0:
272,336,48544,1,0,0:0:0:0:
196,180,48715,2,0,L|199:95,2,85,8|0|2,0:0|0:0|0:0,0:0:0:0:
108,128,49230,1,0,0:0:0:0:
332,60,49401,6,0,P|387:71|422:114,1,85,8|0,0:0|0:0,0:0:0:0:
360,216,49744,2,0,P|342:162|361:111,1,85,2|0,0:0|0:0,0:0:0:0:
444,208,50087,2,0,P|419:275|319:291,1,170,8|2,0:0|0:0,0:0:0:0:
152,304,50601,1,0,0:0:0:0:
152,304,50772,6,0,P|189:298|249:308,1,85,8|0,0:0|0:0,0:0:0:0:
330,380,51115,2,0,P|324:343|334:283,1,85,2|0,0:0|0:0,0:0:0:0:
406,202,51458,2,0,P|369:208|309:198,1,85,8|0,0:0|0:0,0:0:0:0:
228,126,51801,2,0,P|234:163|224:223,1,85,2|0,0:0|0:0,0:0:0:0:
32,40,52144,6,0,B|86:38|86:38|137:54|137:54|198:52,1,170,8|2,0:0|0:0,0:0:0:0:
344,64,52658,1,0,0:0:0:0:
272,152,52830,2,0,P|268:194|285:250,1,85,8|0,0:0|0:0,0:0:0:0:
432,224,53172,2,0,P|436:182|419:126,1,85,2|0,0:0|0:0,0:0:0:0:
192,220,53515,5,8,0:0:0:0:
220,374,53687,1,0,0:0:0:0:
381,344,53858,1,2,0:0:0:0:
350,184,54030,1,0,0:0:0:0:
288,280,54201,1,8,0:0:0:0:
437,260,54372,1,2,0:0:0:0:
192,220,54544,1,2,0:0:0:0:
381,344,54715,1,2,0:0:0:0:
394,119,54887,6,0,P|351:71|254:94,1,170,8|2,0:0|0:0,0:0:0:0:
368,212,55401,2,0,P|411:219|458:198,1,85,0|8,0:0|0:0,0:0:0:0:
318,143,55744,2,0,P|290:176|280:228,1,85,0|2,0:0|0:0,0:0:0:0:
360,368,56087,1,0,0:0:0:0:
400,296,56258,6,0,B|363:279|316:297|316:297|275:316|208:284,1,170,8|2,0:0|0:0,0:0:0:0:
136,252,56772,1,0,0:0:0:0:
96,352,56944,1,8,0:0:0:0:
96,352,57030,1,0,0:0:0:0:
96,352,57115,2,0,P|139:361|181:352,1,85,0|2,0:0|0:0,0:0:0:0:
136,252,57458,1,0,0:0:0:0:
176,152,57630,6,0,P|133:143|91:152,2,85,8|0|2,0:0|0:0|0:0,0:0:0:0:
218,229,58144,2,0,P|261:182|220:76,1,170
132,232,58658,2,0,P|145:273|174:305,1,85,2|0,0:0|0:0,0:0:0:0:
386,225,59001,6,0,B|330:221|330:221|278:233|278:233|213:228,1,170,8|2,0:0|0:0,0:0:0:0:
248,144,59515,1,0,0:0:0:0:
352,300,59687,1,8,0:0:0:0:
352,300,59772,1,0,0:0:0:0:
352,300,59858,2,0,P|399:308|448:284,1,85,0|2,0:0|0:0,0:0:0:0:
386,225,60201,1,0,0:0:0:0:
324,384,60372,5,8,0:0:0:0:
495,360,60544,1,0,0:0:0:0:
386,225,60715,2,0,P|339:217|290:241,1,85,2|0,0:0|0:0,0:0:0:0:
400,380,61058,2,0,P|430:343|434:288,1,85,8|0,0:0|0:0,0:0:0:0:
228,200,61401,1,2,0:0:0:0:
320,116,61572,2,0,L|333:212,1,85
352,304,61915,5,0,0:0:0:0:
444,208,62087,1,2,0:0:0:0:
240,236,62258,2,0,P|192:232|152:192,1,85
136,48,62601,1,0,0:0:0:0:
228,156,62772,1,2,0:0:0:0:
80,216,62944,1,0,0:0:0:0:
136,48,63115,5,8,0:0:0:0:
136,48,63287,1,0,0:0:0:0:
304,24,63458,1,2,0:0:0:0:
304,24,63630,1,0,0:0:0:0:
328,192,63801,1,8,0:0:0:0:
328,192,63972,1,0,0:0:0:0:
159,216,64144,2,0,L|56:228,1,85,2|0,0:0|0:0,0:0:0:0:
184,132,64487,6,0,P|225:158|243:207,1,85,8|0,0:0|0:0,0:0:0:0:
137,294,64830,2,0,P|139:245|172:205,1,85,2|0,0:0|0:0,0:0:0:0:
300,256,65172,2,0,P|256:278|205:269,1,85,8|0,0:0|0:0,0:0:0:0:
184,132,65515,2,0,P|227:109|278:118,1,85,2|0,0:0|0:0,0:0:0:0:
412,192,65858,6,0,B|373:209|329:193|329:193|289:177|245:194,1,170,8|2,0:0|0:0,0:0:0:0:
368,120,66372,1,0,0:0:0:0:
290,266,66544,2,0,L|296:368,1,85,8|0,0:0|0:0,0:0:0:0:
376,296,66887,1,2,0:0:0:0:
184,240,67058,1,0,0:0:0:0:
436,196,67230,6,0,L|445:26,1,170,8|2,0:0|0:0,0:0:0:0:
260,112,67744,1,0,0:0:0:0:
388,259,67915,1,8,0:0:0:0:
388,259,68001,1,0,0:0:0:0:
388,259,68087,2,0,B|429:286|470:268,1,85,0|2,0:0|0:0,0:0:0:0:
436,196,68430,1,0,0:0:0:0:
360,364,68601,6,0,P|307:303|199:330,1,170,8|2,0:0|0:0,0:0:0:0:
188,380,69115,2,0,P|235:386|285:358,1,85,0|8,0:0|0:0,0:0:0:0:
223,308,69458,1,0,0:0:0:0:
174,243,69630,2,0,P|214:229|256:236,1,85,2|0,0:0|0:0,0:0:0:0:
290,172,69972,6,0,P|211:156|120:193,1,170,8|2,0:0|0:0,0:0:0:0:
72,272,70487,1,0,0:0:0:0:
140,340,70658,1,8,0:0:0:0:
140,340,70744,1,0,0:0:0:0:
140,340,70830,2,0,L|152:244,1,85,0|2,0:0|0:0,0:0:0:0:
100,104,71172,1,0,0:0:0:0:
48,200,71344,5,0,0:0:0:0:
200,136,71515,1,0,0:0:0:0:
100,104,71687,1,2,0:0:0:0:
100,104,71858,1,0,0:0:0:0:
192,240,72030,2,0,P|223:227|303:242,1,85,8|0,0:0|0:0,0:0:0:0:
420,308,72372,1,2,0:0:0:0:
348,164,72544,2,0,L|343:248,1,85,8|0,0:0|0:0,0:0:0:0:
336,364,72887,5,0,0:0:0:0:
480,244,73058,1,2,0:0:0:0:
426,126,73230,2,0,P|400:96|348:76,1,85
176,216,73572,1,0,0:0:0:0:
343,248,73744,2,0,L|348:164,1,85,2|0,0:0|0:0,0:0:0:0:
176,216,74087,5,8,0:0:0:0:
176,216,74258,1,0,0:0:0:0:
241,372,74430,1,2,0:0:0:0:
241,372,74601,1,0,0:0:0:0:
398,306,74772,1,8,0:0:0:0:
398,306,74944,1,0,0:0:0:0:
331,149,75115,2,0,L|232:144,1,85,2|0,0:0|0:0,0:0:0:0:
196,224,75458,6,0,P|236:237|296:221,1,85,8|0,0:0|0:0,0:0:0:0:
292,68,75801,2,0,P|252:55|192:71,1,85,2|0,0:0|0:0,0:0:0:0:
158,297,76144,2,0,P|185:265|194:203,1,85,8|0,0:0|0:0,0:0:0:0:
57,161,76487,2,0,P|29:192|20:254,1,85,2|0,0:0|0:0,0:0:0:0:
137,137,76830,6,0,P|100:91|25:85,1,118.999996368408,0|4,0:0|0:0,0:0:0:0:
104,220,77515,1,0,0:0:0:0:
216,160,77858,1,4,0:0:0:0:
57,161,78201,2,0,L|66:289,1,118.999996368408,0|4,0:0|0:0,0:0:0:0:
127,349,78887,2,0,P|175:328|263:350,1,118.999996368408,0|4,0:0|0:0,0:0:0:0:
384,352,79572,6,0,P|310:354|266:210,3,237.999992736817,0|4|0|4,0:0|0:0|0:0|0:0,0:0:0:0:
320,52,82315,6,0,P|349:101|320:176,1,118.999996368408,0|4,0:0|0:0,0:0:0:0:
272,224,83001,2,0,P|243:175|272:100,1,118.999996368408,0|4,0:0|0:0,0:0:0:0:
356,244,83687,6,0,P|328:293|248:306,1,118.999996368408,0|4,0:0|0:0,0:0:0:0:
153,227,84372,2,0,L|277:223,1,118.999996368408,0|4,0:0|0:0,0:0:0:0:
104,372,85058,6,0,B|96:292|96:292|52:228|52:228|44:132,3,237.999992736817,0|4|0|4,0:0|0:0|0:0|0:0,0:0:0:0:
128,40,87801,5,4,0:0:0:0:
37,106,90514,6,0,L|138:103,1,73.6666632944744
141,113,90806,2,0,P|154:157|144:192,1,73.6666632944744
132,208,91099,2,0,P|126:244|139:278,2,73.6666632944744
236,136,91684,6,0,L|225:221,1,73.6666632944744
204,236,91976,2,0,L|215:321,1,73.6666632944744
206,341,92269,2,0,P|246:333|288:340,2,73.6666632944744
280,236,92854,6,0,P|315:243|352:240,1,73.6666632944744
380,252,93146,2,0,P|415:244|452:247,1,73.6666632944744
476,260,93439,2,0,L|472:172,2,73.6666632944744
414,341,94024,6,0,B|378:329|378:329|332:335,2,73.6666632944744
216,248,94609,2,0,B|252:260|252:260|298:254,2,73.6666632944744
136,145,95194,6,0,P|179:130|229:140,1,73.6666632944744
236,120,95487,2,0,P|269:133|306:133,1,73.6666632944744
336,116,95779,2,0,L|436:120,2,73.6666632944744
229,46,96364,6,0,L|237:130,1,73.6666632944744
216,144,96657,2,0,L|224:228,1,73.6666632944744
240,240,96949,2,0,L|233:313,2,73.6666632944744
435,163,97534,6,0,B|397:159|397:159|354:162,1,73.6666632944744
332,176,97827,2,0,B|296:178|296:178|258:174,1,73.6666632944744
236,160,98120,2,0,L|132:164,2,73.6666632944744
352,104,98705,6,0,L|400:11,2,73.6666632944744
342,232,99290,2,0,L|397:320,2,73.6666632944744
236,160,99875,6,0,L|128:164,1,85
88,216,100362,1,0,0:0:0:0:
88,216,100460,2,0,P|83:251|91:280,1,56.6666666666667,8|0,0:0|0:0,0:0:0:0:
124,336,100850,1,0,0:0:0:0:
124,336,101045,6,0,L|230:331,1,85
276,284,101533,1,0,0:0:0:0:
276,284,101630,2,0,L|271:215,1,56.6666666666667,8|0,0:0|0:0,0:0:0:0:
312,156,102020,1,0,0:0:0:0:
312,156,102215,6,0,P|276:147|217:165,1,85
156,192,102703,1,0,0:0:0:0:
156,192,102800,2,0,L|92:188,1,56.6666666666667,8|0,0:0|0:0,0:0:0:0:
28,148,103190,1,0,0:0:0:0:
28,148,103385,6,0,L|32:220,1,56.6666666666667
36,296,103775,1,0,0:0:0:0:
176,184,103970,2,0,L|172:240,1,56.6666666666667,8|0,0:0|0:0,0:0:0:0:
168,332,104360,1,0,0:0:0:0:
85,333,104555,6,0,P|128:324|174:334,1,85
248,352,105043,1,0,0:0:0:0:
248,352,105141,2,0,L|252:292,1,56.6666666666667,8|0,0:0|0:0,0:0:0:0:
316,244,105531,1,0,0:0:0:0:
316,244,105726,6,0,B|291:224|291:224|227:221,1,85
164,200,106213,1,0,0:0:0:0:
164,200,106311,2,0,P|162:228|170:255,1,56.6666666666667,8|0,0:0|0:0,0:0:0:0:
228,312,106701,1,0,0:0:0:0:
228,312,106896,6,0,P|198:302|141:310,1,85
64,304,107383,1,0,0:0:0:0:
64,304,107481,2,0,L|72:365,1,56.6666666666667,8|0,0:0|0:0,0:0:0:0:
142,252,107871,1,0,0:0:0:0:
142,252,108066,6,0,L|134:191,1,56.6666666666667
118,100,108456,1,0,0:0:0:0:
228,200,108651,2,0,L|236:139,1,56.6666666666667,8|0,0:0|0:0,0:0:0:0:
252,48,109041,1,0,0:0:0:0:
336,100,109236,6,0,L|418:97,2,56.6666666666667
277,178,109821,2,0,P|272:210|296:288,1,113.333333333333,8|0,0:0|0:0,0:0:0:0:
348,340,110309,1,0,0:0:0:0:
348,340,110406,2,0,L|258:336,1,85
188,324,110796,1,0,0:0:0:0:
188,324,110894,1,0,0:0:0:0:
188,324,110991,2,0,L|180:213,1,85,8|0,0:0|0:0,0:0:0:0:
116,200,111381,1,0,0:0:0:0:
116,200,111479,1,0,0:0:0:0:
116,200,111576,6,0,L|120:132,1,56.6666666666667,8|0,0:0|0:0,0:0:0:0:
164,48,111967,1,0,0:0:0:0:
272,148,112161,2,0,L|268:216,1,56.6666666666667,8|0,0:0|0:0,0:0:0:0:
224,300,112552,1,0,0:0:0:0:
224,300,112747,6,0,P|272:278|345:311,1,113.333333333333
176,360,113332,2,0,L|120:352,2,56.6666666666667,8|0|0,0:0|0:0|0:0,0:0:0:0:
241,301,113917,6,0,P|246:265|240:224,2,56.6666666666667
188,192,114502,2,0,P|230:169|299:190,1,113.333333333333,8|0,0:0|0:0,0:0:0:0:
356,220,114989,1,0,0:0:0:0:
356,220,115087,2,0,L|444:216,1,85
412,290,115477,1,0,0:0:0:0:
412,290,115574,1,0,0:0:0:0:
412,290,115672,2,0,L|324:294,1,85,8|0,0:0|0:0,0:0:0:0:
252,276,116062,1,0,0:0:0:0:
252,276,116160,1,0,0:0:0:0:
252,276,116257,6,0,L|164:280,1,56.6666666666667,8|0,0:0|0:0,0:0:0:0:
56,284,116647,1,0,0:0:0:0:
128,156,116842,2,0,L|129:227,1,56.6666666666667,8|0,0:0|0:0,0:0:0:0:
133,351,117232,1,0,0:0:0:0:
133,351,117427,6,0,B|161:355|161:355|196:352,1,56.6666666666667
336,252,117817,1,0,0:0:0:0:
379,351,118012,2,0,B|351:355|351:355|316:352,1,56.6666666666667,8|0,0:0|0:0,0:0:0:0:
176,252,118402,1,0,0:0:0:0:
256,320,118597,6,0,L|256:380,2,56.6666666666667
204,256,119182,2,0,P|244:237|315:262,1,113.333333333333,8|0,0:0|0:0,0:0:0:0:
364,312,119670,1,0,0:0:0:0:
364,312,119768,2,0,L|468:304,1,85
488,240,120158,1,0,0:0:0:0:
488,240,120255,1,0,0:0:0:0:
488,240,120353,2,0,L|494:156,1,85,8|0,0:0|0:0,0:0:0:0:
404,144,120743,1,0,0:0:0:0:
404,144,120840,1,0,0:0:0:0:
404,144,120938,6,0,P|414:172|412:208,2,56.6666666666667
412,284,121523,2,0,P|382:278|352:258,2,56.6666666666667,8|0|0,0:0|0:0|0:0,0:0:0:0:
336,188,122108,2,0,L|220:184,1,113.333333333333
52,164,122693,1,8,0:0:0:0:
148,231,122888,1,0,0:0:0:0:
159,114,123083,1,0,0:0:0:0:
52,164,123278,6,0,L|-16:156,2,56.6666666666667
116,112,123863,2,0,P|132:163|105:227,1,113.333333333333,8|0,0:0|0:0,0:0:0:0:
60,272,124351,1,0,0:0:0:0:
60,272,124448,2,0,P|100:264|155:276,1,85
216,304,124838,1,0,0:0:0:0:
216,304,124936,1,0,0:0:0:0:
216,304,125033,2,0,P|257:311|299:303,1,85,8|0,0:0|0:0,0:0:0:0:
324,236,125423,1,0,0:0:0:0:
324,236,125521,1,0,0:0:0:0:
324,236,125618,6,0,L|268:228,2,56.6666666666667
384,182,126203,2,0,P|412:181|448:188,2,56.6666666666667,8|0|0,0:0|0:0|0:0,0:0:0:0:
324,236,126788,2,0,P|295:236|267:232,1,56.6666666666667
168,120,127179,1,0,0:0:0:0:
168,120,127374,2,0,P|182:143|192:170,1,56.6666666666667,8|0,0:0|0:0,0:0:0:0:
184,248,127764,1,0,0:0:0:0:
145,316,127959,6,0,P|109:270|196:171,1,212.500008106232
248,228,129129,2,0,B|314:234|314:234|394:218|394:218|458:222,1,212.500008106232
512,168,130299,6,0,P|526:131|479:43,1,141.666666666667
444,120,131469,1,0,0:0:0:0:
391,147,135711,6,8,P|336:177|260:144,1,127.500004863739
276,160,136437,2,0,L|156:156,2,95.6250036478044,8|0|0,0:0|0:0|0:0,0:0:0:0:
276,160,137346,1,0,0:0:0:0:
216,284,137528,1,8,0:0:0:0:
216,284,137891,2,0,L|120:288,1,95.6250036478044
120,287,138619,6,8,P|166:328|228:325,1,127.500004863739
228,324,139346,2,0,L|331:322,2,95.6250036478044,8|0|0,0:0|0:0|0:0,0:0:0:0:
228,324,140255,1,0,0:0:0:0:
261,163,140437,1,8,0:0:0:0:
261,163,140800,2,0,P|308:164|354:118,1,95.6250036478044,8|0,0:0|0:0,0:0:0:0:
346,136,141528,6,0,B|369:107|356:60|356:60|408:104|480:84|480:84|440:132|452:196|452:196|388:180|339:221|339:221|392:297|336:372,1,611.999981323243,2|2,0:0|0:0,0:0:0:0:
256,280,144073,1,2,0:0:0:0:
174,369,144437,6,0,B|120:297|173:221|173:221|124:180|60:196|60:196|72:132|32:84|32:84|104:104|156:60|156:60|143:107|166:136,1,611.999981323243,2|2,0:0|0:0,0:0:0:0:
256,104,146982,1,2,0:0:0:0:
330,162,147346,6,0,B|368:128|360:68|360:68|381:108|409:121|409:121|440:113|473:77|473:77|448:136|476:200|476:200|403:223|364:308|428:376|428:376|388:336|316:344,1,713.99997821045,2|2,0:0|0:0,0:0:0:0:
244,364,150255,6,0,B|184:356|144:308|144:308|152:232|204:196|204:196|280:200|316:252,1,356.999989105225
231,282,151710,6,4,L|129:274,1,85
56,144,152073,1,4,0:0:0:0:
86,115,152164,1,4,0:0:0:0:
126,103,152255,1,4,0:0:0:0:
168,111,152346,1,4,0:0:0:0:
200,138,152437,5,4,0:0:0:0:
232,165,152528,1,4,0:0:0:0:
274,173,152619,1,4,0:0:0:0:
314,161,152710,1,4,0:0:0:0:
344,132,152800,2,4,L|352:96,7,21.25
368,90,153164,6,0,L|361:207,1,101.999996887207,8|0,0:0|0:0,0:0:0:0:
152,112,153528,2,0,B|200:94|200:94|250:102,1,101.999996887207,4|0,0:0|0:0,0:0:0:0:
408,276,153891,2,0,B|358:284|358:284|302:264,1,101.999996887207,8|0,0:0|0:0,0:0:0:0:
283,222,154164,2,0,L|289:344,1,101.999996887207,8|0,0:0|0:0,0:0:0:0:
288,372,154437,1,8,0:0:0:0:
192,280,154619,5,8,0:0:0:0:
368,168,154800,1,0,0:0:0:0:
192,56,154982,2,0,L|82:61,1,101.999996887207,4|0,0:0|0:0,0:0:0:0:
163,186,155346,1,8,0:0:0:0:
188,157,155437,1,0,0:0:0:0:
222,141,155528,1,0,0:0:0:0:
260,140,155619,1,0,0:0:0:0:
295,155,155710,2,0,L|301:98,1,50.9999984436036,4|0,0:0|0:0,0:0:0:0:
468,128,155891,2,0,L|463:178,1,50.9999984436036
376,200,156073,6,0,L|386:77,1,101.999996887207,8|0,0:0|0:0,0:0:0:0:
295,155,156437,1,4,0:0:0:0:
468,128,156619,1,0,0:0:0:0:
224,228,156800,2,0,L|232:329,1,101.999996887207,8|0,0:0|0:0,0:0:0:0:
256,352,157073,2,0,P|204:333|154:343,1,101.999996887207,8|0,0:0|0:0,0:0:0:0:
128,356,157346,1,8,0:0:0:0:
28,224,157528,6,0,L|148:229,1,101.999996887207,8|0,0:0|0:0,0:0:0:0:
316,124,157891,2,0,L|214:128,1,101.999996887207,4|0,0:0|0:0,0:0:0:0:
436,232,158255,2,0,P|470:177|459:122,1,101.999996887207,8|0,0:0|0:0,0:0:0:0:
356,240,158528,2,0,P|386:296|439:314,1,101.999996887207,8|4,0:0|0:0,0:0:0:0:
392,164,158800,1,4,0:0:0:0:
392,164,158891,1,4,0:0:0:0:
392,164,158982,6,0,L|286:160,1,101.999996887207,8|0,0:0|0:0,0:0:0:0:
124,232,159346,2,0,B|113:181|113:181|121:131,1,101.999996887207,4|0,0:0|0:0,0:0:0:0:
287,60,159710,2,0,B|298:111|298:111|289:160,1,101.999996887207,8|0,0:0|0:0,0:0:0:0:
269,192,159982,2,0,P|325:179|385:202,1,101.999996887207,8|0,0:0|0:0,0:0:0:0:
393,212,160255,1,8,0:0:0:0:
228,276,160437,6,0,P|188:234|178:170,1,101.999996887207,8|0,0:0|0:0,0:0:0:0:
320,272,160800,2,0,L|312:392,1,101.999996887207,4|0,0:0|0:0,0:0:0:0:
421,271,161164,1,8,0:0:0:0:
393,244,161255,1,0,0:0:0:0:
378,209,161346,1,0,0:0:0:0:
377,171,161437,1,0,0:0:0:0:
391,136,161528,2,0,L|397:34,1,101.999996887207,4|0,0:0|0:0,0:0:0:0:
304,120,161891,5,8,0:0:0:0:
484,72,162073,1,0,0:0:0:0:
297,18,162255,2,0,L|303:119,1,101.999996887207,4|0,0:0|0:0,0:0:0:0:
287,280,162619,2,0,P|340:286|391:252,1,101.999996887207,8|0,0:0|0:0,0:0:0:0:
408,232,162891,2,0,L|401:333,1,101.999996887207,8|0,0:0|0:0,0:0:0:0:
392,364,163164,1,8,0:0:0:0:
216,196,163346,6,0,B|243:194|243:194|280:201|280:201|320:198,1,101.999996887207,8|0,0:0|0:0,0:0:0:0:
240,360,163710,2,0,B|213:358|213:358|176:365|176:365|136:362,1,101.999996887207,4|0,0:0|0:0,0:0:0:0:
52,156,164073,2,0,L|56:268,1,101.999996887207,8|0,0:0|0:0,0:0:0:0:
60,332,164346,1,8,0:0:0:0:
104,356,164437,1,8,0:0:0:0:
137,318,164528,1,4,0:0:0:0:
184,298,164619,1,4,0:0:0:0:
234,299,164710,1,4,0:0:0:0:
279,322,164800,6,0,L|352:312,1,50.9999984436036,8|0,0:0|0:0,0:0:0:0:
472,352,164982,2,0,L|399:342,1,50.9999984436036
296,240,165164,2,0,L|299:138,1,101.999996887207,4|0,0:0|0:0,0:0:0:0:
356,72,165437,1,0,0:0:0:0:
356,72,165528,2,0,B|306:60|306:60|245:67,1,101.999996887207,8|0,0:0|0:0,0:0:0:0:
112,188,165891,6,0,L|116:260,1,50.9999984436036,4|0,0:0|0:0,0:0:0:0:
216,244,166073,2,0,L|218:193,1,50.9999984436036
76,112,166255,2,0,P|35:151|40:224,1,101.999996887207,8|0,0:0|0:0,0:0:0:0:
300,200,166619,2,0,P|290:150|252:117,1,101.999996887207,4|0,0:0|0:0,0:0:0:0:
192,324,166982,6,0,P|224:327|252:321,1,50.9999984436036,8|0,0:0|0:0,0:0:0:0:
320,368,167164,2,0,P|350:357|373:339,1,50.9999984436036
454,353,167346,1,4,0:0:0:0:
454,314,167437,1,0,0:0:0:0:
454,276,167528,1,0,0:0:0:0:
455,238,167619,1,0,0:0:0:0:
455,200,167710,6,0,L|456:128,1,50.9999984436036,8|0,0:0|0:0,0:0:0:0:
344,84,167891,2,0,L|344:134,1,50.9999984436036
476,176,168073,2,0,L|476:50,1,101.999996887207,4|0,0:0|0:0,0:0:0:0:
416,24,168346,1,0,0:0:0:0:
416,24,168437,2,0,P|358:47|295:13,1,101.999996887207,8|0,0:0|0:0,0:0:0:0:
248,68,168710,1,0,0:0:0:0:
248,68,168800,2,0,L|181:62,1,50.9999984436036,4|0,0:0|0:0,0:0:0:0:
152,152,168982,2,0,L|85:146,1,50.9999984436036
56,236,169164,6,0,L|52:100,1,101.999996887207,8|0,0:0|0:0,0:0:0:0:
140,64,169437,1,0,0:0:0:0:
140,64,169528,2,0,L|137:165,1,101.999996887207,4|0,0:0|0:0,0:0:0:0:
34,288,169891,5,8,0:0:0:0:
72,286,169982,1,0,0:0:0:0:
110,285,170073,1,0,0:0:0:0:
148,284,170164,1,0,0:0:0:0:
184,300,170255,5,4,0:0:0:0:
222,298,170346,1,0,0:0:0:0:
260,297,170437,1,0,0:0:0:0:
298,296,170528,1,0,0:0:0:0:
333,311,170619,6,0,P|348:261|328:196,1,101.999996887207,8|0,0:0|0:0,0:0:0:0:
272,160,170891,1,0,0:0:0:0:
272,160,170982,2,0,P|257:210|277:275,1,101.999996887207,4|0,0:0|0:0,0:0:0:0:
333,311,171255,1,0,0:0:0:0:
333,311,171346,2,0,L|414:308,1,50.9999984436036,8|0,0:0|0:0,0:0:0:0:
504,368,171528,2,0,L|423:365,1,50.9999984436036
328,288,171710,2,0,L|332:186,1,101.999996887207,4|0,0:0|0:0,0:0:0:0:
156,80,172073,6,0,L|151:181,1,101.999996887207,8|0,0:0|0:0,0:0:0:0:
108,248,172346,1,0,0:0:0:0:
108,248,172437,2,0,P|160:259|211:229,1,101.999996887207,4|0,0:0|0:0,0:0:0:0:
150,181,172710,2,0,P|98:170|47:200,1,101.999996887207
32,264,172982,1,0,0:0:0:0:
275,163,173164,2,0,P|275:93|176:52,1,152.999995330811,4|0,0:0|0:0,0:0:0:0:
104,136,173528,6,0,B|154:140|154:140|209:122,1,101.999996887207,8|0,0:0|0:0,0:0:0:0:
275,163,173800,1,0,0:0:0:0:
275,163,173891,2,0,B|324:146|324:146|374:150,1,101.999996887207,4|0,0:0|0:0,0:0:0:0:
460,264,174164,1,0,0:0:0:0:
460,264,174255,1,8,0:0:0:0:
460,264,174346,2,0,L|468:152,1,101.999996887207
460,128,174619,1,4,0:0:0:0:
280,336,174800,6,0,P|323:354|382:345,1,101.999996887207,0|8,0:0|0:0,0:0:0:0:
220,232,175164,2,0,P|182:260|161:315,1,101.999996887207,0|4,0:0|0:0,0:0:0:0:
340,232,175528,2,0,P|334:185|296:139,1,101.999996887207,0|8,0:0|0:0,0:0:0:0:
301,142,175800,1,0,0:0:0:0:
301,142,175891,1,0,0:0:0:0:
100,72,176073,2,4,L|108:144,1,50.9999984436036
176,240,176255,2,4,L|181:189,1,50.9999984436036
32,296,176437,6,0,L|108:292,1,50.9999984436036,8|0,0:0|0:0,0:0:0:0:
152,360,176619,2,0,L|228:356,1,50.9999984436036
301,296,176800,2,0,P|309:224|289:163,1,101.999996887207,4|0,0:0|0:0,0:0:0:0:
264,128,177073,1,0,0:0:0:0:
264,128,177164,2,0,L|152:123,1,101.999996887207,8|0,0:0|0:0,0:0:0:0:
8,160,177528,6,0,P|0:187|3:217,1,50.9999984436036,4|0,0:0|0:0,0:0:0:0:
156,236,177710,2,0,P|136:215|109:203,1,50.9999984436036
48,320,177891,2,0,L|160:325,1,101.999996887207,8|0,0:0|0:0,0:0:0:0:
216,360,178164,1,0,0:0:0:0:
216,360,178255,2,0,L|317:355,1,101.999996887207,4|0,0:0|0:0,0:0:0:0:
392,352,178528,1,0,0:0:0:0:
392,352,178619,6,0,L|400:260,1,50.9999984436036,8|0,0:0|0:0,0:0:0:0:
348,232,178800,2,0,L|356:140,1,50.9999984436036
304,112,178982,1,4,0:0:0:0:
272,133,179073,1,0,0:0:0:0:
235,139,179164,1,0,0:0:0:0:
198,131,179255,1,0,0:0:0:0:
167,109,179346,6,0,L|164:45,1,50.9999984436036,8|0,0:0|0:0,0:0:0:0:
56,100,179528,2,0,L|58:150,1,50.9999984436036
24,252,179710,2,0,P|69:241|135:247,1,101.999996887207,4|0,0:0|0:0,0:0:0:0:
184,292,179982,1,0,0:0:0:0:
184,292,180073,2,0,L|320:280,1,101.999996887207,8|0,0:0|0:0,0:0:0:0:
432,216,180437,6,0,P|437:248|433:278,1,50.9999984436036,4|0,0:0|0:0,0:0:0:0:
285,283,180619,2,0,P|280:251|284:221,1,50.9999984436036
456,188,180800,2,0,P|464:239|457:288,1,101.999996887207,8|0,0:0|0:0,0:0:0:0:
392,332,181073,1,0,0:0:0:0:
392,332,181164,2,0,P|346:317|269:347,1,101.999996887207,4|0,0:0|0:0,0:0:0:0:
224,360,181437,1,0,0:0:0:0:
224,360,181528,6,0,L|164:352,3,50.9999984436036,8|0|0|0,0:0|0:0|0:0|0:0,0:0:0:0:
96,280,181891,2,0,L|45:286,3,50.9999984436036,4|0|0|0,0:0|0:0|0:0|0:0,0:0:0:0:
168,216,182255,6,0,P|175:163|167:112,1,101.999996887207,8|0,0:0|0:0,0:0:0:0:
120,60,182528,1,0,0:0:0:0:
120,60,182619,2,0,L|237:63,1,101.999996887207,4|0,0:0|0:0,0:0:0:0:
300,68,182891,1,0,0:0:0:0:
300,68,182982,2,0,L|296:160,1,50.9999984436036,8|0,0:0|0:0,0:0:0:0:
268,252,183164,2,0,L|265:201,1,50.9999984436036
364,32,183346,2,0,P|417:27|484:47,1,101.999996887207,4|0,0:0|0:0,0:0:0:0:
420,216,183710,6,0,L|408:112,1,101.999996887207,8|0,0:0|0:0,0:0:0:0:
364,280,183982,2,0,L|376:384,1,101.999996887207
432,224,184255,2,0,L|422:138,1,50.9999984436036
327,191,184437,1,8,0:0:0:0:
296,213,184528,1,0,0:0:0:0:
259,222,184619,1,0,0:0:0:0:
221,217,184710,1,0,0:0:0:0:
188,198,184800,2,0,L|133:202,1,50.9999984436036,4|0,0:0|0:0,0:0:0:0:
20,212,184982,2,0,L|28:152,1,50.9999984436036
140,180,185164,6,0,L|123:300,1,101.999996887207,8|0,0:0|0:0,0:0:0:0:
68,356,185437,1,0,0:0:0:0:
68,356,185528,2,0,P|124:352|182:369,1,101.999996887207,4|0,0:0|0:0,0:0:0:0:
248,328,185800,2,0,P|297:339|348:334,1,101.999996887207
428,309,186073,1,0,0:0:0:0:
432,208,186255,2,0,L|428:313,1,101.999996887207,4|0,0:0|0:0,0:0:0:0:
336,256,186619,5,8,0:0:0:0:
496,160,186800,2,0,P|443:130|385:142,1,101.999996887207,0|4,0:0|0:0,0:0:0:0:
388,372,187164,1,0,0:0:0:0:
388,372,187255,2,0,P|438:372|480:345,1,101.999996887207
412,296,187528,2,0,P|361:295|319:322,1,101.999996887207,0|4,0:0|0:0,0:0:0:0:
260,256,187800,1,4,0:0:0:0:
259,205,187891,1,4,0:0:0:0:
258,154,187982,1,4,0:0:0:0:
257,103,188073,6,0,P|222:51|164:42,1,101.999996887207,8|0,0:0|0:0,0:0:0:0:
240,208,188437,2,0,P|302:203|339:157,1,101.999996887207,4|0,0:0|0:0,0:0:0:0:
360,112,188710,2,0,L|350:241,1,101.999996887207,8|0,0:0|0:0,0:0:0:0:
328,284,188982,1,0,0:0:0:0:
328,284,189073,1,0,0:0:0:0:
328,284,189164,2,0,L|334:366,1,50.9999984436036,4|0,0:0|0:0,0:0:0:0:
436,224,189346,2,0,L|439:173,1,50.9999984436036
368,55,189528,6,0,L|240:60,1,101.999996887207,8|0,0:0|0:0,0:0:0:0:
72,176,189891,2,0,L|173:179,1,101.999996887207,4|0,0:0|0:0,0:0:0:0:
244,152,190164,2,0,B|255:203|255:203|228:274,1,101.999996887207,8|0,0:0|0:0,0:0:0:0:
184,308,190437,1,0,0:0:0:0:
184,308,190528,1,0,0:0:0:0:
184,308,190619,2,0,L|124:304,1,50.9999984436036,4|0,0:0|0:0,0:0:0:0:
276,368,190800,2,0,L|326:364,1,50.9999984436036
435,305,190982,6,0,L|432:200,1,101.999996887207,8|0,0:0|0:0,0:0:0:0:
277,274,191346,2,0,L|274:172,1,101.999996887207,4|0,0:0|0:0,0:0:0:0:
314,105,191619,2,0,P|311:47|262:27,1,101.999996887207,8|0,0:0|0:0,0:0:0:0:
208,64,191891,1,0,0:0:0:0:
208,64,191982,1,0,0:0:0:0:
208,64,192073,2,0,P|169:67|133:58,1,50.9999984436036,4|0,0:0|0:0,0:0:0:0:
40,160,192255,2,0,P|79:157|115:166,1,50.9999984436036
169,225,192437,6,0,L|152:340,1,101.999996887207,8|0,0:0|0:0,0:0:0:0:
40,160,192800,2,0,L|57:45,1,101.999996887207,4|0,0:0|0:0,0:0:0:0:
125,28,193073,2,0,P|182:24|222:57,1,101.999996887207,8|0,0:0|0:0,0:0:0:0:
296,40,193346,1,0,0:0:0:0:
296,40,193437,1,0,0:0:0:0:
296,40,193528,2,0,P|331:46|358:42,1,50.9999984436036,4|0,0:0|0:0,0:0:0:0:
476,152,193710,2,0,P|441:158|414:154,1,50.9999984436036
296,264,193891,6,0,P|346:257|396:267,1,101.999996887207,8|0,0:0|0:0,0:0:0:0:
236,364,194255,2,0,P|185:370|135:360,1,101.999996887207,4|0,0:0|0:0,0:0:0:0:
92,292,194528,2,0,P|101:242|96:192,1,101.999996887207,8|0,0:0|0:0,0:0:0:0:
16,236,194800,1,0,0:0:0:0:
16,236,194891,1,0,0:0:0:0:
16,236,194982,2,0,L|28:168,1,50.9999984436036,4|0,0:0|0:0,0:0:0:0:
192,128,195164,2,0,L|204:196,1,50.9999984436036,4|0,0:0|0:0,0:0:0:0:
275,304,195346,6,0,L|384:276,1,101.999996887207,8|0,0:0|0:0,0:0:0:0:
228,372,195710,2,0,P|199:324|216:240,1,101.999996887207,4|0,0:0|0:0,0:0:0:0:
324,240,195982,2,0,P|353:288|336:372,1,101.999996887207,8|0,0:0|0:0,0:0:0:0:
198,279,196255,1,0,0:0:0:0:
198,279,196346,1,0,0:0:0:0:
198,279,196437,2,0,L|112:256,1,50.9999984436036,4|0,0:0|0:0,0:0:0:0:
20,368,196619,2,0,L|106:344,1,50.9999984436036
198,279,196800,6,8,L|204:164,1,101.999996887207,0|0,0:0|0:0,0:0:0:0:
80,72,197164,2,0,L|74:187,1,101.999996887207,4|0,0:0|0:0,0:0:0:0:
200,272,197437,6,0,L|187:157,1,101.999996887207,8|0,0:0|0:0,0:0:0:0:
188,96,197710,1,0,0:0:0:0:
188,96,197800,1,0,0:0:0:0:
188,96,197891,2,0,L|272:80,1,50.9999984436036,4|0,0:0|0:0,0:0:0:0:
312,192,198073,2,0,L|362:201,1,50.9999984436036
482,106,198255,6,0,P|490:151|481:212,1,101.999996887207,8|0,0:0|0:0,0:0:0:0:
311,364,198619,2,0,P|303:314|312:264,1,101.999996887207,4|0,0:0|0:0,0:0:0:0:
362,201,198891,6,0,L|240:208,1,101.999996887207,8|0,0:0|0:0,0:0:0:0:
188,248,199164,1,0,0:0:0:0:
188,248,199255,1,0,0:0:0:0:
188,248,199346,2,0,L|128:244,1,50.9999984436036,4|0,0:0|0:0,0:0:0:0:
0,236,199528,2,0,L|50:232,1,50.9999984436036
260,206,199710,6,0,B|262:238|262:238|272:264|272:264|275:314,1,101.999996887207,8|0,0:0|0:0,0:0:0:0:
452,380,200073,2,0,B|454:337|454:337|464:311|464:311|466:279,1,101.999996887207,4|0,0:0|0:0,0:0:0:0:
405,124,200346,6,0,P|386:186|422:237,1,101.999996887207,8|0,0:0|0:0,0:0:0:0:
508,172,200619,1,0,0:0:0:0:
508,172,200710,1,0,0:0:0:0:
508,172,200800,2,0,P|473:175|432:168,1,50.9999984436036,4|0,0:0|0:0,0:0:0:0:
336,80,200982,2,0,P|310:78|285:81,1,50.9999984436036
156,176,201164,6,2,P|92:156|124:40,1,203.999993774414
356,176,202619,2,2,P|436:128|398:43,1,203.999993774414
84,56,207415,6,0,P|72:102|83:147,1,85
136,196,208189,2,0,P|142:237|130:278,1,85
76,348,208989,2,0,B|148:324|148:324|240:368|340:340,1,255,4|0,0:0|0:0,0:0:0:0:
396,300,210541,6,0,P|409:344|394:389,1,85
320,268,211320,2,0,L|322:179,1,85
376,84,212099,1,4,0:0:0:0:
184,167,213645,6,0,P|132:181|61:136,1,127.5
24,72,214825,6,0,P|72:56|144:92,1,127.5
184,167,215986,6,0,L|176:272,1,85,4|0,0:0|0:0,0:0:0:0:
131,323,216733,2,0,P|165:334|216:326,1,85
340,228,217396,2,0,P|299:216|257:223,2,85
400,324,218464,1,0,0:0:0:0:
428,208,218847,6,0,L|425:117,1,85
308,52,219612,2,0,L|311:143,1,85
428,208,220270,2,0,L|519:205,1,85
310,136,220957,2,0,L|219:139,1,85
42,192,221703,6,0,P|22:148|26:97,1,85
144,192,222425,2,0,P|142:234|124:272,1,85
0,344,223097,2,0,L|92:340,1,85
300,264,223785,2,0,L|215:260,1,85
144,104,224557,5,4,0:0:0:0:
136,112,227824,6,0,P|120:152|128:204,1,85
252,212,228693,2,0,P|268:172|260:120,1,85
192,164,229563,2,0,P|178:228|325:227,1,255
263,127,231302,6,0,L|248:240,1,85
420,168,232171,2,0,P|370:149|326:151,1,85
73,246,233041,2,0,B|121:218|189:242|189:242|269:278|353:222,1,255
272,92,234780,6,0,P|251:135|255:186,1,85
400,212,235650,2,0,P|373:172|327:150,1,85
240,332,236519,2,0,L|440:324,1,170
409,325,238258,6,0,P|431:269|380:168,1,170
296,209,239997,6,0,P|325:249|437:91,1,340
256,32,242606,5,0,0:0:0:0:
137,146,243501,2,0,L|144:333,1,170
336,144,245285,6,0,P|290:121|232:175,1,127.5
268,204,247148,6,0,P|307:171|234:167,1,170
256,192,251907,12,0,254740,0:0:0:0:
92,148,254907,6,0,P|81:105|93:62,1,85,4|0,0:0|0:0,0:0:0:0:
164,28,255240,2,0,P|174:68|165:109,1,85,2|0,0:0|0:0,0:0:0:0:
48,196,255573,2,0,P|121:175|199:255,1,170,0|2,0:0|0:0,0:0:0:0:
127,350,256073,1,0,0:0:0:0:
127,350,256240,2,0,P|84:349|47:329,1,85
85,178,256573,2,0,P|128:180|169:204,1,85,2|0,0:0|0:0,0:0:0:0:
208,284,256907,1,0,0:0:0:0:
1,242,257073,1,0,0:0:0:0:
141,84,257240,1,2,0:0:0:0:
208,284,257407,6,0,B|272:280|272:280|312:288|312:288|380:284,1,170
320,196,257907,1,2,0:0:0:0:
264,372,258073,1,0,0:0:0:0:
139,235,258240,2,0,P|114:179|180:96,1,170,0|2,0:0|0:0,0:0:0:0:
211,281,258740,1,0,0:0:0:0:
211,281,258823,1,0,0:0:0:0:
211,281,258907,6,0,P|154:316|114:313,1,85
71,189,259240,2,0,P|129:220|147:257,1,85,2|0,0:0|0:0,0:0:0:0:
62,357,259573,1,8,0:0:0:0:
67,275,259740,1,8,0:0:0:0:
218,131,259907,1,8,0:0:0:0:
224,212,260073,1,8,0:0:0:0:
59,58,260240,6,0,B|85:24|135:27|135:27|164:72|240:52,1,170,4|2,0:0|0:0,0:0:0:0:
280,24,260740,1,0,0:0:0:0:
112,116,260907,2,0,P|98:158|112:205,1,85
248,256,261240,2,0,P|262:214|248:167,1,85,2|0,0:0|0:0,0:0:0:0:
120,344,261573,2,0,B|160:328|200:344|200:344|245:362|288:344,1,170,0|2,0:0|0:0,0:0:0:0:
408,288,262073,1,0,0:0:0:0:
247,255,262240,2,0,P|232:215|242:174,2,85,0|0|2,0:0|0:0|0:0,0:0:0:0:
328,151,262740,6,0,P|301:108|184:104,1,170
379,64,263240,2,8,P|423:77|466:69,1,85,2|0,0:0|0:0,0:0:0:0:
242,175,263573,2,0,L|248:272,1,85
388,328,263907,2,0,L|382:231,1,85,2|0,0:0|0:0,0:0:0:0:
140,352,264240,6,0,B|204:347|204:347|243:357|243:357|326:352,1,170,4|2,0:0|0:0,0:0:0:0:
464,280,264740,1,0,0:0:0:0:
368,91,264907,1,12,0:0:0:0:
335,302,265073,1,8,0:0:0:0:
485,150,265240,1,8,0:0:0:0:
276,185,265407,1,8,0:0:0:0:
464,280,265573,6,0,P|431:333|328:332,1,170,4|2,0:0|0:0,0:0:0:0:
316,212,266073,1,0,0:0:0:0:
316,212,266240,2,0,P|363:239|385:285,1,85
204,240,266573,2,0,P|203:185|232:143,1,85,2|0,0:0|0:0,0:0:0:0:
285,323,266907,2,0,P|238:350|187:346,1,85
40,296,267240,2,0,L|44:388,1,85,2|0,0:0|0:0,0:0:0:0:
136,248,267573,1,0,0:0:0:0:
136,248,267740,2,0,L|132:156,1,85,0|2,0:0|0:0,0:0:0:0:
24,36,268073,6,0,P|87:86|177:61,1,170
108,8,268573,1,2,0:0:0:0:
64,192,268740,1,0,0:0:0:0:
246,138,268907,2,0,P|326:120|391:170,1,170,0|2,0:0|0:0,0:0:0:0:
315,291,269407,1,0,0:0:0:0:
315,291,269490,1,0,0:0:0:0:
315,291,269573,6,0,L|307:179,1,85,4|0,0:0|0:0,0:0:0:0:
480,116,269907,2,0,L|488:228,1,85,2|0,0:0|0:0,0:0:0:0:
500,344,270240,5,8,0:0:0:0:
392,232,270407,1,8,0:0:0:0:
296,372,270573,1,8,0:0:0:0:
408,156,270740,1,8,0:0:0:0:
414,310,270907,6,0,B|355:325|355:325|216:316,1,170,6|0,0:0|0:0,0:0:0:0:
124,224,271407,1,8,0:0:0:0:
296,144,271573,2,0,P|310:187|300:233,1,85,6|8,0:0|0:0,0:0:0:0:
131,305,271907,2,0,P|117:262|127:216,1,85,6|8,0:0|0:0,0:0:0:0:
296,144,272240,6,0,B|336:160|377:148|377:148|423:132|476:156,1,170,6|6,0:0|0:0,0:0:0:0:
340,76,272740,1,8,0:0:0:0:
340,76,272823,1,8,0:0:0:0:
340,76,272907,1,6,0:0:0:0:
360,324,273073,1,6,0:0:0:0:
360,324,273407,6,0,P|281:361|221:292,1,170,4|0,0:0|0:0,0:0:0:0:
436,248,273907,2,0,P|471:297|471:344,1,85,2|0,0:0|0:0,0:0:0:0:
296,288,274240,1,0,0:0:0:0:
344,116,274407,2,0,L|448:112,1,85,0|2,0:0|0:0,0:0:0:0:
232,164,274740,2,0,P|221:122|225:71,1,85,0|4,0:0|0:0,0:0:0:0:
344,116,275073,5,0,0:0:0:0:
285,326,275240,1,2,0:0:0:0:
131,170,275407,1,0,0:0:0:0:
292,348,275573,2,8,L|408:351,1,85,12|8,0:0|0:0,0:0:0:0:
488,208,275907,2,8,L|372:205,1,85
228,136,276240,6,0,P|197:193|260:296,1,170,4|2,0:0|0:0,0:0:0:0:
292,208,276740,1,0,0:0:0:0:
136,116,276907,2,0,B|93:107|93:107|28:116,1,85
292,208,277240,2,0,B|332:213|332:213|375:204,1,85,2|0,0:0|0:0,0:0:0:0:
136,116,277573,6,0,L|144:296,1,170,0|2,0:0|0:0,0:0:0:0:
92,372,278073,1,0,0:0:0:0:
225,315,278240,2,0,P|264:308|307:318,1,85
468,352,278573,2,0,P|426:358|385:348,1,85,2|0,0:0|0:0,0:0:0:0:
307,150,278907,6,0,B|300:212|300:212|312:260|312:260|304:348,1,170,4|2,0:0|0:0,0:0:0:0:
232,272,279407,1,0,0:0:0:0:
380,196,279573,2,0,P|395:149|315:65,1,170,0|2,0:0|0:0,0:0:0:0:
222,146,280073,2,0,L|322:150,1,85
112,176,280407,2,0,L|116:76,1,85,0|2,0:0|0:0,0:0:0:0:
142,286,280740,2,0,L|42:282,1,85
240,360,281073,1,0,0:0:0:0:
240,360,281157,1,0,0:0:0:0:
240,360,281240,2,0,L|324:356,1,85,2|0,0:0|0:0,0:0:0:0:
428,384,281573,6,0,B|452:336|452:336|440:196,1,170,4|2,0:0|0:0,0:0:0:0:
352,116,282073,1,0,0:0:0:0:
292,276,282240,2,0,P|336:285|383:266,1,85
128,188,282573,2,0,P|86:178|46:191,1,85,2|0,0:0|0:0,0:0:0:0:
212,316,282907,6,0,B|196:272|216:236|216:236|240:192|212:128,1,170,0|2,0:0|0:0,0:0:0:0:
176,32,283407,1,0,0:0:0:0:
303,205,283573,2,0,L|413:202,1,85
456,164,283823,1,0,0:0:0:0:
456,164,283906,2,0,P|467:209|442:261,1,85,2|0,0:0|0:0,0:0:0:0:
348,76,284240,6,0,P|381:43|439:39,1,85,4|0,0:0|0:0,0:0:0:0:
164,76,284573,2,0,P|130:43|72:39,1,85,2|0,0:0|0:0,0:0:0:0:
332,184,284906,2,0,L|428:188,1,85
180,184,285240,2,0,L|84:188,1,85,2|0,0:0|0:0,0:0:0:0:
256,104,285573,6,0,L|256:296,1,170,4|2,0:0|0:0,0:0:0:0:
299,353,286073,1,0,0:0:0:0:
340,208,286240,2,0,P|398:203|442:219,1,85
299,353,286573,2,0,P|241:358|197:342,1,85,2|0,0:0|0:0,0:0:0:0:
92,244,286906,5,4,0:0:0:0:
260,192,287073,2,0,L|252:308,1,85,0|2,0:0|0:0,0:0:0:0:
200,124,287406,2,0,P|272:104|346:170,1,170
260,192,287906,1,2,0:0:0:0:
200,124,288073,2,0,P|128:144|54:78,1,170
140,56,288573,1,2,0:0:0:0:
260,192,288740,2,0,L|248:372,1,170
140,316,289240,1,2,0:0:0:0:
368,237,289406,1,0,0:0:0:0:
140,158,289573,6,8,P|76:174|48:280,1,170,4|2,0:0|0:0,0:0:0:0:
132,248,290073,1,0,0:0:0:0:
225,229,290240,1,0,0:0:0:0:
96,92,290406,1,0,0:0:0:0:
42,264,290573,1,2,0:0:0:0:
292,284,290740,6,0,P|310:220|232:143,1,170,4|0,0:0|0:0,0:0:0:0:
224,136,291156,1,0,0:0:0:0:
224,136,291240,2,0,P|268:141|331:128,1,85,2|0,0:0|0:0,0:0:0:0:
334,356,291573,2,0,P|316:315|273:267,1,85
470,151,291906,2,0,P|443:186|423:247,1,85,2|0,0:0|0:0,0:0:0:0:
500,352,292240,6,0,B|452:367|414:353|414:353|374:339|333:355,1,170,4|2,0:0|0:0,0:0:0:0:
164,300,292740,1,0,0:0:0:0:
296,208,292906,2,0,L|283:313,1,85
156,160,293240,2,0,L|169:55,1,85,2|0,0:0|0:0,0:0:0:0:
428,136,293573,6,0,B|363:138|363:138|315:126|315:126|227:130,1,170,4|2,0:0|0:0,0:0:0:0:
380,56,294073,1,0,0:0:0:0:
307,208,294240,2,0,P|303:260|319:305,1,85
336,312,294490,1,0,0:0:0:0:
336,312,294573,2,0,L|454:310,1,85,2|0,0:0|0:0,0:0:0:0:
344,128,294906,6,0,P|292:124|247:140,1,85,4|0,0:0|0:0,0:0:0:0:
76,208,295240,2,0,P|128:212|173:196,1,85,2|0,0:0|0:0,0:0:0:0:
344,128,295573,2,0,L|352:24,1,85
76,208,295906,2,0,L|82:292,1,85,2|0,0:0|0:0,0:0:0:0:
224,360,296240,6,0,P|301:318|154:273,2,340,4|4|0,0:0|0:0|0:0,0:0:0:0:
256,192,317765,12,0,319799,0:0:0:0:205
111,340,320568,6,0,B|92:229,1,101.999996887207,12|0,0:0|0:0,0:0:0:0:
246,128,320901,2,0,B|227:239,1,101.999996887207,2|0,0:0|0:0,0:0:0:0:
140,76,321234,1,8,0:0:0:0:
354,102,321401,1,0,0:0:0:0:
228,228,321568,1,2,0:0:0:0:
258,50,321734,1,0,0:0:0:0:
392,173,321901,6,0,P|410:222|401:290,2,101.999996887207,8|0|2,0:0|0:0|0:0,0:0:0:0:
293,317,322401,2,0,B|193:353|206:275|89:318,1,203.999993774414
54,338,322818,1,0,0:0:0:0:
54,338,322901,2,0,L|68:220,1,101.999996887207,2|0,0:0|0:0,0:0:0:0:
229,142,323234,6,0,L|243:260,1,101.999996887207,8|0,0:0|0:0,0:0:0:0:
155,79,323568,2,0,P|209:45|245:46,1,101.999996887207,2|0,0:0|0:0,0:0:0:0:
151,185,323901,1,8,0:0:0:0:
328,185,324068,1,0,0:0:0:0:
245,46,324234,1,2,0:0:0:0:
241,243,324401,6,0,B|220:298|220:298|296:257|366:293,1,203.999993774414
402,308,324818,1,0,0:0:0:0:
401,308,324901,2,0,P|416:259|405:210,1,101.999996887207,2|0,0:0|0:0,0:0:0:0:
225,109,325234,2,0,P|267:149|314:160,1,101.999996887207,8|0,0:0|0:0,0:0:0:0:
487,57,325568,2,0,P|430:73|397:108,1,101.999996887207,2|0,0:0|0:0,0:0:0:0:
225,109,325901,6,0,B|119:109,1,101.999996887207,8|0,0:0|0:0,0:0:0:0:
22,219,326234,1,2,0:0:0:0:
53,42,326401,1,0,0:0:0:0:
164,246,326568,2,0,B|274:247,1,101.999996887207,8|0,0:0|0:0,0:0:0:0:
456,206,326901,2,0,P|447:161|451:95,1,101.999996887207,2|0,0:0|0:0,0:0:0:0:
331,181,327234,5,8,0:0:0:0:
502,281,327401,1,0,0:0:0:0:
373,310,327568,1,2,0:0:0:0:
450,106,327734,2,0,P|425:42|300:56,1,203.999993774414
283,88,328151,1,0,0:0:0:0:
283,88,328234,2,0,P|235:107|171:86,1,101.999996887207,2|0,0:0|0:0,0:0:0:0:
15,239,328568,6,0,L|8:138,1,101.999996887207,8|0,0:0|0:0,0:0:0:0:
172,259,328901,2,0,L|165:361,1,101.999996887207,2|0,0:0|0:0,0:0:0:0:
15,239,329234,1,8,0:0:0:0:
246,199,329401,1,0,0:0:0:0:
165,360,329568,1,2,0:0:0:0:
101,175,329734,1,0,0:0:0:0:
332,320,329901,5,8,0:0:0:0:
332,320,329984,1,0,0:0:0:0:
332,320,330068,1,0,0:0:0:0:
339,112,330234,2,0,L|333:-6,1,101.999996887207,2|0,0:0|0:0,0:0:0:0:
155,118,330568,2,0,P|92:127|43:111,1,101.999996887207,8|0,0:0|0:0,0:0:0:0:
197,21,330901,1,2,0:0:0:0:
143,217,331068,1,0,0:0:0:0:
289,71,331234,6,0,B|400:52,1,101.999996887207,12|0,0:0|0:0,0:0:0:0:
512,232,331568,2,0,B|401:213,1,101.999996887207,2|0,0:0|0:0,0:0:0:0:
248,151,331901,1,8,0:0:0:0:
278,321,332068,1,0,0:0:0:0:
411,214,332234,1,2,0:0:0:0:
278,321,332401,1,0,0:0:0:0:
139,218,332568,6,0,B|128:168|128:168|136:103,2,101.999996887207,8|0|2,0:0|0:0|0:0,0:0:0:0:
202,39,333068,2,0,B|252:6|302:26|302:26|339:66|406:38,1,203.999993774414
435,23,333484,1,0,0:0:0:0:
435,23,333568,2,0,B|432:90|432:90|441:133,1,101.999996887207,2|0,0:0|0:0,0:0:0:0:
282,200,333901,6,0,P|233:191|178:201,1,101.999996887207,8|0,0:0|0:0,0:0:0:0:
338,361,334234,2,0,P|387:370|442:360,1,101.999996887207,2|0,0:0|0:0,0:0:0:0:
282,200,334568,1,8,0:0:0:0:
233,374,334734,1,0,0:0:0:0:
388,269,334901,1,2,0:0:0:0:
126,307,335068,6,0,B|89:205|159:210|119:103,1,203.999993774414
89,74,335484,1,0,0:0:0:0:
89,74,335568,2,0,L|198:70,1,101.999996887207,2|0,0:0|0:0,0:0:0:0:
364,10,335901,1,8,0:0:0:0:
283,175,336068,1,0,0:0:0:0:
457,119,336234,2,0,L|457:221,1,101.999996887207,2|0,0:0|0:0,0:0:0:0:
249,306,336568,6,0,B|301:331|357:306,1,101.999996887207,8|0,0:0|0:0,0:0:0:0:
457,119,336901,1,2,0:0:0:0:
490,294,337068,1,0,0:0:0:0:
348,138,337234,2,0,B|296:113|249:134,1,101.999996887207,8|0,0:0|0:0,0:0:0:0:
56,242,337568,2,0,B|108:267|154:245,1,101.999996887207,2|0,0:0|0:0,0:0:0:0:
249,134,337901,5,8,0:0:0:0:
208,327,338068,1,0,0:0:0:0:
109,113,338234,1,2,0:0:0:0:
13,326,338401,2,0,P|110:352|208:328,1,203.999993774414
229,296,338818,1,0,0:0:0:0:
229,296,338901,2,0,L|337:293,1,101.999996887207,2|0,0:0|0:0,0:0:0:0:
508,377,339234,6,0,L|501:276,1,101.999996887207,8|0,0:0|0:0,0:0:0:0:
337,191,339568,2,0,L|330:293,1,101.999996887207,2|0,0:0|0:0,0:0:0:0:
439,115,339901,1,8,0:0:0:0:
218,206,340068,1,0,0:0:0:0:
257,73,340234,1,2,0:0:0:0:
330,292,340401,1,0,0:0:0:0:
257,73,340568,5,8,0:0:0:0:
257,73,340651,1,0,0:0:0:0:
257,73,340734,1,0,0:0:0:0:
86,219,340901,2,0,P|73:270|86:336,1,101.999996887207,2|0,0:0|0:0,0:0:0:0:
278,273,341234,2,0,P|328:282|385:264,1,101.999996887207,8|0,0:0|0:0,0:0:0:0:
178,157,341568,1,2,0:0:0:0:
237,367,341734,1,0,0:0:0:0:
154,141,341901,6,0,L|50:143,1,93.5000028533936,12|0,0:0|0:0,0:0:0:0:
206,25,342234,1,2,0:0:0:0:
183,229,342401,1,0,0:0:0:0:
358,141,342568,2,0,L|462:143,1,93.5000028533936,8|0,0:0|0:0,0:0:0:0:
306,25,342901,1,2,0:0:0:0:
329,229,343068,1,0,0:0:0:0:
52,235,343234,6,0,L|61:128,1,93.5000028533936,8|0,0:0|0:0,0:0:0:0:
256,16,343568,1,2,0:0:0:0:
256,16,343734,1,0,0:0:0:0:
460,235,343901,2,0,L|452:141,1,93.5000028533936,8|0,0:0|0:0,0:0:0:0:
256,16,344234,1,2,0:0:0:0:
255,15,344401,1,0,0:0:0:0:
113,295,344568,6,8,P|162:302|207:291,1,93.5000028533936,0|0,0:0|0:0,0:0:0:0:
252,107,344901,2,0,P|203:100|159:112,1,93.5000028533936,2|0,0:0|0:0,0:0:0:0:
327,237,345234,1,8,0:0:0:0:
299,31,345401,1,0,0:0:0:0:
155,221,345568,1,2,0:0:0:0:
183,15,345734,1,0,0:0:0:0:
327,237,345901,6,0,B|434:234,1,93.5000028533936,8|0,0:0|0:0,0:0:0:0:
234,90,346234,2,0,B|140:88,1,93.5000028533936,2|0,0:0|0:0,0:0:0:0:
32,242,346568,1,8,0:0:0:0:
4,29,346734,1,0,0:0:0:0:
173,230,346901,1,2,0:0:0:0:
201,17,347068,1,0,0:0:0:0:
371,132,347234,6,0,L|374:242,1,93.5000028533936,8|0,0:0|0:0,0:0:0:0:
175,323,347568,2,0,L|173:230,1,93.5000028533936,2|0,0:0|0:0,0:0:0:0:
276,166,347901,2,0,L|279:276,1,93.5000028533936,8|0,0:0|0:0,0:0:0:0:
80,357,348234,2,0,L|78:264,1,93.5000028533936,2|0,0:0|0:0,0:0:0:0:
242,71,348568,6,0,L|352:67,1,93.5000028533936,8|0,0:0|0:0,0:0:0:0:
433,266,348901,2,0,L|339:268,1,93.5000028533936,2|0,0:0|0:0,0:0:0:0:
276,166,349234,2,0,L|386:162,1,93.5000028533936,8|0,0:0|0:0,0:0:0:0:
467,361,349567,2,0,L|373:363,1,93.5000028533936,2|0,0:0|0:0,0:0:0:0:
100,322,349901,5,12,0:0:0:0:
88,121,350067,1,0,0:0:0:0:
190,296,350234,5,10,0:0:0:0:
231,99,350401,1,0,0:0:0:0:
285,294,350567,5,12,0:0:0:0:
374,113,350734,1,0,0:0:0:0:
378,314,350901,5,2,0:0:0:0:
511,167,351067,1,0,0:0:0:0:
231,99,351234,6,0,L|98:108,1,110.499994941712,4|2,0:0|0:0,0:0:0:0:
190,296,351567,2,0,L|323:305,1,110.499994941712,4|2,0:0|0:0,0:0:0:0:
113,229,351901,5,2,0:0:0:0:
399,155,352067,1,2,0:0:0:0:
291,359,352234,5,2,0:0:0:0:
220,24,352401,1,2,0:0:0:0:
256,192,352567,5,2,0:0:0:0:
256,192,352651,12,0,355067,0:0:0:0:
395,64,355234,5,2,3:0:0:0:
256,192,355317,12,0,357734,0:0:0:0:
395,64,357901,5,6,0:0:0:0:
420,296,358068,1,6,0:0:0:0:
117,64,358392,5,6,0:0:0:0:
93,296,358554,1,6,0:0:0:0:
377,281,358878,5,6,0:0:0:0:
372,48,359041,1,6,0:0:0:0:
51,253,359365,5,6,0:0:0:0:
95,24,359527,1,6,0:0:0:0:
371,197,359851,6,0,P|412:191|446:164,1,85,6|0,0:0|0:0,0:0:0:0:
140,186,360176,2,0,P|98:189|64:212,1,85,6|0,0:0|0:0,0:0:0:0:
249,258,360500,6,0,L|257:90,1,127.5,6|0,0:0|0:0,0:0:0:0:
278,59,360993,2,0,P|224:63|175:144,1,127.5,6|0,0:0|0:0,0:0:0:0:
156,188,361480,2,0,P|210:184|259:103,1,127.5,6|0,0:0|0:0,0:0:0:0:
178,115,361964,2,0,B|170:162|170:162|186:263,1,127.5,6|0,0:0|0:0,0:0:0:0:
245,303,362453,6,0,L|339:296,1,85,6|0,0:0|0:0,0:0:0:0:
413,338,362786,2,0,P|419:289|395:238,1,85,6|0,0:0|0:0,0:0:0:0:
300,172,363119,6,0,P|357:195|432:108,1,170
224,0,364126,6,0,L|232:148,1,127.5
296,180,364708,2,0,L|284:320,1,127.5
285,307,365326,6,0,B|240:328|240:328|105:307,1,170
288,224,366317,6,0,P|315:173|427:190,1,170
220,300,368355,6,0,P|124:291|212:148,1,340
180,224,371512,5,0,0:0:0:0:
180,224,372500,6,0,P|252:116|316:228,1,297.5
116,352,375625,6,0,B|110:244|110:244|60:204|60:204|52:64,1,297.5
316,157,379283,6,0,P|255:180|188:143,1,127.5
260,100,382558,6,0,B|272:136|260:157|260:157|274:184|274:184|246:227|272:280,1,170
