osu file format v14

[General]
AudioFilename: audio.mp3
AudioLeadIn: 0
PreviewTime: 32037
Countdown: 0
SampleSet: Soft
StackLeniency: 0.7
Mode: 0
LetterboxInBreaks: 0
WidescreenStoryboard: 1

[Editor]
Bookmarks: 37,6437,19237,32037,51237
DistanceSpacing: 1
BeatDivisor: 4
GridSize: 4
TimelineZoom: 2.3

[Metadata]
Title:Bonetrousle
TitleUnicode:Bonetrousle
Artist:toby fox
ArtistUnicode:toby fox
Creator:Jiysea
Version:Normal
Source:UNDERTALE
Tags:instrumental electronic chiptune radiation papyrus vgm videogame video game ost original soundtrack
BeatmapID:3969333
BeatmapSetID:1916289

[Difficulty]
HPDrainRate:3.5
CircleSize:3.5
OverallDifficulty:5
ApproachRate:6
SliderMultiplier:1.2
SliderTickRate:1

[Events]
//Background and Video events
0,0,"bg.jpg",0,0
//Break Periods
//Storyboard Layer 0 (Background)
//Storyboard Layer 1 (Fail)
//Storyboard Layer 2 (Pass)
//Storyboard Layer 3 (Foreground)
//Storyboard Layer 4 (Overlay)
//Storyboard Sound Samples

[TimingPoints]
33,400,4,2,1,60,1,0
33,-111.111111111111,4,2,1,60,0,0
19233,-111.111111111111,4,2,1,65,0,0
31633,-111.111111111111,4,2,1,50,0,0
32033,-90.9090909090909,4,2,1,70,0,0
51233,-111.111111111111,4,2,1,45,0,0
56033,-111.111111111111,4,2,1,30,0,0

[Colours]
Combo1 : 128,128,128
Combo2 : 192,192,192

[HitObjects]
512,99,33,6,0,L|458:85,1,53.9999983520508,0|0,1:2|0:0,0:0:0:0:
414,55,433,2,0,P|388:61|370:81,1,53.9999983520508,8|2,1:2|0:3,0:0:0:0:
329,116,833,2,0,P|339:142|345:168,1,53.9999983520508,0|2,1:2|0:3,0:0:0:0:
361,218,1233,1,8,1:2:0:0:
282,291,1633,6,0,P|255:283|229:277,1,53.9999983520508,0|0,1:2|0:0,0:0:0:0:
194,236,2033,2,0,P|201:209|207:183,1,53.9999983520508,8|2,1:2|0:3,0:0:0:0:
181,136,2433,2,0,P|154:131|136:111,1,53.9999983520508,0|2,1:2|0:3,0:0:0:0:
133,57,2833,1,8,1:2:0:0:
25,71,3233,6,0,P|17:97|11:123,1,53.9999983520508,0|0,1:2|0:0,0:0:0:0:
48,161,3633,2,0,P|62:184|63:211,1,53.9999983520508,8|2,1:2|0:3,0:0:0:0:
20,244,4033,2,0,P|6:266|5:293,1,53.9999983520508,0|2,1:0|0:3,0:0:0:0:
44,331,4433,1,8,1:2:0:0:
144,371,4833,6,0,P|169:363|196:356,1,53.9999983520508,0|0,1:0|0:0,0:0:0:0:
249,366,5233,2,0,P|267:346|272:320,1,53.9999983520508,8|2,1:2|0:3,0:0:0:0:
246,273,5633,2,0,L|261:218,1,53.9999983520508,0|2,1:0|0:3,0:0:0:0:
311,202,6033,1,8,1:2:0:0:
410,154,6433,5,0,1:0:0:0:
410,154,6633,2,0,L|462:167,2,53.9999983520508,2|10|2,0:0|1:2|0:0,0:0:0:0:
395,100,7233,2,0,P|365:58|313:52,1,107.999996704102,2|10,1:2|1:2,0:0:0:0:
209,23,8033,6,0,P|186:37|175:62,1,53.9999983520508,2|2,1:2|0:0,0:0:0:0:
199,110,8433,2,0,L|92:127,1,107.999996704102,10|2,1:2|1:2,0:0:0:0:
51,163,9033,2,0,P|28:149|17:124,2,53.9999983520508,2|10|2,0:0|1:2|1:2,0:0:0:0:
70,213,9633,5,2,1:2:0:0:
15,306,10033,2,0,L|119:333,1,107.999996704102,10|2,1:2|1:2,0:0:0:0:
170,350,10633,1,2,0:0:0:0:
169,350,10833,2,0,P|190:332|196:307,1,53.9999983520508,10|2,1:2|1:2,0:0:0:0:
186,253,11233,5,2,1:2:0:0:
290,225,11633,2,0,L|317:329,1,107.999996704102,10|2,1:2|1:2,0:0:0:0:
422,357,12433,2,0,L|435:304,1,53.9999983520508,8|0,1:2|1:0,0:0:0:0:
454,256,12833,5,0,1:2:0:0:
454,256,13033,2,0,L|506:269,2,53.9999983520508,2|10|2,0:0|1:2|0:0,0:0:0:0:
429,207,13633,1,2,1:2:0:0:
454,102,14033,2,0,L|349:129,1,107.999996704102,10|2,1:2|1:2,0:0:0:0:
307,103,14633,5,2,0:0:0:0:
307,103,14833,1,10,1:2:0:0:
208,71,15233,1,2,1:2:0:0:
208,71,15433,2,0,P|206:44|219:21,2,53.9999983520508,2|10|2,0:0|1:2|0:0,0:0:0:0:
173,112,16033,6,0,L|121:126,1,53.9999983520508,2|2,1:2|0:0,0:0:0:0:
68,140,16433,1,10,1:2:0:0:
102,247,16833,1,2,1:2:0:0:
102,247,17033,2,0,L|88:299,2,53.9999983520508,2|10|2,0:0|1:2|1:2,0:0:0:0:
155,239,17633,5,2,1:2:0:0:
243,176,18033,2,0,P|280:213|284:266,1,107.999996704102,10|2,1:2|1:2,0:0:0:0:
378,318,18833,2,0,L|430:304,1,53.9999983520508,8|0,1:2|1:2,0:0:0:0:
446,252,19233,5,0,1:2:0:0:
446,252,19433,2,0,P|427:232|423:206,2,53.9999983520508,2|10|2,0:0|1:2|0:0,0:0:0:0:
499,257,20033,1,2,1:2:0:0:
487,364,20433,1,10,1:2:0:0:
383,331,20833,6,0,L|330:344,1,53.9999983520508,2|2,1:2|0:0,0:0:0:0:
278,362,21233,2,0,P|231:340|216:290,1,107.999996704102,10|2,1:2|1:2,0:0:0:0:
183,254,21833,1,2,0:0:0:0:
183,254,22033,2,0,L|192:200,1,53.9999983520508,10|2,1:2|1:2,0:0:0:0:
154,161,22433,5,2,1:2:0:0:
138,54,22833,2,0,P|181:85|234:89,1,107.999996704102,10|2,1:2|1:2,0:0:0:0:
278,57,23433,1,2,0:2:0:0:
278,57,23633,2,0,L|329:42,1,53.9999983520508,10|2,1:2|1:2,0:0:0:0:
382,28,24033,5,2,1:2:0:0:
481,68,24433,2,0,L|453:172,1,107.999996704102,10|2,1:2|1:2,0:0:0:0:
365,235,25233,2,0,L|378:287,1,53.9999983520508,8|0,1:2|1:0,0:0:0:0:
430,315,25633,5,0,1:2:0:0:
430,315,25833,2,0,L|482:328,2,53.9999983520508,2|10|2,0:0|1:2|0:0,0:0:0:0:
404,362,26433,1,2,1:2:0:0:
299,334,26833,2,0,L|271:229,1,107.999996704102,10|2,1:2|1:2,0:0:0:0:
297,184,27433,5,2,0:0:0:0:
297,184,27633,1,10,1:2:0:0:
199,150,28033,1,2,1:2:0:0:
199,150,28233,2,0,P|179:167|171:193,2,53.9999983520508,2|10|2,0:0|1:2|1:2,0:0:0:0:
225,102,28833,6,0,L|210:50,1,53.9999983520508,2|2,1:2|0:0,0:0:0:0:
252,16,29233,1,10,1:2:0:0:
361,44,29633,1,2,1:2:0:0:
361,44,29833,2,0,L|413:57,2,53.9999983520508,2|10|2,0:2|1:2|1:2,0:0:0:0:
320,79,30433,5,2,1:2:0:0:
401,149,30833,2,0,P|405:201|443:238,1,107.999996704102,10|2,1:2|1:2,0:0:0:0:
254,370,32033,5,4,1:2:0:0:
254,370,32233,2,0,L|236:306,1,66.0000020141602,2|10,0:2|1:2,0:0:0:0:
176,278,32633,1,2,0:2:0:0:
191,213,32833,2,0,L|318:246,1,132.00000402832,2|10,1:2|1:2,0:0:0:0:
418,159,33633,6,0,P|412:127|387:106,1,66.0000020141602,2|2,1:2|0:0,0:0:0:0:
374,41,34033,2,0,L|244:63,1,132.00000402832,10|2,1:2|1:2,0:0:0:0:
113,83,34833,2,0,L|101:147,1,66.0000020141602,10|2,1:2|1:2,0:0:0:0:
58,198,35233,6,0,P|5:235|0:298,1,132.00000402832,2|10,1:2|1:2,0:0:0:0:
40,350,35833,1,2,0:0:0:0:
102,330,36033,1,2,1:2:0:0:
195,237,36433,1,10,1:2:0:0:
259,252,36633,1,2,1:2:0:0:
281,314,36833,6,0,L|314:186,1,132.00000402832,2|10,1:2|1:2,0:0:0:0:
378,171,37433,1,2,0:0:0:0:
373,106,37633,2,0,P|347:47|286:28,1,132.00000402832,2|8,1:2|1:2,0:0:0:0:
158,34,38433,5,0,1:2:0:0:
158,34,38633,2,0,L|175:98,1,66.0000020141602,2|10,0:0|1:2,0:0:0:0:
225,140,39033,1,2,0:0:0:0:
195,199,39233,2,0,L|66:165,1,132.00000402832,2|10,1:2|1:2,0:0:0:0:
2,280,40033,6,0,P|6:311|31:332,1,66.0000020141602,2|2,1:2|0:0,0:0:0:0:
86,370,40433,2,0,L|215:347,1,132.00000402832,10|2,1:2|1:2,0:0:0:0:
344,317,41233,2,0,L|355:252,1,66.0000020141602,10|2,1:2|1:2,0:0:0:0:
322,194,41633,6,0,P|270:156|265:92,1,132.00000402832,2|10,1:2|1:2,0:0:0:0:
310,43,42233,1,2,0:0:0:0:
373,59,42433,1,2,1:2:0:0:
488,122,42833,1,10,1:2:0:0:
450,176,43033,1,2,1:2:0:0:
488,229,43233,6,0,L|505:293,1,66.0000020141602,2|2,1:2|0:0,0:0:0:0:
461,342,43633,2,0,P|443:368|411:377,1,66.0000020141602,10|2,1:2|0:0,0:0:0:0:
359,336,44033,2,0,L|231:302,1,132.00000402832,2|8,1:2|1:2,0:0:0:0:
103,318,44833,5,4,1:2:0:0:
103,318,45033,2,0,P|82:293|82:260,1,66.0000020141602,2|10,0:0|1:2,0:0:0:0:
120,206,45433,1,2,0:0:0:0:
184,192,45633,2,0,L|311:225,1,132.00000402832,2|10,1:2|1:2,0:0:0:0:
441,249,46433,6,0,L|423:185,1,66.0000020141602,2|2,1:2|0:0,0:0:0:0:
460,130,46833,2,0,P|410:89|346:95,1,132.00000402832,10|2,1:2|1:2,0:0:0:0:
237,20,47633,2,0,P|214:43|208:75,1,66.0000020141602,10|2,1:2|1:2,0:0:0:0:
156,115,48033,6,0,L|28:150,1,132.00000402832,2|10,1:2|1:2,0:0:0:0:
2,210,48633,1,2,0:0:0:0:
43,261,48833,1,2,1:2:0:0:
160,321,49233,1,10,1:2:0:0:
185,260,49433,1,2,1:2:0:0:
164,197,49633,6,0,L|292:230,1,132.00000402832,2|10,1:2|1:2,0:0:0:0:
350,199,50233,1,2,0:0:0:0:
414,212,50433,2,0,P|468:246|477:309,1,132.00000402832,2|8,1:2|1:2,0:0:0:0:
380,351,51233,5,0,1:2:0:0:
380,351,51433,2,0,L|327:364,2,53.9999983520508,2|2|2,0:2|0:2|0:2,0:0:0:0:
368,298,52033,1,2,0:0:0:0:
432,211,52433,2,0,L|459:106,1,107.999996704102,2|2,0:0|0:0,0:0:0:0:
434,64,53033,5,2,0:0:0:0:
434,64,53233,1,2,0:0:0:0:
332,28,53633,1,2,0:0:0:0:
256,105,54033,2,0,L|197:89,1,53.9999983520508,2|2,0:0|0:0,0:0:0:0:
151,76,54433,6,0,L|136:24,2,53.9999983520508,2|2|2,0:0|0:0|0:0,0:0:0:0:
107,105,55033,1,2,0:0:0:0:
107,105,55233,2,0,P|65:136|61:188,1,107.999996704102,2|2,0:0|0:0,0:0:0:0:
95,291,56033,2,0,L|147:304,1,53.9999983520508,2|2,0:0|0:0,0:0:0:0:
199,320,56433,1,2,0:0:0:0:
290,263,56833,1,2,0:0:0:0:
197,206,57233,5,2,0:0:0:0:
