osu file format v14

[General]
AudioFilename: audio.mp3
AudioLeadIn: 0
PreviewTime: 32037
Countdown: 0
SampleSet: Soft
StackLeniency: 0.7
Mode: 0
LetterboxInBreaks: 0
WidescreenStoryboard: 1

[Editor]
Bookmarks: 37,6437,19237,32037,51237
DistanceSpacing: 1.2
BeatDivisor: 4
GridSize: 8
TimelineZoom: 2.3

[Metadata]
Title:Bonetrousle
TitleUnicode:Bonetrousle
Artist:toby fox
ArtistUnicode:toby fox
Creator:Jiysea
Version:Insane
Source:UNDERTALE
Tags:instrumental electronic chiptune radiation papyrus vgm videogame video game ost original soundtrack
BeatmapID:3969332
BeatmapSetID:1916289

[Difficulty]
HPDrainRate:5
CircleSize:4
OverallDifficulty:8
ApproachRate:9
SliderMultiplier:2.2
SliderTickRate:1

[Events]
//Background and Video events
0,0,"bg.jpg",0,0
//Break Periods
//Storyboard Layer 0 (Background)
//Storyboard Layer 1 (Fail)
//Storyboard Layer 2 (Pass)
//Storyboard Layer 3 (Foreground)
//Storyboard Layer 4 (Overlay)
//Storyboard Sound Samples

[TimingPoints]
33,400,4,2,1,60,1,0
33,-133.333333333333,4,2,1,60,0,0
7533,-133.333333333333,4,2,1,5,0,0
7633,-133.333333333333,4,2,1,60,0,0
8733,-133.333333333333,4,2,1,5,0,0
8833,-133.333333333333,4,2,1,60,0,0
10333,-133.333333333333,4,2,1,5,0,0
10433,-133.333333333333,4,2,1,60,0,0
11933,-133.333333333333,4,2,1,5,0,0
12033,-133.333333333333,4,2,1,60,0,0
14333,-133.333333333333,4,2,1,5,0,0
14433,-133.333333333333,4,2,1,60,0,0
15133,-133.333333333333,4,2,1,5,0,0
15233,-133.333333333333,4,2,1,60,0,0
16733,-133.333333333333,4,2,1,5,0,0
16833,-133.333333333333,4,2,1,60,0,0
19233,-133.333333333333,4,2,1,65,0,0
20333,-133.333333333333,4,2,1,5,0,0
20433,-133.333333333333,4,2,1,65,0,0
21533,-133.333333333333,4,2,1,5,0,0
21633,-133.333333333333,4,2,1,65,0,0
23133,-133.333333333333,4,2,1,5,0,0
23233,-133.333333333333,4,2,1,65,0,0
24733,-133.333333333333,4,2,1,5,0,0
24833,-133.333333333333,4,2,1,65,0,0
27133,-133.333333333333,4,2,1,5,0,0
27233,-133.333333333333,4,2,1,65,0,0
27933,-133.333333333333,4,2,1,5,0,0
28033,-133.333333333333,4,2,1,65,0,0
29533,-133.333333333333,4,2,1,5,0,0
29633,-133.333333333333,4,2,1,65,0,0
31633,-133.333333333333,4,2,1,50,0,0
32033,-100,4,2,1,70,0,0
33133,-100,4,2,1,5,0,0
33233,-100,4,2,1,70,0,0
34333,-100,4,2,1,5,0,0
34433,-100,4,2,1,70,0,0
36333,-100,4,2,1,5,0,0
36433,-100,4,2,1,70,0,0
39533,-100,4,2,1,5,0,0
39633,-100,4,2,1,70,0,0
40733,-100,4,2,1,5,0,0
40833,-100,4,2,1,70,0,0
42733,-100,4,2,1,5,0,0
42833,-100,4,2,1,70,0,0
45933,-100,4,2,1,5,0,0
46033,-100,4,2,1,70,0,0
47133,-100,4,2,1,5,0,0
47233,-100,4,2,1,70,0,0
49133,-100,4,2,1,5,0,0
49233,-100,4,2,1,70,0,0
51233,-200,4,2,1,45,0,0
53533,-200,4,2,1,5,0,0
53633,-200,4,2,1,45,0,0
56033,-200,4,2,1,30,0,0

[Colours]
Combo1 : 128,128,128
Combo2 : 192,192,192

[HitObjects]
81,215,33,5,0,1:2:0:0:
59,289,233,1,0,0:0:0:0:
81,215,433,2,0,P|93:169|106:120,1,82.5000031471254,8|2,1:2|0:3,0:0:0:0:
236,53,833,2,0,P|273:69|292:104,1,82.5000031471254,0|2,1:2|0:3,0:0:0:0:
371,237,1233,1,8,1:2:0:0:
309,295,1433,1,0,1:2:0:0:
282,212,1633,5,0,1:2:0:0:
371,237,1833,1,0,0:0:0:0:
282,211,2033,2,0,P|311:173|359:169,1,82.5000031471254,8|2,1:2|0:3,0:0:0:0:
512,243,2433,2,0,P|471:239|443:209,1,82.5000031471254,0|2,1:2|0:3,0:0:0:0:
387,52,2833,1,8,1:2:0:0:
449,0,3033,1,0,1:2:0:0:
512,153,3233,5,0,1:2:0:0:
464,82,3433,1,0,0:0:0:0:
512,153,3633,2,0,P|465:140|418:127,1,82.5000031471254,8|2,1:2|0:3,0:0:0:0:
308,26,4033,2,0,P|267:27|235:52,1,82.5000031471254,0|2,1:0|0:3,0:0:0:0:
152,172,4433,1,8,1:2:0:0:
228,193,4633,1,0,1:0:0:0:
312,218,4833,5,0,1:0:0:0:
286,137,5033,1,0,0:0:0:0:
312,218,5233,2,0,P|300:265|287:312,1,82.5000031471254,8|2,1:2|0:3,0:0:0:0:
123,366,5633,2,0,P|112:326|101:286,1,82.5000031471254,0|2,1:0|0:3,0:0:0:0:
0,216,6033,1,8,1:2:0:0:
34,151,6233,1,0,1:0:0:0:
0,40,6433,5,0,1:0:0:0:
79,0,6633,1,2,0:2:0:0:
165,31,6833,1,10,1:2:0:0:
165,31,7033,1,2,0:0:0:0:
69,82,7233,2,0,P|143:101|210:120,1,123.750004720688,2|0,1:2|0:0,0:0:0:0:
201,117,7633,2,0,P|238:100|255:64,1,82.5000031471254,10|0,1:2|1:2,0:0:0:0:
411,0,8033,5,2,1:2:0:0:
345,46,8233,1,2,0:0:0:0:
498,161,8433,2,0,P|467:98|397:89,1,123.750004720688,10|0,1:2|0:0,0:0:0:0:
419,84,8833,1,2,1:2:0:0:
340,202,9033,1,2,0:0:0:0:
418,171,9233,1,10,1:2:0:0:
418,171,9433,1,2,1:2:0:0:
425,331,9633,6,0,P|413:283|399:236,1,82.5000031471254,2|2,1:2|0:0,0:0:0:0:
263,177,10033,2,0,P|202:183|162:228,1,123.750004720688,10|0,1:2|0:0,0:0:0:0:
162,228,10433,1,2,1:2:0:0:
254,340,10633,1,2,0:0:0:0:
249,260,10833,1,10,1:2:0:0:
249,260,11033,1,2,1:2:0:0:
79,308,11233,6,0,P|38:318|0:330,1,82.5000031471254,2|2,1:2|0:0,0:0:0:0:
81,201,11633,2,0,P|16:173|3:104,1,123.750004720688,10|0,1:2|0:0,0:0:0:0:
0,126,12033,1,2,1:2:0:0:
0,126,12433,1,8,1:2:0:0:
67,86,12633,1,0,1:0:0:0:
204,151,12833,5,0,1:0:0:0:
299,165,13033,1,2,0:2:0:0:
359,102,13233,1,10,1:2:0:0:
359,102,13433,1,2,0:0:0:0:
245,0,13633,1,2,1:2:0:0:
506,96,13933,2,0,L|511:115,1,20.6250007867813,2|2,0:2|0:2,0:0:0:0:
512,116,14033,2,0,P|452:124|424:176,1,123.750004720688,10|0,1:2|0:0,0:0:0:0:
424,176,14433,5,2,1:2:0:0:
512,236,14633,1,2,0:0:0:0:
386,310,14833,2,0,P|326:293|266:278,1,123.750004720688,10|0,1:2|0:0,0:0:0:0:
266,278,15233,1,2,1:2:0:0:
198,331,15433,1,2,0:0:0:0:
46,241,15633,1,10,1:2:0:0:
46,241,15833,1,2,0:0:0:0:
139,221,16033,5,2,1:2:0:0:
109,304,16233,1,2,0:0:0:0:
0,165,16433,2,0,P|35:116|95:111,1,123.750004720688,10|0,1:2|0:0,0:0:0:0:
95,111,16833,1,2,1:2:0:0:
61,32,17033,1,2,0:0:0:0:
179,0,17233,1,10,1:2:0:0:
179,0,17433,1,2,1:2:0:0:
302,97,17633,6,0,P|291:136|280:176,1,82.5000031471254,2|2,1:2|0:0,0:0:0:0:
139,221,18033,2,0,L|118:226,4,20.6250007867813,10|2|2|2|2,1:2|0:0|0:0|0:0|0:0,0:0:0:0:
195,141,18433,1,2,1:2:0:0:
195,141,18833,1,8,1:2:0:0:
100,115,19033,1,0,1:2:0:0:
287,0,19233,5,0,1:0:0:0:
225,58,19433,1,2,0:2:0:0:
280,176,19633,1,10,1:2:0:0:
371,155,19833,1,2,0:0:0:0:
465,273,20033,2,0,P|405:256|344:243,1,123.750004720688,2|0,1:2|0:0,0:0:0:0:
337,241,20433,2,0,P|302:261|284:298,1,82.5000031471254,10|0,1:2|1:2,0:0:0:0:
119,384,20833,5,2,1:2:0:0:
57,312,21033,1,2,0:0:0:0:
213,380,21233,2,0,P|196:323|130:296,1,123.750004720688,10|0,1:2|0:0,0:0:0:0:
141,296,21633,1,2,1:2:0:0:
0,242,21833,1,2,0:0:0:0:
90,228,22033,1,10,1:2:0:0:
90,228,22233,1,2,1:2:0:0:
168,91,22433,5,2,1:2:0:0:
120,25,22633,1,2,0:0:0:0:
0,120,22833,2,0,P|59:135|119:151,1,123.750004720688,10|0,1:2|0:0,0:0:0:0:
119,151,23233,1,2,1:2:0:0:
283,98,23433,1,2,0:2:0:0:
227,34,23633,1,10,1:2:0:0:
227,34,23833,1,2,1:2:0:0:
287,213,24033,6,0,P|308:178|346:163,1,82.5000031471254,2|2,1:2|0:0,0:0:0:0:
512,13,24433,2,0,P|473:59|413:69,1,123.750004720688,10|0,1:2|0:0,0:0:0:0:
413,69,24833,1,2,1:2:0:0:
413,69,25233,1,8,1:2:0:0:
365,0,25433,1,0,1:0:0:0:
512,137,25633,5,0,1:0:0:0:
428,159,25833,1,2,0:2:0:0:
395,242,26033,1,10,1:2:0:0:
395,242,26233,1,2,0:0:0:0:
483,314,26433,1,2,1:2:0:0:
168,368,26733,2,0,L|148:362,1,20.6250007867813,2|2,0:2|0:2,0:0:0:0:
148,362,26833,2,0,P|132:302|115:242,1,123.750004720688,10|0,1:2|0:0,0:0:0:0:
115,242,27233,5,2,1:2:0:0:
41,299,27433,1,2,0:0:0:0:
244,348,27633,2,0,P|263:290|238:235,1,123.750004720688,10|0,1:2|0:0,0:0:0:0:
238,235,28033,1,2,1:2:0:0:
323,194,28233,1,2,0:0:0:0:
182,99,28433,1,10,1:2:0:0:
182,99,28633,1,2,1:2:0:0:
245,159,28833,5,2,1:2:0:0:
380,71,29033,1,2,0:0:0:0:
341,0,29233,2,0,P|325:59|309:119,1,123.750004720688,10|0,1:2|0:0,0:0:0:0:
309,119,29633,1,2,1:2:0:0:
400,182,29833,1,2,0:2:0:0:
335,335,30033,1,10,1:2:0:0:
335,335,30233,1,2,1:2:0:0:
476,289,30433,6,0,P|430:276|396:267,1,82.5000031471254,2|2,1:2|0:0,0:0:0:0:
423,369,30833,2,0,L|402:374,4,20.6250007867813,10|2|2|2|2,1:2|0:0|0:0|0:0|0:0,0:0:0:0:
512,384,31233,1,2,1:2:0:0:
484,172,31633,5,8,0:3:0:0:
471,165,31733,1,8,0:3:0:0:
481,157,31833,1,8,0:3:0:0:
185,48,32033,5,4,1:2:0:0:
185,48,32233,1,2,0:2:0:0:
231,241,32433,1,10,1:2:0:0:
265,165,32633,1,2,0:2:0:0:
196,314,32833,2,0,P|131:267|129:188,1,165,2|0,1:2|0:0,0:0:0:0:
135,184,33233,2,0,P|83:171|28:155,1,110,10|0,1:2|1:2,0:0:0:0:
315,0,33633,5,2,1:2:0:0:
259,56,33833,1,2,0:0:0:0:
349,185,34033,2,0,P|428:162|508:141,1,165,10|0,1:2|0:0,0:0:0:0:
508,141,34433,1,2,1:2:0:0:
444,25,34633,1,2,1:2:0:0:
438,41,34733,1,2,0:2:0:0:
432,56,34833,1,10,1:2:0:0:
333,84,35033,1,2,1:2:0:0:
512,287,35233,6,0,P|478:244|425:237,1,110,2|0,1:2|0:0,0:0:0:0:
419,241,35533,1,2,0:0:0:0:
413,244,35633,1,10,1:2:0:0:
344,322,35833,1,2,0:0:0:0:
150,166,36033,2,0,P|184:238|261:259,1,165,2|0,1:2|0:0,0:0:0:0:
272,254,36433,1,10,1:2:0:0:
340,178,36633,1,2,1:2:0:0:
168,59,36833,6,0,P|114:45|61:30,1,110,2|0,1:2|0:0,0:0:0:0:
60,38,37133,1,2,0:2:0:0:
58,45,37233,1,10,1:2:0:0:
232,0,37433,1,2,0:0:0:0:
83,126,37633,2,0,P|30:139|0:183,1,110,2|0,1:2|1:2,0:0:0:0:
112,291,38033,1,8,1:2:0:0:
93,204,38233,1,0,1:2:0:0:
58,375,38433,5,0,1:2:0:0:
58,375,38633,1,2,0:0:0:0:
284,330,38833,1,10,1:2:0:0:
220,270,39033,1,2,0:0:0:0:
440,222,39233,2,0,P|415:312|398:381,1,165,2|0,1:2|0:0,0:0:0:0:
389,384,39633,2,0,P|400:339|417:275,1,110,10|0,1:2|1:0,0:0:0:0:
303,118,40033,5,2,1:2:0:0:
327,204,40233,1,2,0:0:0:0:
503,117,40433,2,0,P|424:107|388:36,1,165,10|0,1:2|0:0,0:0:0:0:
388,36,40833,1,2,1:2:0:0:
497,0,41033,1,2,0:2:0:0:
489,15,41133,1,2,0:2:0:0:
482,29,41233,1,10,1:2:0:0:
503,117,41433,1,2,1:2:0:0:
327,204,41633,6,0,P|274:188|220:175,1,110,2|0,1:2|0:0,0:0:0:0:
219,181,41933,1,2,0:2:0:0:
217,188,42033,1,10,1:2:0:0:
144,273,42233,1,2,0:0:0:0:
61,64,42433,2,0,P|5:121|13:200,1,165,2|0,1:2|0:0,0:0:0:0:
18,206,42833,2,0,P|71:192|124:177,1,110,10|2,1:2|1:2,0:0:0:0:
319,122,43233,5,2,1:2:0:0:
156,76,43433,1,2,0:0:0:0:
264,20,43633,1,10,1:2:0:0:
239,93,43833,1,2,0:0:0:0:
327,204,44033,2,0,L|319:230,1,27.5,2|2,1:2|0:2,0:0:0:0:
318,239,44133,2,0,P|397:218|477:196,1,165,2|10,0:0|1:2,0:0:0:0:
506,111,44633,1,0,1:2:0:0:
464,301,44833,5,4,1:2:0:0:
464,301,45033,1,2,0:0:0:0:
365,355,45233,1,10,1:2:0:0:
150,285,45433,1,2,0:0:0:0:
270,382,45633,2,0,B|293:338|258:301|254:308|250:315|212:279|233:226,1,165,2|0,1:2|0:0,0:0:0:0:
236,229,46033,2,0,P|172:213|110:195,1,110,10|0,1:2|1:2,0:0:0:0:
218,0,46433,5,2,1:2:0:0:
283,46,46633,1,2,0:0:0:0:
113,121,46833,2,0,P|36:97|8:23,1,165,10|0,1:2|0:0,0:0:0:0:
8,23,47233,1,2,1:2:0:0:
197,84,47433,1,2,1:2:0:0:
203,100,47533,1,2,0:2:0:0:
209,114,47633,1,10,1:2:0:0:
129,200,47833,1,2,1:2:0:0:
270,382,48033,6,0,P|241:336|253:283,1,110,2|0,1:2|0:0,0:0:0:0:
259,281,48333,1,2,0:2:0:0:
266,279,48433,1,10,1:2:0:0:
355,240,48633,1,2,0:0:0:0:
512,374,48833,2,0,L|352:332,1,165,2|0,1:2|0:0,0:0:0:0:
352,323,49233,1,10,1:2:0:0:
422,384,49433,1,2,0:2:0:0:
512,173,49633,6,0,P|465:146|456:93,1,110,2|0,1:2|0:0,0:0:0:0:
463,90,49933,1,2,0:0:0:0:
470,87,50033,1,10,1:2:0:0:
388,14,50233,1,2,0:0:0:0:
255,177,50433,2,0,P|307:161|361:148,1,110,2|0,1:2|1:2,0:0:0:0:
421,209,50833,1,8,1:2:0:0:
352,323,51033,1,0,1:2:0:0:
123,248,51233,5,0,1:2:0:0:
123,248,51433,1,2,0:2:0:0:
104,169,51633,1,2,0:2:0:0:
87,90,51833,1,2,0:2:0:0:
240,27,52033,2,0,P|232:53|226:80,1,55,2|0,0:0|0:0,0:0:0:0:
157,53,52333,1,2,0:0:0:0:
157,53,52433,2,0,L|140:-9,1,55,2|0,0:0|0:0,0:0:0:0:
309,183,52833,5,2,0:0:0:0:
386,168,53033,1,2,0:0:0:0:
386,168,53233,2,0,P|421:177|465:189,1,82.5,2|0,0:0|0:0,0:0:0:0:
465,189,53633,1,2,0:0:0:0:
511,58,53933,1,2,0:0:0:0:
511,58,54033,2,0,L|447:43,1,55,2|2,0:0|0:0,0:0:0:0:
237,1,54433,5,2,0:0:0:0:
279,108,54633,1,2,0:0:0:0:
381,56,54833,1,2,0:0:0:0:
308,36,55033,1,2,0:0:0:0:
136,75,55233,2,0,P|82:88|29:103,1,110,2|2,0:0|0:0,0:0:0:0:
120,302,56033,6,0,P|142:307|172:317,1,55,2|2,0:0|0:0,0:0:0:0:
212,196,56433,2,0,P|195:212|172:234,1,55,2|0,0:0|0:0,0:0:0:0:
261,330,56833,2,0,P|255:307|247:276,1,55,2|0,0:0|0:0,0:0:0:0:
120,302,57233,5,2,0:0:0:0:
