osu file format v14

[General]
AudioFilename: audio.mp3
AudioLeadIn: 0
PreviewTime: 32037
Countdown: 0
SampleSet: Soft
StackLeniency: 0.7
Mode: 0
LetterboxInBreaks: 0
WidescreenStoryboard: 1

[Editor]
Bookmarks: 37,6437,19237,32037,51237
DistanceSpacing: 1.2
BeatDivisor: 4
GridSize: 4
TimelineZoom: 2.3

[Metadata]
Title:Bonetrousle
TitleUnicode:Bonetrousle
Artist:toby fox
ArtistUnicode:toby fox
Creator:Jiysea
Version:Hard
Source:UNDERTALE
Tags:instrumental electronic chiptune radiation papyrus vgm videogame video game ost original soundtrack
BeatmapID:3969331
BeatmapSetID:1916289

[Difficulty]
HPDrainRate:4.5
CircleSize:3.8
OverallDifficulty:6.5
ApproachRate:8
SliderMultiplier:1.8
SliderTickRate:1

[Events]
//Background and Video events
0,0,"bg.jpg",0,0
//Break Periods
//Storyboard Layer 0 (Background)
//Storyboard Layer 1 (Fail)
//Storyboard Layer 2 (Pass)
//Storyboard Layer 3 (Foreground)
//Storyboard Layer 4 (Overlay)
//Storyboard Sound Samples

[TimingPoints]
33,400,4,2,1,60,1,0
33,-133.333333333333,4,2,1,60,0,0
19233,-133.333333333333,4,2,1,65,0,0
31633,-133.333333333333,4,2,1,50,0,0
32033,-100,4,2,1,70,0,0
33133,-100,4,2,1,5,0,0
33233,-100,4,2,1,70,0,0
34333,-100,4,2,1,5,0,0
34433,-100,4,2,1,70,0,0
36333,-100,4,2,1,5,0,0
36433,-100,4,2,1,70,0,0
39533,-100,4,2,1,5,0,0
39633,-100,4,2,1,70,0,0
40733,-100,4,2,1,5,0,0
40833,-100,4,2,1,70,0,0
42733,-100,4,2,1,5,0,0
42833,-100,4,2,1,70,0,0
45933,-100,4,2,1,5,0,0
46033,-100,4,2,1,70,0,0
47133,-100,4,2,1,5,0,0
47233,-100,4,2,1,70,0,0
49133,-100,4,2,1,5,0,0
49233,-100,4,2,1,70,0,0
51233,-200,4,2,1,45,0,0
56033,-200,4,2,1,30,0,0

[Colours]
Combo1 : 128,128,128
Combo2 : 192,192,192

[HitObjects]
23,351,33,5,0,1:2:0:0:
23,351,233,1,0,0:0:0:0:
81,305,433,2,0,P|107:323|116:355,1,67.5000025749208,8|2,1:2|0:3,0:0:0:0:
188,372,833,2,0,P|220:361|253:354,1,67.5000025749208,0|2,1:2|0:3,0:0:0:0:
329,342,1233,1,8,1:2:0:0:
397,370,1433,1,0,1:2:0:0:
458,326,1633,5,0,1:2:0:0:
458,326,1833,1,0,0:0:0:0:
423,255,2033,2,0,P|429:221|440:189,1,67.5000025749208,8|2,1:2|0:3,0:0:0:0:
488,132,2433,2,0,P|481:98|470:66,1,67.5000025749208,0|2,1:2|0:3,0:0:0:0:
417,14,2833,1,8,1:2:0:0:
346,37,3033,1,0,1:2:0:0:
355,114,3233,5,0,1:2:0:0:
355,114,3433,1,0,0:0:0:0:
311,174,3633,2,0,P|278:163|245:156,1,67.5000025749208,8|2,1:2|0:3,0:0:0:0:
173,173,4033,2,0,P|146:154|137:122,1,67.5000025749208,0|2,1:0|0:3,0:0:0:0:
147,48,4433,1,8,1:2:0:0:
77,23,4633,1,0,1:0:0:0:
17,64,4833,5,0,1:0:0:0:
17,64,5033,1,0,0:0:0:0:
48,131,5233,2,0,P|37:166|30:196,1,67.5000025749208,8|2,1:2|0:3,0:0:0:0:
2,264,5633,2,0,P|25:287|58:290,1,67.5000025749208,0|2,1:0|0:3,0:0:0:0:
114,338,6033,1,8,1:2:0:0:
182,308,6233,1,0,1:0:0:0:
172,236,6433,5,0,1:0:0:0:
172,236,6633,2,0,P|135:227|106:219,2,67.5000025749208,2|10|2,0:0|1:2|0:0,0:0:0:0:
234,198,7233,2,0,P|284:155|280:91,1,135.000005149842,2|10,1:2|1:2,0:0:0:0:
327,33,7833,1,0,1:2:0:0:
397,56,8033,6,0,P|429:47|462:37,1,67.5000025749208,2|2,1:2|0:0,0:0:0:0:
494,104,8433,2,0,P|444:146|448:210,1,135.000005149842,10|2,1:2|1:2,0:0:0:0:
498,266,9033,1,2,0:0:0:0:
465,332,9233,1,10,1:2:0:0:
465,332,9433,1,2,1:2:0:0:
393,310,9633,6,0,P|360:301|327:292,1,67.5000025749208,2|2,1:2|0:0,0:0:0:0:
261,325,10033,2,0,P|217:276|151:273,1,135.000005149842,10|2,1:2|1:2,0:0:0:0:
82,244,10633,2,0,P|50:253|34:282,2,67.5000025749208,2|10|2,0:0|1:2|1:2,0:0:0:0:
124,181,11233,6,0,P|129:149|115:118,1,67.5000025749208,2|2,1:2|0:0,0:0:0:0:
46,90,11633,2,0,P|111:73|176:55,1,135.000005149842,10|2,1:2|1:2,0:0:0:0:
305,129,12433,1,8,1:2:0:0:
363,83,12633,1,0,1:0:0:0:
324,17,12833,5,0,1:2:0:0:
324,17,13033,2,0,P|360:8|389:0,2,67.5000025749208,2|10|2,0:0|1:2|0:0,0:0:0:0:
250,38,13633,1,2,1:2:0:0:
206,132,13933,1,2,0:2:0:0:
210,142,14033,2,0,P|220:176|228:207,1,67.5000025749208,10|0,1:2|0:0,0:0:0:0:
203,277,14433,6,0,P|234:287|257:311,1,67.5000025749208,2|2,1:2|0:0,0:0:0:0:
314,358,14833,2,0,P|371:324|382:260,1,135.000005149842,10|2,1:2|1:2,0:0:0:0:
335,202,15433,1,2,0:0:0:0:
373,139,15633,1,10,1:2:0:0:
373,139,15833,1,2,0:0:0:0:
438,174,16033,6,0,P|471:165|504:156,1,67.5000025749208,2|2,1:2|0:0,0:0:0:0:
471,88,16433,2,0,P|412:63|413:0,1,135.000005149842,10|2,1:2|1:2,0:0:0:0:
329,26,17033,2,0,P|292:16|263:7,2,67.5000025749208,2|10|2,0:0|1:2|1:2,0:0:0:0:
309,97,17633,6,0,P|277:106|258:133,1,67.5000025749208,2|2,1:2|0:0,0:0:0:0:
190,164,18033,2,0,L|157:173,2,33.7500012874604,10|2|2,1:2|0:0|0:0,0:0:0:0:
229,227,18433,1,2,1:2:0:0:
371,267,18833,1,8,1:2:0:0:
412,328,19033,1,0,1:2:0:0:
352,372,19233,5,0,1:2:0:0:
352,372,19433,2,0,P|319:362|286:354,2,67.5000025749208,2|10|2,0:0|1:2|0:0,0:0:0:0:
411,328,20033,2,0,P|469:297|479:232,1,135.000005149842,2|10,1:2|1:2,0:0:0:0:
445,166,20633,1,0,1:2:0:0:
374,142,20833,6,0,P|342:152|308:159,1,67.5000025749208,2|2,1:2|0:0,0:0:0:0:
258,214,21233,2,0,P|193:200|161:143,1,135.000005149842,10|2,1:2|1:2,0:0:0:0:
103,97,21833,1,2,0:0:0:0:
40,133,22033,1,10,1:2:0:0:
40,133,22233,1,2,1:2:0:0:
72,199,22433,6,0,P|68:231|45:255,1,67.5000025749208,2|2,1:2|0:0,0:0:0:0:
17,323,22833,2,0,P|82:338|147:356,1,135.000005149842,10|2,1:2|1:2,0:0:0:0:
202,306,23433,2,0,P|180:280|180:247,2,67.5000025749208,2|10|2,0:2|1:2|1:2,0:0:0:0:
270,335,24033,6,0,P|302:325|335:318,1,67.5000025749208,2|2,1:2|0:0,0:0:0:0:
402,349,24433,2,0,P|415:295|436:218,1,135.000005149842,10|2,1:2|1:2,0:0:0:0:
481,76,25233,1,8,1:2:0:0:
413,107,25433,1,0,1:0:0:0:
351,65,25633,5,0,1:2:0:0:
351,65,25833,2,0,P|341:32|332:0,2,67.5000025749208,2|10|2,0:0|1:2|0:0,0:0:0:0:
289,107,26433,1,2,1:2:0:0:
188,75,26733,1,2,0:0:0:0:
184,86,26833,2,0,P|147:96|119:104,1,67.5000025749208,10|0,1:2|0:0,0:0:0:0:
72,161,27233,6,0,P|66:193|82:222,1,67.5000025749208,2|2,1:2|0:0,0:0:0:0:
120,286,27633,2,0,P|175:248|241:247,1,135.000005149842,10|2,1:2|1:2,0:0:0:0:
315,259,28233,1,2,0:0:0:0:
370,209,28433,1,10,1:2:0:0:
370,209,28633,1,2,1:2:0:0:
443,217,28833,6,0,P|452:250|461:283,1,67.5000025749208,2|2,1:2|0:0,0:0:0:0:
508,339,29233,2,0,P|443:320|377:303,1,135.000005149842,10|2,1:2|1:2,0:0:0:0:
325,356,29833,2,0,P|292:365|260:374,2,67.5000025749208,2|10|2,0:2|1:2|1:2,0:0:0:0:
307,283,30433,6,0,P|275:274|256:247,1,67.5000025749208,2|2,1:2|0:0,0:0:0:0:
307,193,30833,2,0,L|316:160,2,33.7500012874604,10|2|2,1:2|0:0|0:0,0:0:0:0:
238,163,31233,1,2,1:2:0:0:
107,225,31633,1,8,0:3:0:0:
104,237,31733,1,8,0:3:0:0:
102,248,31833,1,8,0:3:0:0:
171,333,32033,5,4,1:2:0:0:
171,333,32233,1,2,0:2:0:0:
266,360,32433,2,0,P|305:348|352:336,1,90,10|2,1:2|0:2,0:0:0:0:
445,305,32833,2,0,P|456:240|417:187,1,135,2|0,1:2|0:0,0:0:0:0:
407,180,33233,2,0,P|352:195|320:203,1,90,10|0,1:2|1:2,0:0:0:0:
230,162,33633,5,2,1:2:0:0:
279,76,33833,1,2,0:0:0:0:
196,21,34033,2,0,P|134:39|120:102,1,135,10|0,1:2|0:0,0:0:0:0:
130,111,34433,1,2,1:2:0:0:
86,199,34633,2,0,P|42:186|0:175,2,90,2|10|2,1:2|1:2|1:2,0:0:0:0:
106,295,35233,6,0,P|171:276|236:260,1,135,2|2,1:2|0:0,0:0:0:0:
248,256,35633,2,0,P|279:286|283:330,1,90,10|2,1:2|0:0,0:0:0:0:
371,377,36033,2,0,P|375:311|425:268,1,135,2|0,1:2|0:0,0:0:0:0:
436,266,36433,1,10,1:2:0:0:
494,186,36633,1,2,1:2:0:0:
405,140,36833,6,0,P|391:97|380:53,1,90,2|0,1:2|0:0,0:0:0:0:
383,47,37133,1,2,0:2:0:0:
387,39,37233,1,10,1:2:0:0:
291,26,37433,1,2,0:0:0:0:
245,112,37633,2,0,P|258:160|268:198,1,90,2|0,1:2|1:2,0:0:0:0:
342,265,38033,2,0,P|346:308|317:341,1,90,8|0,1:2|1:2,0:0:0:0:
224,367,38433,5,0,1:2:0:0:
224,367,38633,1,2,0:0:0:0:
151,299,38833,2,0,P|111:287|64:275,1,90,10|2,1:2|0:0,0:0:0:0:
115,189,39233,2,0,P|115:124|58:95,1,135,2|0,1:2|0:0,0:0:0:0:
48,86,39633,2,0,P|91:84|122:52,1,90,10|0,1:2|1:0,0:0:0:0:
216,22,40033,5,2,1:2:0:0:
302,70,40233,1,2,0:0:0:0:
244,150,40433,2,0,P|262:214|278:280,1,135,10|0,1:2|0:0,0:0:0:0:
282,291,40833,1,2,1:2:0:0:
375,323,41033,2,0,P|405:354|449:355,2,90,2|10|2,0:0|1:2|1:2,0:0:0:0:
360,224,41633,6,0,P|393:167|458:156,1,135,2|2,1:2|0:2,0:0:0:0:
470,160,42033,2,0,P|466:116|435:85,1,90,10|2,1:2|0:0,0:0:0:0:
360,19,42433,2,0,P|294:37|229:53,1,135,2|0,1:2|0:0,0:0:0:0:
218,58,42833,2,0,P|174:47|131:34,1,90,10|2,1:2|1:2,0:0:0:0:
41,76,43233,5,2,1:2:0:0:
56,173,43433,1,2,0:0:0:0:
72,270,43633,1,10,1:2:0:0:
89,367,43833,1,2,0:0:0:0:
184,354,44033,1,2,1:2:0:0:
187,344,44133,2,0,P|224:289|205:227,1,135,2|10,0:0|1:2,0:0:0:0:
140,152,44633,1,0,1:2:0:0:
215,87,44833,5,4,1:2:0:0:
215,87,45033,1,2,0:0:0:0:
310,112,45233,2,0,P|353:123|396:136,1,90,10|2,1:2|0:0,0:0:0:0:
470,69,45633,2,0,P|520:108|508:171,1,135,2|0,1:2|0:0,0:0:0:0:
497,183,46033,2,0,P|485:226|473:270,1,90,10|0,1:2|1:2,0:0:0:0:
390,323,46433,5,2,1:2:0:0:
301,279,46633,1,2,0:0:0:0:
234,351,46833,2,0,P|172:333|158:270,1,135,10|0,1:2|0:0,0:0:0:0:
165,258,47233,1,2,1:2:0:0:
107,177,47433,2,0,P|125:143|173:125,2,90,2|10|2,1:2|1:2|1:2,0:0:0:0:
229,193,48033,6,0,P|294:174|359:158,1,135,2|2,1:2|0:2,0:0:0:0:
371,154,48433,2,0,P|356:112|318:90,1,90,10|2,1:2|0:0,0:0:0:0:
252,16,48833,2,0,P|231:78|171:107,1,135,2|0,1:2|0:0,0:0:0:0:
162,106,49233,1,10,1:2:0:0:
69,69,49433,1,2,1:2:0:0:
29,157,49633,6,0,P|15:200|4:244,1,90,2|0,1:2|0:0,0:0:0:0:
9,252,49933,1,2,0:0:0:0:
15,260,50033,1,10,1:2:0:0:
78,331,50233,1,2,0:0:0:0:
166,299,50433,2,0,P|136:266|137:222,1,90,2|0,1:2|1:2,0:0:0:0:
231,190,50833,2,0,P|260:222|259:266,1,90,8|0,1:2|1:2,0:0:0:0:
238,349,51233,5,0,1:2:0:0:
238,349,51433,2,0,P|256:352|281:360,1,45,2|2,0:2|0:2,0:0:0:0:
351,335,51833,1,2,0:2:0:0:
370,262,52033,2,0,P|374:242|380:218,1,45,2|0,0:0|0:0,0:0:0:0:
449,188,52433,2,0,P|465:147|443:110,1,90,2|2,0:0|0:0,0:0:0:0:
378,71,53033,5,2,0:0:0:0:
378,71,53233,2,0,P|332:85|291:94,1,90,2|2,0:0|0:0,0:0:0:0:
202,58,53933,1,2,0:0:0:0:
195,67,54033,2,0,L|151:55,1,45,2|2,0:0|0:0,0:0:0:0:
75,68,54433,6,0,P|56:82|48:102,1,45,2|2,0:0|0:0,0:0:0:0:
3,163,54833,2,0,P|16:181|36:189,1,45,2|2,0:0|0:0,0:0:0:0:
115,180,55233,1,2,0:0:0:0:
115,180,55633,1,2,0:0:0:0:
190,295,56033,6,0,L|233:306,1,45,2|2,0:0|0:0,0:0:0:0:
297,261,56433,2,0,L|285:217,1,45,2|0,0:0|0:0,0:0:0:0:
215,189,56833,2,0,L|183:220,1,45,2|0,0:0|0:0,0:0:0:0:
190,295,57233,5,2,0:0:0:0:
