osu file format v14

[General]
AudioFilename: audio.mp3
AudioLeadIn: 0
PreviewTime: 32037
Countdown: 0
SampleSet: Soft
StackLeniency: 0.4
Mode: 0
LetterboxInBreaks: 0
WidescreenStoryboard: 0

[Editor]
Bookmarks: 37,6437,19237,32037,51237
DistanceSpacing: 1.2
BeatDivisor: 4
GridSize: 8
TimelineZoom: 2.3

[Metadata]
Title:Bonetrousle
TitleUnicode:Bonetrousle
Artist:toby fox
ArtistUnicode:toby fox
Creator:Jiysea
Version:Extra
Source:UNDERTALE
Tags:instrumental electronic chiptune radiation papyrus vgm videogame video game ost original soundtrack
BeatmapID:3953949
BeatmapSetID:1916289

[Difficulty]
HPDrainRate:5
CircleSize:4.4
OverallDifficulty:8.5
ApproachRate:9.2
SliderMultiplier:2.6
SliderTickRate:1

[Events]
//Background and Video events
0,0,"bg.jpg",0,0
//Break Periods
//Storyboard Layer 0 (Background)
//Storyboard Layer 1 (Fail)
//Storyboard Layer 2 (Pass)
//Storyboard Layer 3 (Foreground)
//Storyboard Layer 4 (Overlay)
//Storyboard Sound Samples

[TimingPoints]
33,400,4,2,1,60,1,0
33,-153.846153846154,4,2,1,60,0,0
6433,-133.333333333333,4,2,1,60,0,0
7533,-133.333333333333,4,2,1,5,0,0
7633,-133.333333333333,4,2,1,60,0,0
8733,-133.333333333333,4,2,1,5,0,0
8833,-133.333333333333,4,2,1,60,0,0
10333,-133.333333333333,4,2,1,5,0,0
10433,-133.333333333333,4,2,1,60,0,0
11933,-133.333333333333,4,2,1,5,0,0
12033,-133.333333333333,4,2,1,60,0,0
14333,-133.333333333333,4,2,1,5,0,0
14433,-133.333333333333,4,2,1,60,0,0
15133,-133.333333333333,4,2,1,5,0,0
15233,-133.333333333333,4,2,1,60,0,0
16733,-133.333333333333,4,2,1,5,0,0
16833,-133.333333333333,4,2,1,60,0,0
19233,-133.333333333333,4,2,1,65,0,0
20333,-133.333333333333,4,2,1,5,0,0
20433,-133.333333333333,4,2,1,65,0,0
21533,-133.333333333333,4,2,1,5,0,0
21633,-133.333333333333,4,2,1,65,0,0
23133,-133.333333333333,4,2,1,5,0,0
23233,-133.333333333333,4,2,1,65,0,0
24733,-133.333333333333,4,2,1,5,0,0
24833,-133.333333333333,4,2,1,65,0,0
27133,-133.333333333333,4,2,1,5,0,0
27233,-133.333333333333,4,2,1,65,0,0
27933,-133.333333333333,4,2,1,5,0,0
28033,-133.333333333333,4,2,1,65,0,0
29533,-133.333333333333,4,2,1,5,0,0
29633,-133.333333333333,4,2,1,65,0,0
31633,-133.333333333333,4,2,1,50,0,0
32033,-100,4,2,1,70,0,0
33133,-100,4,2,1,5,0,0
33233,-100,4,2,1,70,0,0
34333,-100,4,2,1,5,0,0
34433,-100,4,2,1,70,0,0
34733,-100,4,2,1,5,0,0
34833,-100,4,2,1,70,0,0
36333,-100,4,2,1,5,0,0
36433,-100,4,2,1,70,0,0
39533,-100,4,2,1,5,0,0
39633,-100,4,2,1,70,0,0
40733,-100,4,2,1,5,0,0
40833,-100,4,2,1,70,0,0
41133,-100,4,2,1,5,0,0
41233,-100,4,2,1,70,0,0
42733,-100,4,2,1,5,0,0
42833,-100,4,2,1,70,0,0
45933,-100,4,2,1,5,0,0
46033,-100,4,2,1,70,0,0
47133,-100,4,2,1,5,0,0
47233,-100,4,2,1,70,0,0
47533,-100,4,2,1,5,0,0
47633,-100,4,2,1,70,0,0
49133,-100,4,2,1,5,0,0
49233,-100,4,2,1,70,0,0
51233,-200,4,2,1,45,0,0
53533,-200,4,2,1,5,0,0
53633,-200,4,2,1,45,0,0
56033,-200,4,2,1,30,0,0

[Colours]
Combo1 : 128,128,128
Combo2 : 192,192,192

[HitObjects]
510,109,33,5,0,1:2:0:0:
384,37,233,1,0,0:0:0:0:
406,189,433,2,0,P|418:143|429:97,1,84.4999961318971,8|2,1:2|0:3,0:0:0:0:
237,172,833,2,0,P|262:212|308:222,1,84.4999961318971,0|2,1:2|0:3,0:0:0:0:
411,198,1233,1,8,1:2:0:0:
360,371,1433,1,0,1:2:0:0:
483,281,1633,5,0,1:2:0:0:
407,299,1833,1,0,0:0:0:0:
277,384,2033,2,0,P|242:351|241:303,1,84.4999961318971,8|2,1:2|0:3,0:0:0:0:
46,192,2433,2,0,P|58:239|70:284,1,84.4999961318971,0|2,1:2|0:3,0:0:0:0:
7,371,2833,1,8,1:2:0:0:
154,331,3033,1,0,1:2:0:0:
198,178,3233,5,0,1:2:0:0:
145,245,3433,1,0,0:0:0:0:
0,123,3633,2,0,P|47:110|92:98,1,84.4999961318971,8|2,1:2|0:3,0:0:0:0:
282,46,4033,2,0,P|318:76|322:123,1,84.4999961318971,0|2,1:0|0:3,0:0:0:0:
191,167,4433,1,8,1:2:0:0:
313,308,4633,1,0,1:0:0:0:
278,229,4833,5,0,1:0:0:0:
224,294,5033,1,0,0:0:0:0:
400,344,5233,2,0,P|447:356|493:369,1,84.4999961318971,8|2,1:2|0:3,0:0:0:0:
470,110,5633,2,0,P|457:157|445:203,1,84.4999961318971,0|2,1:0|0:3,0:0:0:0:
278,229,6033,1,8,1:2:0:0:
353,152,6233,1,0,1:0:0:0:
220,0,6433,5,0,1:0:0:0:
192,84,6633,1,2,0:2:0:0:
270,141,6833,1,10,1:2:0:0:
270,141,7033,1,2,0:0:0:0:
181,288,7233,2,0,P|107:307|40:326,1,146.250005578995,2|0,1:2|0:0,0:0:0:0:
40,326,7633,2,0,P|5:294|5:246,1,97.50000371933,10|0,1:2|1:2,0:0:0:0:
166,159,8033,5,2,1:2:0:0:
100,223,8233,1,2,0:0:0:0:
269,384,8433,2,0,P|332:353|341:283,1,146.250005578995,10|0,1:2|0:0,0:0:0:0:
341,283,8833,1,2,1:2:0:0:
268,272,9033,1,2,0:0:0:0:
481,194,9233,1,10,1:2:0:0:
481,194,9433,1,2,1:2:0:0:
451,355,9633,6,0,P|439:307|425:260,1,97.50000371933,2|2,1:2|0:0,0:0:0:0:
512,98,10033,2,0,P|460:48|390:55,1,146.250005578995,10|0,1:2|0:0,0:0:0:0:
390,55,10433,1,2,1:2:0:0:
306,7,10633,1,2,0:0:0:0:
354,205,10833,1,10,1:2:0:0:
412,136,11033,1,2,1:2:0:0:
254,189,11233,6,0,P|207:174|159:163,1,97.50000371933,2|2,1:2|0:0,0:0:0:0:
86,16,11633,2,0,P|21:44|8:113,1,146.250005578995,10|0,1:2|0:0,0:0:0:0:
7,112,12033,1,2,1:2:0:0:
241,330,12433,1,8,1:2:0:0:
166,357,12633,1,0,1:0:0:0:
66,241,12833,5,0,1:2:0:0:
137,279,13033,1,2,0:2:0:0:
213,252,13233,1,10,1:2:0:0:
213,252,13433,1,2,0:0:0:0:
301,379,13633,1,2,1:2:0:0:
491,169,13933,1,2,0:2:0:0:
491,169,13983,1,2,0:2:0:0:
491,169,14033,2,0,P|424:154|406:87,1,146.250005578995,10|0,1:2|0:0,0:0:0:0:
406,87,14433,5,2,1:2:0:0:
500,75,14633,1,2,0:0:0:0:
332,24,14833,2,0,P|261:43|190:61,1,146.250005578995,10|0,1:2|0:0,0:0:0:0:
190,61,15233,1,2,1:2:0:0:
86,42,15433,1,2,0:0:0:0:
16,117,15633,1,10,1:2:0:0:
16,117,15833,1,2,0:0:0:0:
138,224,16033,5,2,1:2:0:0:
113,133,16233,1,2,0:0:0:0:
0,268,16433,2,0,P|72:287|141:305,1,146.250005578995,10|0,1:2|0:0,0:0:0:0:
141,305,16833,1,2,1:2:0:0:
99,384,17033,1,2,0:0:0:0:
260,346,17233,1,10,1:2:0:0:
222,278,17433,1,2,1:2:0:0:
408,162,17633,6,0,P|407:209|373:242,1,97.50000371933,2|2,1:2|0:0,0:0:0:0:
246,188,18033,2,0,L|222:194,4,24.3750009298325,10|2|2|2|2,1:2|0:0|0:0|0:0|0:0,0:0:0:0:
324,136,18433,1,2,1:2:0:0:
512,368,18833,1,8,1:2:0:0:
410,325,19033,1,0,1:2:0:0:
409,165,19233,5,0,1:0:0:0:
463,248,19433,1,2,0:2:0:0:
290,360,19633,1,10,1:2:0:0:
333,270,19833,1,2,0:0:0:0:
284,347,20033,2,0,P|215:362|142:384,1,146.250005578995,2|0,1:2|0:0,0:0:0:0:
142,384,20433,2,0,P|102:357|89:310,1,97.50000371933,10|0,1:2|1:2,0:0:0:0:
151,152,20833,5,2,1:2:0:0:
22,249,21033,1,2,0:0:0:0:
172,300,21233,2,0,P|210:239|277:213,1,146.250005578995,10|0,1:2|0:0,0:0:0:0:
277,213,21633,1,2,1:2:0:0:
424,307,21833,1,2,0:0:0:0:
369,374,22033,1,10,1:2:0:0:
369,374,22233,1,2,1:2:0:0:
370,238,22433,5,2,1:2:0:0:
512,206,22633,1,2,0:0:0:0:
457,40,22833,2,0,P|437:118|419:181,1,146.250005578995,10|0,1:2|0:0,0:0:0:0:
419,181,23233,1,2,1:2:0:0:
266,111,23433,1,2,0:2:0:0:
371,34,23633,1,10,1:2:0:0:
347,108,23833,1,2,1:2:0:0:
119,49,24033,6,0,P|147:10|193:0,1,97.50000371933,2|2,1:2|0:0,0:0:0:0:
303,191,24433,2,0,P|232:193|183:141,1,146.250005578995,10|0,1:2|0:0,0:0:0:0:
183,141,24833,1,2,1:2:0:0:
7,349,25233,1,8,1:2:0:0:
125,380,25433,1,0,1:0:0:0:
161,237,25633,5,0,1:0:0:0:
86,293,25833,1,2,0:2:0:0:
200,324,26033,1,10,1:2:0:0:
200,324,26233,1,2,0:0:0:0:
361,269,26433,1,2,1:2:0:0:
45,38,26733,1,2,0:0:0:0:
45,38,26783,1,2,0:0:0:0:
45,38,26833,2,0,P|66:111|83:179,1,146.250005578995,10|0,1:2|0:0,0:0:0:0:
83,179,27233,5,2,1:2:0:0:
23,258,27433,1,2,0:0:0:0:
198,328,27633,2,0,P|259:293|270:223,1,146.250005578995,10|0,1:2|0:0,0:0:0:0:
270,223,28033,1,2,1:2:0:0:
426,184,28233,1,2,0:0:0:0:
394,344,28433,1,10,1:2:0:0:
394,344,28633,1,2,1:2:0:0:
369,256,28833,5,2,1:2:0:0:
454,278,29033,1,2,0:0:0:0:
512,86,29233,2,0,P|446:103|370:123,1,146.250005578995,10|0,1:2|0:0,0:0:0:0:
370,123,29633,1,2,1:2:0:0:
274,51,29833,1,2,0:2:0:0:
181,228,30033,1,10,1:2:0:0:
247,185,30233,1,2,1:2:0:0:
101,75,30433,6,0,P|99:122|132:156,1,97.50000371933,2|2,1:2|0:0,0:0:0:0:
255,188,30833,2,0,L|279:194,4,24.3750009298325,10|2|2|2|2,1:2|0:0|0:0|0:0|0:0,0:0:0:0:
211,99,31233,1,2,1:2:0:0:
45,357,31633,5,8,0:3:0:0:
21,342,31733,1,8,0:3:0:0:
21,372,31833,1,8,0:3:0:0:
365,315,32033,5,4,1:2:0:0:
365,315,32233,1,2,0:2:0:0:
268,360,32433,1,10,1:2:0:0:
466,323,32633,1,2,0:2:0:0:
338,115,32833,2,0,B|329:222|244:145|241:284,1,195,2|0,1:2|0:0,0:0:0:0:
235,278,33233,2,0,P|172:288|127:245,1,130,10|0,1:2|1:2,0:0:0:0:
0,119,33633,5,2,1:2:0:0:
254,70,33833,1,2,0:0:0:0:
73,104,34033,2,0,P|113:19|206:0,1,195,10|0,1:2|0:0,0:0:0:0:
206,0,34433,1,2,1:2:0:0:
37,253,34633,2,0,P|28:218|20:190,1,65,2|0,1:2|0:0,0:0:0:0:
0,119,34833,1,10,1:2:0:0:
159,168,35033,1,2,1:2:0:0:
0,341,35233,6,0,P|61:327|110:367,1,130,2|0,1:2|0:0,0:0:0:0:
108,374,35533,1,2,0:0:0:0:
106,381,35633,1,10,1:2:0:0:
283,332,35833,1,2,0:0:0:0:
220,107,36033,2,0,P|175:189|215:274,1,195,2|0,1:2|0:0,0:0:0:0:
226,280,36433,1,10,1:2:0:0:
282,180,36633,1,2,1:2:0:0:
512,365,36833,6,0,P|449:362|420:307,1,130,2|0,1:2|0:0,0:0:0:0:
420,301,37133,1,2,0:2:0:0:
422,294,37233,1,10,1:2:0:0:
501,260,37433,1,2,0:0:0:0:
282,180,37633,2,0,P|269:131|249:54,1,130,2|0,1:2|1:2,0:0:0:0:
366,217,38033,1,8,1:2:0:0:
435,171,38233,1,0,1:2:0:0:
422,294,38433,5,0,1:2:0:0:
422,294,38633,1,2,0:0:0:0:
297,261,38833,1,10,1:2:0:0:
154,372,39033,1,2,0:0:0:0:
4,216,39233,2,0,P|97:218|151:295,1,195,2|0,1:2|0:0,0:0:0:0:
145,299,39633,2,0,P|130:239|167:188,1,130,10|0,1:2|1:0,0:0:0:0:
370,44,40033,5,2,1:2:0:0:
338,137,40233,1,2,0:0:0:0:
271,0,40433,2,0,P|177:26|82:49,1,195,10|0,1:2|0:0,0:0:0:0:
82,49,40833,1,2,1:2:0:0:
241,212,41033,2,0,P|262:189|262:157,1,65,2|0,0:0|0:0,0:0:0:0:
214,99,41233,1,10,1:2:0:0:
126,135,41433,1,2,1:2:0:0:
265,318,41633,6,0,P|307:271|370:271,1,130,2|0,1:2|0:0,0:0:0:0:
373,277,41933,1,2,0:2:0:0:
375,284,42033,1,10,1:2:0:0:
455,384,42233,1,2,0:0:0:0:
512,199,42433,2,0,B|504:75|428:161|415:29,1,195,2|0,1:2|0:0,0:0:0:0:
419,34,42833,2,0,B|365:24|341:68|341:68|345:94|324:111,1,130,10|2,1:2|1:2,0:0:0:0:
217,250,43233,5,2,1:2:0:0:
28,199,43433,1,2,0:0:0:0:
79,11,43633,1,10,1:2:0:0:
267,61,43833,1,2,0:0:0:0:
319,135,44033,5,2,1:2:0:0:
319,135,44083,1,2,0:0:0:0:
319,135,44133,2,0,P|219:161|123:189,1,195,2|10,0:0|1:2,0:0:0:0:
131,187,44633,1,0,1:2:0:0:
428,257,44833,5,4,1:2:0:0:
428,257,45033,1,2,0:0:0:0:
399,342,45233,1,10,1:2:0:0:
349,201,45433,1,2,0:0:0:0:
512,334,45633,2,0,P|462:252|473:156,1,195,2|0,1:2|0:0,0:0:0:0:
480,148,46033,2,0,P|416:132|354:114,1,130,10|0,1:2|1:2,0:0:0:0:
222,0,46433,5,2,1:2:0:0:
347,194,46633,1,2,0:0:0:0:
391,35,46833,2,0,P|298:54|258:139,1,195,10|0,1:2|0:0,0:0:0:0:
258,139,47233,1,2,1:2:0:0:
69,34,47433,2,0,P|98:45|114:72,1,65,2|0,1:2|0:0,0:0:0:0:
85,136,47633,1,10,1:2:0:0:
0,173,47833,1,2,1:2:0:0:
175,382,48033,6,0,P|161:321|201:272,1,130,2|0,1:2|0:0,0:0:0:0:
207,270,48333,1,2,0:2:0:0:
214,268,48433,1,10,1:2:0:0:
295,343,48633,1,2,0:0:0:0:
71,219,48833,2,0,L|272:167,1,195,2|0,1:2|0:0,0:0:0:0:
268,168,49233,1,10,1:2:0:0:
184,95,49433,1,2,1:2:0:0:
475,230,49633,6,0,P|492:289|450:335,1,130,2|0,1:2|0:0,0:0:0:0:
442,337,49933,1,2,0:0:0:0:
435,340,50033,1,10,1:2:0:0:
301,264,50233,1,2,0:0:0:0:
512,157,50433,2,0,P|495:94|479:31,1,130,2|0,1:2|1:2,0:0:0:0:
288,0,50833,1,8,1:2:0:0:
376,94,51033,1,0,1:2:0:0:
156,197,51233,5,0,1:2:0:0:
156,197,51433,1,2,0:2:0:0:
72,181,51633,1,2,0:2:0:0:
8,233,51833,1,2,0:2:0:0:
105,316,52033,2,0,P|136:323|167:332,1,65,2|0,0:0|0:0,0:0:0:0:
214,278,52333,1,2,0:0:0:0:
214,278,52433,2,0,L|276:261,1,65,2|0,0:0|0:0,0:0:0:0:
394,344,52833,5,2,0:0:0:0:
359,256,53033,1,2,0:0:0:0:
397,351,53233,2,0,P|437:320|446:273,1,97.5,2|0,0:0|0:0,0:0:0:0:
446,276,53633,1,2,0:0:0:0:
366,168,53933,1,2,0:0:0:0:
366,168,53983,1,2,0:0:0:0:
366,168,54033,2,0,L|302:183,1,65,2|2,0:0|0:0,0:0:0:0:
132,94,54433,5,2,0:0:0:0:
232,151,54633,1,2,0:0:0:0:
153,172,54833,1,2,0:0:0:0:
211,73,55033,1,2,0:0:0:0:
148,181,55233,2,0,B|100:167|73:206|73:206|82:231|69:252,1,130,2|2,0:0|0:0,0:0:0:0:
351,381,56033,6,0,P|374:359|375:327,1,65,2|2,0:0|0:0,0:0:0:0:
268,276,56433,2,0,P|275:306|301:324,1,65,2|0,0:0|0:0,0:0:0:0:
393,254,56833,2,0,P|362:244|334:259,1,65,2|0,0:0|0:0,0:0:0:0:
351,381,57233,5,2,0:0:0:0:
