osu file format v14

[General]
AudioFilename: audio.mp3
AudioLeadIn: 0
PreviewTime: 32037
Countdown: 0
SampleSet: Soft
StackLeniency: 0.7
Mode: 0
LetterboxInBreaks: 0
WidescreenStoryboard: 1

[Editor]
Bookmarks: 37,6437,19237,32037,51237
DistanceSpacing: 1
BeatDivisor: 1
GridSize: 4
TimelineZoom: 2.3

[Metadata]
Title:Bonetrousle
TitleUnicode:Bonetrousle
Artist:toby fox
ArtistUnicode:toby fox
Creator:Jiysea
Version:Easy
Source:UNDERTALE
Tags:instrumental electronic chiptune radiation papyrus vgm videogame video game ost original soundtrack
BeatmapID:3969330
BeatmapSetID:1916289

[Difficulty]
HPDrainRate:3
CircleSize:3
OverallDifficulty:3
ApproachRate:4
SliderMultiplier:1
SliderTickRate:1

[Events]
//Background and Video events
0,0,"bg.jpg",0,0
//Break Periods
//Storyboard Layer 0 (Background)
//Storyboard Layer 1 (Fail)
//Storyboard Layer 2 (Pass)
//Storyboard Layer 3 (Foreground)
//Storyboard Layer 4 (Overlay)
//Storyboard Sound Samples

[TimingPoints]
33,400,4,2,1,60,1,0
33,-100,4,2,1,60,0,0
19233,-100,4,2,1,65,0,0
31633,-100,4,2,1,50,0,0
32033,-100,4,2,1,70,0,0
51233,-100,4,2,1,45,0,0
56033,-100,4,2,1,30,0,0

[Colours]
Combo1 : 128,128,128
Combo2 : 192,192,192

[HitObjects]
491,384,33,6,0,B|528:336|509:270|447:254|443:267|439:278|379:263|349:198|393:147,1,300,0|8,1:2|1:2,0:0:0:0:
473,104,1633,2,0,P|340:62|272:183,1,300,0|8,1:2|1:2,0:0:0:0:
296,280,3233,2,0,P|140:322|6:360,1,300,0|8,1:2|1:2,0:0:0:0:
7,260,4833,2,0,B|-28:215|-9:148|52:133|55:145|60:157|120:142|150:76|112:33,1,300,0|8,1:0|1:2,0:0:0:0:
212,23,6433,5,0,1:0:0:0:
291,83,6833,2,0,L|387:56,2,100,10|2|10,1:2|1:2|1:2,0:0:0:0:
255,176,8033,1,2,1:2:0:0:
349,208,8433,2,0,P|418:274|392:366,1,200,10|10,1:2|1:2,0:0:0:0:
293,382,9633,5,2,1:2:0:0:
230,304,10033,2,0,L|37:357,1,200,10|10,1:2|1:2,0:0:0:0:
5,261,11233,1,2,1:2:0:0:
55,174,11633,2,0,P|82:133|78:85,1,100,10|2,1:2|1:2,0:0:0:0:
267,21,12833,5,0,1:2:0:0:
312,109,13233,2,0,L|408:136,1,100,10|2,1:2|1:2,0:0:0:0:
504,162,14033,1,10,1:2:0:0:
475,257,14433,1,2,1:2:0:0:
379,286,14833,2,0,P|349:325|350:374,2,100,10|2|10,1:2|1:2|1:2,0:0:0:0:
312,210,16033,5,2,1:2:0:0:
339,113,16433,2,0,L|146:165,1,200,10|10,1:2|1:2,0:0:0:0:
62,110,17633,1,2,1:2:0:0:
5,192,18033,2,0,P|11:240|49:271,1,100,10|2,1:2|1:2,0:0:0:0:
220,373,19233,5,0,1:2:0:0:
290,301,19633,2,0,L|263:205,2,100,10|2|10,1:2|1:2|1:2,0:0:0:0:
388,318,20833,1,2,1:2:0:0:
446,236,21233,2,0,L|394:43,1,200,10|10,1:2|1:2,0:0:0:0:
298,12,22433,5,2,1:2:0:0:
253,101,22833,2,0,B|203:119|167:71|174:72|182:72|149:13|81:33,1,200,10|10,1:2|1:2,0:0:0:0:
8,101,24033,1,2,1:2:0:0:
46,193,24433,2,0,L|143:219,1,100,10|2,1:2|1:2,0:0:0:0:
282,362,25633,5,0,1:2:0:0:
376,329,26033,2,0,P|410:294|410:246,1,100,10|2,1:2|1:2,0:0:0:0:
368,154,26833,1,10,1:2:0:0:
269,136,27233,1,2,1:2:0:0:
222,47,27633,2,0,L|125:73,2,100,10|2|10,1:2|1:2|1:2,0:0:0:0:
318,22,28833,5,2,1:2:0:0:
412,53,29233,2,0,B|394:103|442:139|441:132|441:124|500:157|480:225,1,200,10|10,1:2|1:2,0:0:0:0:
437,315,30433,1,2,1:2:0:0:
338,298,30833,2,0,L|242:325,1,100,10|2,1:2|1:2,0:0:0:0:
46,281,32033,5,4,1:2:0:0:
8,188,32433,2,0,P|13:138|44:101,1,100,10|2,1:2|1:2,0:0:0:0:
137,63,33233,1,10,1:2:0:0:
206,135,33633,2,0,L|302:109,2,100,2|10|2,1:2|1:2|1:2,0:0:0:0:
171,229,34833,1,10,1:2:0:0:
223,314,35233,6,0,L|416:365,1,200,2|2,1:2|1:2,0:0:0:0:
492,300,36433,1,10,1:2:0:0:
436,216,36833,2,0,P|397:186|392:138,1,100,2|10,1:2|1:2,0:0:0:0:
422,42,37633,1,2,1:2:0:0:
328,5,38033,1,8,1:2:0:0:
241,55,38433,5,0,1:2:0:0:
267,151,38833,2,0,L|171:178,1,100,10|2,1:2|1:2,0:0:0:0:
74,205,39633,1,10,1:2:0:0:
100,301,40033,2,0,P|51:304|8:279,2,100,2|10|2,1:2|1:2|1:2,0:0:0:0:
179,361,41233,1,10,1:2:0:0:
277,342,41633,6,0,B|257:274|316:241|316:249|315:256|363:220|345:170,1,200,2|2,1:2|1:2,0:0:0:0:
293,84,42833,1,10,1:2:0:0:
361,11,43233,1,2,1:2:0:0:
457,37,43633,1,10,1:2:0:0:
478,134,44033,2,0,L|451:230,1,100,2|10,1:2|1:2,0:0:0:0:
488,323,44833,5,4,1:2:0:0:
398,367,45233,2,0,P|349:358|317:316,1,100,10|2,1:2|1:2,0:0:0:0:
286,225,46033,1,10,1:2:0:0:
189,200,46433,2,0,L|163:104,2,100,2|10|2,1:2|1:2|1:2,0:0:0:0:
162,296,47633,1,10,1:2:0:0:
64,275,48033,6,0,L|13:82,1,200,2|2,1:2|1:2,0:0:0:0:
100,32,49233,1,10,1:2:0:0:
164,107,49633,2,0,P|193:146|241:152,1,100,2|10,1:2|1:2,0:0:0:0:
327,101,50433,1,2,1:2:0:0:
422,131,50833,1,8,1:2:0:0:
447,227,51233,6,0,B|399:190|333:209|317:271|330:275|341:279|326:339|261:369|210:325,1,300,0|2,1:2|0:0,0:0:0:0:
123,361,52833,2,0,P|44:309|64:217,1,200,2|2,0:0|0:0,0:0:0:0:
138,150,54033,1,2,0:0:0:0:
235,173,54433,2,0,L|428:121,1,200,2|2,0:0|0:0,0:0:0:0:
254,22,56033,2,0,P|213:49|201:96,2,100,2|2|2,0:0|0:0|0:0,0:0:0:0:
310,104,57233,5,2,0:0:0:0:
