osu file format v14

[General]
AudioFilename: toby fox - UNDERTALE Soundtrack - 24 Bonetrousle.mp3
AudioLeadIn: 0
PreviewTime: 31591
Countdown: 0
SampleSet: Normal
StackLeniency: 0.7
Mode: 0
LetterboxInBreaks: 0
WidescreenStoryboard: 1

[Editor]
DistanceSpacing: 1
BeatDivisor: 4
GridSize: 4
TimelineZoom: 1.4

[Metadata]
Title:Bonetrousle
TitleUnicode:Bonetrousle
Artist:toby fox
ArtistUnicode:toby fox
Creator:Holuo
Version:Monster Kidz Word Search
Source:Undertale
Tags:tobyfox rpg papyrus midnaait
BeatmapID:823317
BeatmapSetID:362004

[Difficulty]
HPDrainRate:4.5
CircleSize:4.5
OverallDifficulty:5.5
ApproachRate:6.5
SliderMultiplier:1
SliderTickRate:1

[Events]
//Background and Video events
0,0,"The Great Papyrus.PNG",0,0
//Break Periods
//Storyboard Layer 0 (Background)
//Storyboard Layer 1 (Fail)
//Storyboard Layer 2 (Pass)
//Storyboard Layer 3 (Foreground)
//Storyboard Sound Samples

[TimingPoints]
2,399.866711096301,4,1,1,40,1,8
2,-50,4,1,1,40,0,0
31191,-50,4,2,1,40,0,0
31991,-50,4,1,1,50,0,1
51184,-50,4,2,1,40,0,0

[Colours]
Combo1 : 0,97,215
Combo2 : 91,91,91

[HitObjects]
80,320,2,5,0,0:0:0:0:
200,160,401,1,8,0:0:0:0:
320,320,801,1,0,0:0:0:0:
440,160,1201,1,8,0:0:0:0:
384,244,1401,1,0,0:0:0:0:
328,160,1601,5,0,0:0:0:0:
148,244,2001,1,8,0:0:0:0:
328,160,2401,1,0,0:0:0:0:
148,68,2801,1,8,0:0:0:0:
148,68,3001,1,0,0:0:0:0:
236,116,3200,5,0,0:0:0:0:
236,316,3600,1,8,0:0:0:0:
60,220,4000,1,0,0:0:0:0:
156,44,4400,1,8,0:0:0:0:
156,144,4600,1,0,0:0:0:0:
156,44,4800,1,0,0:0:0:0:
356,44,5200,1,8,0:0:0:0:
216,188,5600,1,0,0:0:0:0:
356,44,6000,1,8,0:0:0:0:
288,116,6199,1,0,0:0:0:0:
364,180,6399,5,0,0:0:0:0:
288,244,6599,1,0,0:0:0:0:
188,244,6799,1,8,0:0:0:0:
240,328,6999,1,2,0:0:0:0:
340,328,7199,2,2,B|395:309|428:279|444:250|447:165,1,200,0|8,0:0|0:0,0:0:0:0:
364,236,7799,5,0,0:0:0:0:
280,180,7999,1,0,0:0:0:0:
364,124,8199,1,0,0:0:0:0:
268,92,8399,2,2,P|192:136|216:248,1,200,8|0,0:0|0:0,0:0:0:0:
284,180,8999,1,2,0:0:0:0:
284,280,9198,1,8,0:0:0:0:
364,224,9398,1,0,0:0:0:0:
364,324,9598,5,0,0:0:0:0:
364,324,9798,1,0,0:0:0:0:
440,256,9998,2,2,P|448:172|332:116,1,200,8|0,0:0|0:0,0:0:0:0:
260,112,10598,1,2,0:0:0:0:
204,196,10798,1,8,0:0:0:0:
148,280,10998,1,0,0:0:0:0:
92,196,11198,2,0,P|92:128|104:92,1,100
188,48,11598,1,8,0:0:0:0:
288,48,11798,1,2,0:0:0:0:
388,48,11998,1,0,0:0:0:0:
188,48,12397,5,8,0:0:0:0:
120,236,12797,1,0,0:0:0:0:
156,140,12997,1,0,0:0:0:0:
56,140,13197,1,8,0:0:0:0:
96,48,13397,1,2,0:0:0:0:
196,48,13597,1,0,0:0:0:0:
196,200,13897,1,2,0:0:0:0:
196,200,13997,1,8,0:0:0:0:
276,140,14197,5,0,0:0:0:0:
264,240,14397,1,0,0:0:0:0:
356,204,14597,1,0,0:0:0:0:
432,140,14797,1,8,0:0:0:0:
352,80,14997,1,2,0:0:0:0:
252,80,15196,2,0,P|160:116|128:108,1,100,0|2,0:0|0:0,0:0:0:0:
68,80,15596,1,8,0:0:0:0:
68,80,15796,1,0,0:0:0:0:
92,176,15996,5,0,0:0:0:0:
160,248,16196,1,0,0:0:0:0:
252,212,16396,2,2,P|236:296|112:312,1,200,8|0,0:0|0:0,0:0:0:0:
52,272,16996,1,2,0:0:0:0:
92,176,17196,1,8,0:0:0:0:
160,248,17396,1,0,0:0:0:0:
252,212,17596,2,0,P|320:184|356:136,1,100
396,80,17996,1,8,0:0:0:0:
396,80,18095,1,0,0:0:0:0:
396,80,18195,1,2,0:0:0:0:
296,80,18395,1,0,0:0:0:0:
112,156,18795,6,0,P|148:208|248:128,1,200,8|0,0:0|0:0,0:0:0:0:
184,80,19395,1,0,0:0:0:0:
184,80,19595,1,8,0:0:0:0:
284,80,19795,2,0,P|328:120|324:172,1,100,2|0,0:0|0:0,0:0:0:0:
184,296,20395,1,8,0:0:0:0:
280,264,20595,1,0,0:0:0:0:
208,196,20795,1,0,0:0:0:0:
280,264,20995,1,0,0:0:0:0:
368,216,21194,1,8,0:0:0:0:
400,120,21394,2,0,P|448:164|448:208,2,100,2|0|2,0:0|0:0|0:0,0:0:0:0:
300,116,21994,1,8,0:0:0:0:
200,116,22194,1,0,0:0:0:0:
252,200,22394,5,0,0:0:0:0:
304,284,22594,1,0,0:0:0:0:
204,284,22794,1,8,0:0:0:0:
148,200,22994,2,0,P|116:252|120:300,2,100,2|0|2,0:0|0:0|0:0,0:0:0:0:
248,200,23594,2,0,P|300:208|368:152,1,100,8|0,0:0|0:0,0:0:0:0:
424,244,23994,1,0,0:0:0:0:
460,152,24193,1,0,0:0:0:0:
376,96,24393,1,8,0:0:0:0:
376,96,24593,1,2,0:0:0:0:
276,96,24793,1,0,0:0:0:0:
76,96,25193,5,8,0:0:0:0:
176,268,25593,1,0,0:0:0:0:
276,264,25793,1,0,0:0:0:0:
220,180,25993,2,0,P|120:192|88:212,1,100,8|2,0:0|0:0,0:0:0:0:
56,268,26393,1,0,0:0:0:0:
180,348,26693,1,2,0:0:0:0:
180,348,26793,1,8,0:0:0:0:
280,348,26993,1,0,0:0:0:0:
336,264,27192,2,0,P|360:240|344:168,1,100
252,172,27592,1,8,0:0:0:0:
252,72,27792,1,2,0:0:0:0:
352,72,27992,6,0,P|416:104|428:140,1,100,0|2,0:0|0:0,0:0:0:0:
432,228,28392,1,8,0:0:0:0:
348,176,28592,1,0,0:0:0:0:
264,124,28792,2,0,P|244:160|168:168,1,100
80,176,29192,1,8,0:0:0:0:
144,252,29392,2,0,P|186:291|226:289,1,75.0000028610231,2|0,0:0|0:0,0:0:0:0:
328,292,29792,1,2,0:0:0:0:
264,216,29992,1,8,0:0:0:0:
264,316,30191,1,0,0:0:0:0:
360,344,30391,2,0,P|428:312|440:288,1,100
376,216,30791,1,8,0:0:0:0:
376,216,30891,1,0,0:0:0:0:
376,216,30991,1,2,0:0:0:0:
312,140,31191,1,4,0:0:0:0:
124,76,31591,5,2,0:0:0:0:
124,76,31691,1,0,0:0:0:0:
124,76,31791,1,2,0:0:0:0:
124,176,31991,5,4,0:0:0:0:
224,176,32191,1,2,0:0:0:0:
224,276,32391,1,8,0:0:0:0:
124,276,32591,1,2,0:0:0:0:
124,176,32791,1,2,0:0:0:0:
272,44,33190,1,10,0:0:0:0:
348,108,33390,1,0,0:0:0:0:
420,176,33590,1,2,0:0:0:0:
324,204,33790,1,2,0:0:0:0:
404,264,33990,1,10,0:0:0:0:
208,292,34390,6,0,P|168:300|120:240,1,100,2|2,0:0|0:0,0:0:0:0:
204,204,34790,1,10,0:0:0:0:
116,160,34990,2,0,P|148:136|212:104,1,100,0|2,0:0|0:0,0:0:0:0:
352,108,35490,1,2,0:0:0:0:
352,108,35590,1,10,0:0:0:0:
264,60,35790,2,0,P|172:44|136:68,1,100,0|2,0:0|0:0,0:0:0:0:
36,108,36289,1,0,0:0:0:0:
36,108,36389,1,10,0:0:0:0:
36,208,36589,5,0,0:0:0:0:
108,280,36789,1,2,0:0:0:0:
260,280,37089,1,2,0:0:0:0:
260,280,37189,1,10,0:0:0:0:
184,212,37389,1,0,0:0:0:0:
276,176,37589,1,2,0:0:0:0:
372,208,37789,1,0,0:0:0:0:
448,272,37989,6,2,P|460:244|384:100,1,200,10|0,0:0|0:0,0:0:0:0:
292,104,38589,1,2,0:0:0:0:
192,104,38789,1,8,0:0:0:0:
92,104,38989,1,2,0:0:0:0:
48,192,39188,2,2,P|40:264|172:280,1,200,2|10,0:0|0:0,0:0:0:0:
136,204,39788,2,0,P|208:228|244:240,1,100,0|2,0:0|0:0,0:0:0:0:
328,260,40188,1,2,0:0:0:0:
300,164,40388,1,10,0:0:0:0:
396,192,40588,1,0,0:0:0:0:
368,96,40788,6,0,P|336:72|236:84,1,100,2|2,0:0|0:0,0:0:0:0:
204,136,41188,1,10,0:0:0:0:
104,136,41388,1,0,0:0:0:0:
104,136,41588,1,2,0:0:0:0:
48,276,41888,1,2,0:0:0:0:
48,276,41988,1,10,0:0:0:0:
120,344,42187,1,2,0:0:0:0:
204,288,42387,1,2,0:0:0:0:
148,148,42687,5,0,0:0:0:0:
148,148,42787,1,2,0:0:0:0:
248,148,42987,1,2,0:0:0:0:
348,148,43187,1,2,0:0:0:0:
296,232,43387,1,2,0:0:0:0:
196,232,43587,1,10,0:0:0:0:
248,148,43787,1,0,0:0:0:0:
204,68,43987,1,2,0:0:0:0:
304,68,44187,1,0,0:0:0:0:
360,148,44387,1,10,0:0:0:0:
300,228,44587,1,0,0:0:0:0:
400,236,44787,5,4,0:0:0:0:
344,320,44987,1,2,0:0:0:0:
244,320,45186,2,0,P|200:264|204:216,1,100,8|2,0:0|0:0,0:0:0:0:
200,136,45586,1,2,0:0:0:0:
400,112,45986,1,10,0:0:0:0:
300,124,46186,1,0,0:0:0:0:
228,56,46386,6,0,P|160:64|120:116,1,100,2|2,0:0|0:0,0:0:0:0:
104,180,46786,1,10,0:0:0:0:
136,276,46986,1,0,0:0:0:0:
208,204,47186,1,2,0:0:0:0:
240,300,47386,1,2,0:0:0:0:
312,232,47586,1,8,0:0:0:0:
384,300,47786,2,0,P|403:235|392:200,1,100,2|2,0:0|0:0,0:0:0:0:
312,80,48285,1,2,0:0:0:0:
312,80,48385,1,10,0:0:0:0:
212,76,48585,5,2,0:0:0:0:
256,168,48785,1,2,0:0:0:0:
104,168,49085,1,0,0:0:0:0:
104,168,49185,1,10,0:0:0:0:
184,228,49385,1,0,0:0:0:0:
92,268,49585,1,2,0:0:0:0:
232,324,49885,1,2,0:0:0:0:
232,324,49985,1,10,0:0:0:0:
332,324,50185,1,0,0:0:0:0:
280,240,50385,1,2,0:0:0:0:
184,64,50785,1,10,0:0:0:0:
280,240,51184,6,0,P|309:218|315:152,1,100,0|2,0:0|0:0,0:0:0:0:
280,64,51584,1,0,0:0:0:0:
244,156,51784,1,2,0:0:0:0:
144,156,51984,1,0,0:0:0:0:
144,308,52284,1,0,0:0:0:0:
144,308,52384,1,2,0:0:0:0:
244,308,52584,1,2,0:0:0:0:
344,308,52784,2,0,P|400:276|400:216,1,100,0|2,0:0|0:0,0:0:0:0:
408,144,53184,2,0,P|387:99|342:81,1,100,0|2,0:0|0:0,0:0:0:0:
244,84,53584,1,0,0:0:0:0:
108,144,53884,5,0,0:0:0:0:
108,144,53984,1,2,0:0:0:0:
60,232,54183,1,2,0:0:0:0:
160,232,54383,1,0,0:0:0:0:
164,332,54583,1,2,0:0:0:0:
248,280,54783,1,0,0:0:0:0:
336,232,54983,2,0,P|372:172|376:112,1,100,2|2,0:0|0:0,0:0:0:0:
176,144,55583,1,2,0:0:0:0:
284,312,55983,5,0,0:0:0:0:
196,264,56183,1,2,0:0:0:0:
116,204,56383,2,0,P|100:152|84:92,1,100,2|0,0:0|0:0,0:0:0:0:
176,60,56783,1,2,0:0:0:0:
312,204,57182,1,2,0:0:0:0:
