osu file format v14

[General]
AudioFilename: toby fox - UNDERTALE Soundtrack - 24 Bonetrousle.mp3
AudioLeadIn: 0
PreviewTime: 31591
Countdown: 0
SampleSet: Normal
StackLeniency: 0.7
Mode: 0
LetterboxInBreaks: 0
WidescreenStoryboard: 0

[Editor]
Bookmarks: 25593,37989,42787
DistanceSpacing: 1
BeatDivisor: 2
GridSize: 4
TimelineZoom: 1.4

[Metadata]
Title:Bonetrousle
TitleUnicode:Bonetrousle
Artist:toby fox
ArtistUnicode:toby fox
Creator:Holuo
Version:Junior Jumble
Source:Undertale
Tags:tobyfox rpg papyrus midnaait
BeatmapID:795174
BeatmapSetID:362004

[Difficulty]
HPDrainRate:3
CircleSize:3
OverallDifficulty:3
ApproachRate:4
SliderMultiplier:1
SliderTickRate:1

[Events]
//Background and Video events
0,0,"The Great Papyrus.PNG",0,0
//Break Periods
//Storyboard Layer 0 (Background)
//Storyboard Layer 1 (Fail)
//Storyboard Layer 2 (Pass)
//Storyboard Layer 3 (Foreground)
//Storyboard Sound Samples

[TimingPoints]
2,399.866711096301,4,1,1,40,1,8
2,-100,4,1,1,40,0,0
31191,-100,4,2,1,40,0,0
31991,-100,4,1,1,50,0,1
51184,-100,4,2,1,40,0,0

[Colours]
Combo1 : 0,97,215
Combo2 : 91,91,91

[HitObjects]
116,296,2,6,0,P|76:220|92:176,2,100,0|0|2,0:0|0:0|0:0,0:0:0:0:
164,208,1201,1,8,0:0:0:0:
264,208,1601,2,0,P|304:132|288:88,2,100,0|0|2,0:0|0:0|0:0,0:0:0:0:
212,124,2801,1,8,0:0:0:0:
276,48,3200,6,0,L|388:100,1,100
460,124,4000,2,0,L|408:232,1,100,2|8,0:0|0:0,0:0:0:0:
416,316,4800,2,0,L|300:316,1,100
216,316,5600,1,2,0:0:0:0:
268,232,6000,1,8,0:0:0:0:
184,52,6799,6,0,P|81:106|52:212,1,200,0|8,0:0|0:0,0:0:0:0:
252,180,8399,1,8,0:0:0:0:
408,56,9198,1,8,0:0:0:0:
408,256,9998,2,0,P|284:300|256:256,1,200,8|8,0:0|0:0,0:0:0:0:
76,344,11598,2,0,L|139:266,1,100
336,220,12797,6,0,P|336:160|228:76,1,200
136,76,13997,1,8,0:0:0:0:
236,248,14797,1,8,0:0:0:0:
184,164,15196,1,0,0:0:0:0:
100,220,15596,2,0,P|176:328|256:328,1,200,8|8,0:0|0:0,0:0:0:0:
400,220,17196,1,8,0:0:0:0:
308,44,17996,2,2,L|228:108,1,100,2|0,0:0|0:0,0:0:0:0:
324,136,18795,1,8,0:0:0:0:
144,220,19595,6,0,L|40:220,1,100,8|0,0:0|0:0,0:0:0:0:
44,120,20395,1,8,0:0:0:0:
44,320,21194,1,8,0:0:0:0:
244,320,21994,1,8,0:0:0:0:
216,120,22794,2,0,P|292:125|362:231,1,200,8|8,0:0|0:0,0:0:0:0:
172,280,24393,2,0,L|272:204,1,100,8|4,0:0|0:0,0:0:0:0:
308,304,25193,1,8,0:0:0:0:
308,104,25993,5,8,0:0:0:0:
392,284,26793,2,0,P|304:332|216:244,1,200,8|8,0:0|0:0,0:0:0:0:
144,104,28392,1,8,0:0:0:0:
144,304,29192,2,0,P|172:216|272:192,1,200,8|8,0:0|0:0,0:0:0:0:
468,192,30791,2,2,P|464:148|376:120,1,100,8|4,0:0|0:0,0:0:0:0:
232,60,31991,6,2,P|100:132|100:176,1,200,6|10,0:0|0:0,0:0:0:0:
232,312,33590,2,2,P|364:240|364:196,1,200,2|10,0:0|0:0,0:0:0:0:
164,208,35190,2,2,L|264:208,1,100
264,108,35990,1,2,0:0:0:0:
464,108,36789,2,2,L|464:224,1,100
464,308,37589,1,2,0:0:0:0:
344,148,38389,5,0,0:0:0:0:
200,284,39188,1,2,0:0:0:0:
400,284,39988,2,2,L|228:160,1,200,2|10,0:0|0:0,0:0:0:0:
80,44,41588,1,2,0:0:0:0:
224,184,42387,1,2,0:0:0:0:
80,320,43187,2,2,P|140:316|176:292,2,100,2|10|2,0:0|0:0|0:0,0:0:0:0:
224,184,44787,5,4,0:0:0:0:
68,60,45586,1,2,0:0:0:0:
268,60,46386,2,2,P|196:108|144:116,1,100,2|10,0:0|0:0,0:0:0:0:
116,184,47186,2,2,P|130:230|161:270,1,100,2|8,0:0|0:0,0:0:0:0:
260,296,47986,1,2,0:0:0:0:
456,268,48785,1,2,0:0:0:0:
260,224,49585,2,2,L|108:88,1,200
308,60,51184,6,2,P|380:92|404:120,1,100,0|0,0:0|0:0,0:0:0:0:
308,156,51984,2,0,P|229:160|195:146,1,100,0|2,0:0|0:0,0:0:0:0:
208,52,52784,6,2,P|160:66|122:98,1,100,0|0,0:0|0:0,0:0:0:0:
120,196,53584,2,2,P|159:225|207:238,1,100,0|2,0:0|0:0,0:0:0:0:
256,192,54383,12,2,57182,0:0:0:0:
