osu file format v14

[General]
AudioFilename: toby fox - UNDERTALE Soundtrack - 24 Bonetrousle.mp3
AudioLeadIn: 0
PreviewTime: 31591
Countdown: 0
SampleSet: Normal
StackLeniency: 0.7
Mode: 0
LetterboxInBreaks: 0
WidescreenStoryboard: 0

[Editor]
Bookmarks: 10998,18795,31791,38589
DistanceSpacing: 1
BeatDivisor: 4
GridSize: 4
TimelineZoom: 1.4

[Metadata]
Title:Bonetrousle
TitleUnicode:Bonetrousle
Artist:toby fox
ArtistUnicode:toby fox
Creator:Holuo
Version:Horoscope
Source:Undertale
Tags:tobyfox rpg papyrus midnaait
BeatmapID:795175
BeatmapSetID:362004

[Difficulty]
HPDrainRate:4.2
CircleSize:4
OverallDifficulty:5
ApproachRate:5
SliderMultiplier:1
SliderTickRate:1

[Events]
//Background and Video events
0,0,"The Great Papyrus.PNG",0,0
//Break Periods
//Storyboard Layer 0 (Background)
//Storyboard Layer 1 (Fail)
//Storyboard Layer 2 (Pass)
//Storyboard Layer 3 (Foreground)
//Storyboard Sound Samples

[TimingPoints]
2,399.866711096301,4,1,1,40,1,8
2,-66.6666666666667,4,1,1,40,0,0
31191,-66.6666666666667,4,2,1,40,0,0
31991,-66.6666666666667,4,1,1,50,0,1
51184,-66.6666666666667,4,2,1,40,0,0

[Colours]
Combo1 : 0,97,215
Combo2 : 91,91,91

[HitObjects]
60,348,2,6,0,L|60:268,1,75.0000028610231
136,272,401,2,0,L|136:176,1,75.0000028610231,8|2,0:0|0:0,0:0:0:0:
60,196,801,2,0,L|60:120,1,75.0000028610231,0|2,0:0|0:0,0:0:0:0:
136,120,1201,2,0,L|136:40,1,75.0000028610231,8|0,0:0|0:0,0:0:0:0:
212,40,1601,5,0,0:0:0:0:
288,40,1801,1,0,0:0:0:0:
288,116,2001,1,8,0:0:0:0:
212,120,2201,1,2,0:0:0:0:
212,196,2401,2,0,L|212:280,2,75.0000028610231,0|2|8,0:0|0:0|0:0,0:0:0:0:
136,196,3001,1,0,0:0:0:0:
136,272,3200,6,0,L|44:272,1,75.0000028610231
60,196,3600,2,0,L|60:104,1,75.0000028610231,8|2,0:0|0:0,0:0:0:0:
136,120,4000,2,0,L|224:120,1,75.0000028610231,0|2,0:0|0:0,0:0:0:0:
288,120,4400,2,0,L|392:120,1,75.0000028610231,8|0,0:0|0:0,0:0:0:0:
364,196,4800,5,0,0:0:0:0:
288,196,5000,1,0,0:0:0:0:
288,272,5200,1,8,0:0:0:0:
364,272,5400,1,2,0:0:0:0:
364,344,5600,2,0,L|260:344,2,75.0000028610231,0|2|8,0:0|0:0|0:0,0:0:0:0:
468,236,6399,1,0,0:0:0:0:
468,160,6599,5,0,0:0:0:0:
392,160,6799,1,8,0:0:0:0:
392,84,6999,1,2,0:0:0:0:
316,84,7199,1,0,0:0:0:0:
164,84,7599,1,8,0:0:0:0:
168,232,7999,6,0,P|204:260|252:260,1,75.0000028610231
232,188,8399,1,8,0:0:0:0:
232,36,8799,1,0,0:0:0:0:
232,112,8999,1,2,0:0:0:0:
156,112,9198,1,8,0:0:0:0:
80,112,9398,1,0,0:0:0:0:
80,188,9598,6,0,P|84:232|100:260,1,75.0000028610231
156,308,9998,1,8,0:0:0:0:
304,316,10398,1,0,0:0:0:0:
348,256,10598,1,2,0:0:0:0:
392,196,10798,1,8,0:0:0:0:
432,132,10998,1,0,0:0:0:0:
356,132,11198,6,0,L|296:208,2,75.0000028610231,0|0|8,0:0|0:0|0:0,0:0:0:0:
280,120,11798,1,2,0:0:0:0:
240,184,11998,1,0,0:0:0:0:
204,120,12197,1,2,0:0:0:0:
164,184,12397,1,8,0:0:0:0:
124,120,12597,1,0,0:0:0:0:
164,56,12797,5,0,0:0:0:0:
88,60,12997,1,0,0:0:0:0:
44,120,13197,2,0,L|44:200,1,75.0000028610231,8|0,0:0|0:0,0:0:0:0:
48,272,13597,1,0,0:0:0:0:
200,272,13997,1,8,0:0:0:0:
200,120,14397,5,0,0:0:0:0:
200,196,14597,1,0,0:0:0:0:
124,196,14797,1,8,0:0:0:0:
124,48,15196,2,0,L|128:52|224:52,1,75.0000028610231,0|2,0:0|0:0,0:0:0:0:
272,52,15596,1,8,0:0:0:0:
272,128,15796,1,0,0:0:0:0:
348,128,15996,5,0,0:0:0:0:
424,128,16196,1,0,0:0:0:0:
388,192,16396,1,8,0:0:0:0:
384,344,16796,2,0,L|336:344|276:344,1,75.0000028610231,0|2,0:0|0:0,0:0:0:0:
232,344,17196,1,8,0:0:0:0:
156,344,17396,1,0,0:0:0:0:
256,192,17596,12,8,18795,0:0:0:0:
368,160,19195,5,0,0:0:0:0:
344,232,19395,2,0,P|316:232|264:208,1,75.0000028610231,0|8,0:0|0:0,0:0:0:0:
220,160,19795,1,2,0:0:0:0:
160,116,19995,1,0,0:0:0:0:
56,224,20395,1,8,0:0:0:0:
160,332,20795,2,0,L|240:288,2,75.0000028610231,0|0|8,0:0|0:0|0:0,0:0:0:0:
312,336,21594,2,0,P|348:324|372:272,1,75.0000028610231,0|2,0:0|0:0,0:0:0:0:
304,256,21994,1,8,0:0:0:0:
264,192,22194,1,0,0:0:0:0:
340,192,22394,6,0,P|304:136|220:132,1,150.000005722046,0|8,0:0|0:0,0:0:0:0:
184,192,22994,2,0,L|136:124,1,75.0000028610231,2|0,0:0|0:0,0:0:0:0:
180,68,23394,1,2,0:0:0:0:
104,68,23594,1,8,0:0:0:0:
64,132,23794,1,0,0:0:0:0:
256,192,23994,12,8,25193,0:0:0:0:
416,92,25593,5,0,0:0:0:0:
376,156,25793,1,0,0:0:0:0:
452,156,25993,1,8,0:0:0:0:
472,228,26193,1,2,0:0:0:0:
416,276,26393,1,0,0:0:0:0:
264,276,26793,2,0,P|204:224|220:128,1,150.000005722046,8|0,0:0|0:0,0:0:0:0:
276,160,27392,1,0,0:0:0:0:
240,96,27592,1,8,0:0:0:0:
92,92,27992,5,0,0:0:0:0:
132,156,28192,1,2,0:0:0:0:
92,212,28392,1,8,0:0:0:0:
132,276,28592,1,0,0:0:0:0:
180,216,28792,6,0,P|208:256|236:296,1,75.0000028610231
188,344,29192,2,2,P|252:340|296:272,1,150.000005722046,8|0,0:0|0:0,0:0:0:0:
296,196,29792,1,2,0:0:0:0:
368,216,29992,1,8,0:0:0:0:
412,156,30191,1,0,0:0:0:0:
256,192,30391,12,2,31591,0:0:0:0:
232,52,31991,5,4,0:0:0:0:
232,128,32191,1,2,0:0:0:0:
164,96,32391,1,8,0:0:0:0:
164,168,32591,1,2,0:0:0:0:
100,128,32791,1,2,0:0:0:0:
232,204,33190,5,10,0:0:0:0:
336,96,33590,2,0,P|352:164|344:184,1,75.0000028610231,2|2,0:0|0:0,0:0:0:0:
320,236,33990,1,10,0:0:0:0:
168,236,34390,5,2,0:0:0:0:
216,292,34590,1,2,0:0:0:0:
276,340,34790,1,10,0:0:0:0:
352,340,34990,1,0,0:0:0:0:
412,292,35190,2,2,P|448:224|424:148,1,150.000005722046,2|10,0:0|0:0,0:0:0:0:
356,156,35790,5,0,0:0:0:0:
348,240,35990,2,2,P|272:220|272:136,1,150.000005722046,2|10,0:0|0:0,0:0:0:0:
296,92,36589,1,0,0:0:0:0:
220,92,36789,1,2,0:0:0:0:
132,216,37189,1,10,0:0:0:0:
84,156,37389,1,0,0:0:0:0:
40,216,37589,2,2,P|92:304|160:304,1,150.000005722046,2|10,0:0|0:0,0:0:0:0:
248,216,38389,1,0,0:0:0:0:
224,68,38789,5,8,0:0:0:0:
284,112,38989,1,2,0:0:0:0:
348,152,39188,1,2,0:0:0:0:
196,152,39588,1,10,0:0:0:0:
72,68,39988,2,0,L|160:132,1,75.0000028610231,2|2,0:0|0:0,0:0:0:0:
68,152,40388,1,10,0:0:0:0:
72,316,40788,2,0,L|160:252,1,75.0000028610231,2|2,0:0|0:0,0:0:0:0:
196,232,41188,1,10,0:0:0:0:
260,272,41388,1,0,0:0:0:0:
336,268,41588,1,2,0:0:0:0:
260,140,41988,5,10,0:0:0:0:
184,140,42187,1,2,0:0:0:0:
220,72,42387,1,2,0:0:0:0:
220,224,42787,1,10,0:0:0:0:
296,224,42987,1,2,0:0:0:0:
368,212,43187,1,2,0:0:0:0:
344,140,43387,1,2,0:0:0:0:
372,72,43587,6,0,P|448:116|448:120,1,75.0000028610231,10|2,0:0|0:0,0:0:0:0:
440,164,43987,1,2,0:0:0:0:
440,240,44187,1,0,0:0:0:0:
440,240,44387,1,10,0:0:0:0:
440,240,44587,1,0,0:0:0:0:
440,316,44787,5,4,0:0:0:0:
364,316,44987,2,0,L|272:268,1,75.0000028610231,2|2,0:0|0:0,0:0:0:0:
232,316,45386,2,0,L|144:268,1,75.0000028610231,2|2,0:0|0:0,0:0:0:0:
296,208,45986,1,10,0:0:0:0:
144,208,46386,1,2,0:0:0:0:
220,208,46586,1,2,0:0:0:0:
220,132,46786,1,10,0:0:0:0:
220,44,47186,5,2,0:0:0:0:
160,88,47386,1,2,0:0:0:0:
96,44,47586,1,8,0:0:0:0:
40,92,47786,2,0,P|52:128|104:168,1,75.0000028610231,2|2,0:0|0:0,0:0:0:0:
220,132,48385,1,10,0:0:0:0:
296,136,48585,2,0,P|304:180|288:224,1,75.0000028610231,2|2,0:0|0:0,0:0:0:0:
148,208,49185,5,10,0:0:0:0:
184,272,49385,1,0,0:0:0:0:
260,272,49585,1,2,0:0:0:0:
412,272,49985,5,10,0:0:0:0:
460,212,50185,1,2,0:0:0:0:
432,140,50385,1,2,0:0:0:0:
280,140,50785,6,0,P|240:188|152:188,1,150.000005722046,4|0,0:0|0:0,0:0:0:0:
104,140,51384,1,2,0:0:0:0:
36,172,51584,1,0,0:0:0:0:
36,248,51784,1,2,0:0:0:0:
104,276,51984,1,0,0:0:0:0:
252,284,52384,2,0,P|296:244|372:176,1,150.000005722046,2|0,0:0|0:0,0:0:0:0:
424,224,52984,1,2,0:0:0:0:
380,284,53184,1,0,0:0:0:0:
464,160,53584,1,0,0:0:0:0:
348,64,53984,5,2,0:0:0:0:
272,60,54183,1,2,0:0:0:0:
272,136,54383,2,0,P|204:88|204:72,1,75.0000028610231,0|2,0:0|0:0,0:0:0:0:
152,60,54783,1,0,0:0:0:0:
136,132,54983,2,0,P|145:164|186:194,1,75.0000028610231,0|2,0:0|0:0,0:0:0:0:
324,192,55583,1,2,0:0:0:0:
296,340,55983,2,0,P|364:328|388:304,2,75.0000028610231,0|2|2,0:0|0:0|0:0,0:0:0:0:
248,196,56783,1,2,0:0:0:0:
248,196,57182,1,2,0:0:0:0:
