osu file format v14

[General]
AudioFilename: asgore.mp3
AudioLeadIn: 0
PreviewTime: 70350
Countdown: 0
SampleSet: Soft
StackLeniency: 0.7
Mode: 0
LetterboxInBreaks: 0
WidescreenStoryboard: 1

[Editor]
Bookmarks: 73485,79101,79492,79754,87067,103850,105875,125727,128861,130428,130951,139310,143489,147668,162296,166475,170655,172744
DistanceSpacing: 2
BeatDivisor: 4
GridSize: 8
TimelineZoom: 1.3

[Metadata]
Title:Bergentruckung/ASGORE
TitleUnicode:Bergentrückung/ASGORE
Artist:toby fox
ArtistUnicode:toby fox
Creator:riktoi
Version:Mazziv's Insane
Source:UNDERTALE
Tags:dreemurr
BeatmapID:1027501
BeatmapSetID:475324

[Difficulty]
HPDrainRate:5.7
CircleSize:4
OverallDifficulty:7.3
ApproachRate:9
SliderMultiplier:1.4
SliderTickRate:1

[Events]
//Background and Video events
0,0,"asgore.png",0,0
//Break Periods
2,17475,18603
2,104232,110746
//Storyboard Layer 0 (Background)
//Storyboard Layer 1 (Fail)
//Storyboard Layer 2 (Pass)
//Storyboard Layer 3 (Foreground)
//Storyboard Sound Samples

[TimingPoints]
285,530.973451327434,4,2,1,30,1,0
1346,-83.3333333333333,4,2,1,30,0,0
2408,-100,4,2,1,30,0,0
3470,-83.3333333333333,4,2,1,30,0,0
4532,-100,4,2,1,30,0,0
7718,-90.9090909090909,4,2,1,30,0,0
8780,-100,4,2,1,30,0,0
9842,-83.3333333333333,4,2,1,30,0,0
10904,-100,4,2,1,30,0,0
11966,-83.3333333333333,4,2,1,30,0,0
13028,-100,4,2,1,30,0,0
16214,-200,4,2,1,30,0,0
16745,-200,4,2,1,5,0,0
19400,261.210274270788,4,2,1,30,1,0
19400,-200,4,2,1,30,0,0
20444,-100,4,2,1,30,0,0
27758,-100,4,2,1,30,0,0
28803,-100,4,2,1,30,0,1
36117,-200,4,2,1,30,0,0
37162,-100,4,2,1,30,0,0
44476,-100,4,2,1,30,0,0
45521,-100,4,2,1,30,0,1
51790,-133.333333333333,4,2,1,30,0,0
52834,-200,4,2,1,30,0,0
58059,-200,4,2,1,30,0,0
62238,-133.333333333333,4,2,1,30,0,0
68507,-200,4,2,1,30,0,0
70597,-100,4,2,1,30,0,1
104032,-133.333333333333,4,1,1,15,0,0
111346,-100,4,2,1,30,0,0
112390,-76.9230769230769,4,2,1,30,0,0
127018,-125,4,2,1,30,0,0
129108,-200,4,2,1,30,0,0
140601,-200,4,2,1,30,0,0
144780,-200,4,2,1,30,0,0
145825,-100,4,2,1,30,0,0
162086,-100,4,2,1,5,0,0
162282,-100,4,2,1,30,0,0
164175,-100,4,2,1,5,0,0
164371,-100,4,2,1,30,0,0
166265,-100,4,2,1,5,0,0
166461,-100,4,2,1,30,0,0
168355,-100,4,2,1,5,0,0
168551,-133.333333333333,4,2,1,30,0,0

[Colours]
Combo1 : 109,16,18
Combo2 : 174,179,23
Combo3 : 233,30,1
Combo4 : 238,231,89

[HitObjects]
136,292,285,6,0,P|156:216|128:136,1,140,0|0,0:0|0:0,0:0:0:0:
80,116,1346,2,0,P|132:228|216:152,1,251.999992309571,2|0,0:0|0:0,0:0:0:0:
256,108,2408,6,0,P|340:96|408:112,1,140,0|0,0:0|0:0,0:0:0:0:
460,136,3470,2,0,P|412:35|320:100,1,251.999992309571,2|0,0:0|0:0,0:0:0:0:
288,176,4532,6,0,P|272:260|296:340,1,140,0|0,0:0|0:0,0:0:0:0:
188,316,5594,2,0,P|154:325|112:312,1,70,2|0,0:0|0:0,0:0:0:0:
120,148,6125,2,0,P|153:138|196:152,1,70,2|0,0:0|0:0,0:0:0:0:
188,228,6656,6,0,P|154:237|112:224,1,70,2|0,0:0|0:0,0:0:0:0:
120,60,7187,2,0,P|153:50|196:64,1,70,2|0,0:0|0:0,0:0:0:0:
348,97,7718,2,0,P|320:187|264:112,1,231.000007049561,2|0,0:0|0:0,0:0:0:0:
472,272,8780,6,0,P|400:248|304:312,1,140,0|0,0:0|0:0,0:0:0:0:
240,312,9842,2,0,P|132:256|212:160,1,251.999992309571,2|0,0:0|0:0,0:0:0:0:
212,238,10904,6,0,P|146:256|84:228,1,140,0|0,0:0|0:0,0:0:0:0:
108,124,11966,2,0,P|168:56|248:160,1,251.999992309571,2|0,0:0|0:0,0:0:0:0:
192,192,13028,6,0,P|176:161|181:127,1,70,2|0,0:0|0:0,0:0:0:0:
356,84,13559,2,0,P|371:115|367:149,1,70,2|0,0:0|0:0,0:0:0:0:
288,204,14090,2,0,P|272:280|296:340,1,140,2|2,0:0|0:0,0:0:0:0:
162,89,15152,6,0,L|136:120,3,23.3333333333333,2|0|2|0,0:0|0:0|0:0|0:0,0:0:0:0:
218,205,15683,2,0,P|270:201|306:209,1,70,2|2,0:0|0:0,0:0:0:0:
416,262,16214,6,0,P|450:216|380:200,1,140,2|0,0:0|0:0,0:0:0:0:
96,80,19400,6,0,P|135:69|192:92,1,70,2|0,0:0|0:0,0:0:0:0:
276,160,19922,2,0,P|236:170|180:148,1,70,2|0,0:0|0:0,0:0:0:0:
96,80,20444,6,0,P|116:160|60:236,1,140,2|8,0:0|0:0,0:0:0:0:
24,288,20836,1,0,0:0:0:0:
128,316,20967,2,0,P|164:324|232:296,1,70,2|0,0:0|0:0,0:0:0:0:
300,308,21228,2,0,P|308:272|280:204,1,70,8|0,0:0|0:0,0:0:0:0:
240,156,21489,2,0,P|168:168|88:152,1,140,2|8,0:0|0:0,0:0:0:0:
172,80,21881,1,0,0:0:0:0:
240,156,22012,2,0,P|244:228|228:248,1,70,2|0,0:0|0:0,0:0:0:0:
324,152,22273,2,0,P|320:80|336:60,1,70,8|0,0:0|0:0,0:0:0:0:
416,44,22534,6,0,P|436:144|408:216,1,140,2|8,0:0|0:0,0:0:0:0:
396,280,22926,1,0,0:0:0:0:
296,248,23056,2,0,P|224:236|200:248,1,70,2|0,0:0|0:0,0:0:0:0:
164,320,23318,2,0,P|236:332|260:320,1,70,8|0,0:0|0:0,0:0:0:0:
336,336,23579,2,0,L|336:172,1,140,2|8,0:0|0:0,0:0:0:0:
272,256,24101,2,0,P|340:284|416:232,1,140,2|8,0:0|0:0,0:0:0:0:
400,132,24624,6,0,P|332:104|256:156,1,140,2|8,0:0|0:0,0:0:0:0:
192,192,25016,1,0,0:0:0:0:
96,148,25146,2,0,P|96:72|124:36,1,70,2|2,0:0|0:0,0:0:0:0:
189,123,25407,2,0,P|189:199|161:235,1,70,8|0,0:0|0:0,0:0:0:0:
128,272,25669,2,0,P|232:288|284:252,1,140,2|8,0:0|0:0,0:0:0:0:
340,220,26060,1,2,0:0:0:0:
352,324,26191,2,0,P|424:324|436:328,1,70,2|2,0:0|0:0,0:0:0:0:
409,219,26452,2,0,P|337:219|325:215,1,70,8|0,0:0|0:0,0:0:0:0:
236,216,26713,6,0,B|208:140|236:60,1,140,2|8,0:0|0:0,0:0:0:0:
320,136,27105,1,0,0:0:0:0:
152,140,27236,2,0,P|100:148|40:124,1,70,2|0,0:0|0:0,0:0:0:0:
320,136,27497,2,0,P|372:128|432:152,1,70,8|0,0:0|0:0,0:0:0:0:
460,236,27758,6,0,P|384:252|320:236,1,140,2|0,0:0|0:0,0:0:0:0:
124,172,28281,2,0,P|208:196|288:156,1,140,2|0,0:0|0:0,0:0:0:0:
452,101,28803,6,0,P|472:189|440:265,1,140,4|0,0:0|0:0,0:0:0:0:
412,332,29195,1,0,0:0:0:0:
308,320,29325,2,0,P|268:316|196:336,1,70
160,248,29587,2,0,P|200:252|272:232,1,70,8|0,0:0|0:0,0:0:0:0:
324,212,29848,2,0,P|344:96|324:56,1,140,2|0,0:0|0:0,0:0:0:0:
236,52,30240,2,0,P|167:65|100:47,1,140,0|0,0:0|0:0,0:0:0:0:
0,16,30632,1,8,0:0:0:0:
88,208,30893,6,0,P|152:224|276:176,1,140,4|0,0:0|0:0,0:0:0:0:
320,172,31285,1,0,0:0:0:0:
304,276,31415,2,0,P|308:328|292:360,1,70,0|0,0:0|0:0,0:0:0:0:
221,278,31676,2,0,P|217:226|233:194,1,70,8|0,0:0|0:0,0:0:0:0:
268,112,31938,2,0,P|188:124|108:100,1,140,2|8,0:0|0:0,0:0:0:0:
208,40,32329,2,0,P|288:28|368:52,1,140
428,104,32721,1,8,0:0:0:0:
416,320,32982,2,0,P|352:324|312:288,1,70,2|0,0:0|0:0,0:0:0:0:
192,160,33244,6,0,P|188:96|224:56,1,70,2|0,0:0|0:0,0:0:0:0:
320,96,33505,2,0,P|324:160|288:200,1,70,2|0,0:0|0:0,0:0:0:0:
160,320,33766,6,0,P|96:324|56:288,1,70,2|0,0:0|0:0,0:0:0:0:
96,224,34027,2,0,P|160:220|200:256,1,70,2|0,0:0|0:0,0:0:0:0:
322,163,34288,6,0,P|329:129|319:95,1,70,2|0,0:0|0:0,0:0:0:0:
189,92,34549,2,0,P|182:126|192:160,1,70,2|0,0:0|0:0,0:0:0:0:
348,322,34811,6,0,P|382:329|416:320,1,70,8|0,0:0|0:0,0:0:0:0:
416,224,35072,1,2,0:0:0:0:
104,240,36117,5,2,0:0:0:0:
104,240,36639,1,2,0:0:0:0:
104,240,37162,2,0,P|176:224|252:252,1,140,2|8,0:0|0:0,0:0:0:0:
320,308,37554,1,0,0:0:0:0:
220,332,37684,2,0,P|185:338|151:333,1,70,2|0,0:0|0:0,0:0:0:0:
104,240,37945,2,0,P|108:205|102:171,1,70,8|0,0:0|0:0,0:0:0:0:
56,76,38207,6,0,P|128:56|212:96,1,140,2|8,0:0|0:0,0:0:0:0:
276,136,38598,1,0,0:0:0:0:
352,212,38729,2,0,P|360:256|352:308,1,70,2|0,0:0|0:0,0:0:0:0:
256,308,38990,2,0,P|248:264|256:212,1,70,8|0,0:0|0:0,0:0:0:0:
276,136,39251,6,0,P|344:120|416:140,1,140,2|0,0:0|0:0,0:0:0:0:
480,216,39643,1,0,0:0:0:0:
410,137,39774,2,0,P|398:93|410:53,1,70,2|0,0:0|0:0,0:0:0:0:
320,4,40035,2,0,P|276:16|236:4,1,70,8|0,0:0|0:0,0:0:0:0:
148,32,40296,2,0,P|164:92|132:192,1,140,2|8,0:0|0:0,0:0:0:0:
84,104,40819,2,0,P|160:76|216:108,1,140,2|8,0:0|0:0,0:0:0:0:
208,236,41341,6,0,P|132:264|76:232,1,140,2|0,0:0|0:0,0:0:0:0:
4,168,41733,1,0,0:0:0:0:
82,239,41864,2,0,P|86:299|70:335,1,70,2|2,0:0|0:0,0:0:0:0:
176,360,42125,2,0,P|210:365|244:358,1,70,8|0,0:0|0:0,0:0:0:0:
348,332,42386,2,0,P|328:248|360:184,1,140,2|8,0:0|0:0,0:0:0:0:
428,268,42778,1,2,0:0:0:0:
348,332,42908,2,0,P|288:336|260:332,1,70,2|2,0:0|0:0,0:0:0:0:
200,260,43170,2,0,P|201:225|196:190,1,70,8|0,0:0|0:0,0:0:0:0:
188,84,43431,6,0,P|280:100|348:64,1,140,2|8,0:0|0:0,0:0:0:0:
420,48,43823,1,0,0:0:0:0:
412,152,43953,2,0,P|420:208|408:240,1,70,2|0,0:0|0:0,0:0:0:0:
344,296,44214,2,0,P|336:240|348:208,1,70,8|0,0:0|0:0,0:0:0:0:
384,96,44476,1,2,0:0:0:0:
384,104,44998,1,2,0:0:0:0:
384,104,45521,6,0,P|328:120|248:104,1,140,4|0,0:0|0:0,0:0:0:0:
152,68,45912,1,0,0:0:0:0:
172,172,46043,2,0,P|176:232|160:260,1,70,0|0,0:0|0:0,0:0:0:0:
252,308,46304,2,0,P|248:248|264:220,1,70,2|0,0:0|0:0,0:0:0:0:
272,136,46565,2,0,P|364:152|420:120,1,140,2|8,0:0|0:0,0:0:0:0:
460,48,46957,2,0,P|438:113|457:179,1,140,0|0,0:0|0:0,0:0:0:0:
500,276,47349,1,8,0:0:0:0:
292,300,47610,6,0,P|212:280|156:312,1,140,4|0,0:0|0:0,0:0:0:0:
72,356,48002,1,0,0:0:0:0:
163,304,48133,2,0,P|167:252|151:208,1,70
80,172,48394,2,0,P|76:224|92:268,1,70,2|0,0:0|0:0,0:0:0:0:
163,304,48655,2,0,P|226:278|292:300,1,140,2|8,0:0|0:0,0:0:0:0:
360,380,49047,2,0,P|334:316|355:251,1,140,0|0,0:0|0:0,0:0:0:0:
424,172,49439,1,8,0:0:0:0:
252,52,49700,6,0,P|192:60|176:52,1,70,2|0,0:0|0:0,0:0:0:0:
144,156,49961,2,0,P|204:148|220:156,1,70,2|0,0:0|0:0,0:0:0:0:
316,140,50222,6,0,P|324:200|316:216,1,70,2|0,0:0|0:0,0:0:0:0:
252,288,50484,2,0,P|244:228|252:212,1,70,2|0,0:0|0:0,0:0:0:0:
316,140,50745,6,0,P|376:132|392:140,1,70,2|0,0:0|0:0,0:0:0:0:
448,216,51006,2,0,P|456:276|448:292,1,70,2|0,0:0|0:0,0:0:0:0:
384,364,51267,6,0,P|324:372|308:364,1,70,2|0,0:0|0:0,0:0:0:0:
252,288,51528,2,0,P|244:228|252:212,1,70,8|0,0:0|0:0,0:0:0:0:
272,144,51790,5,2,0:0:0:0:
104,72,52834,6,0,P|112:132|100:152,1,70,2|0,0:0|0:0,0:0:0:0:
196,200,53357,2,0,P|188:140|200:120,1,70,2|0,0:0|0:0,0:0:0:0:
260,64,53749,2,0,L|280:52,2,17.5,0|0|8,0:0|0:0|0:0,0:0:0:0:
276,116,54010,1,0,0:0:0:0:
280,168,54140,1,2,0:0:0:0:
288,220,54271,1,0,0:0:0:0:
292,272,54402,1,2,0:0:0:0:
138,289,54663,5,0,0:0:0:0:
138,289,54793,2,0,P|146:257|142:213,1,70,2|2,0:0|0:0,0:0:0:0:
90,145,55185,2,0,L|138:145,1,35,2|0,0:0|0:0,0:0:0:0:
210,165,55447,2,0,P|242:169|294:165,1,70,8|8,0:0|0:0,0:0:0:0:
380,144,55969,5,8,0:0:0:0:
420,112,56100,1,0,0:0:0:0:
420,60,56230,1,2,0:0:0:0:
384,20,56361,1,0,0:0:0:0:
332,24,56491,1,2,0:0:0:0:
240,76,56753,5,2,0:0:0:0:
204,112,56883,2,0,P|206:146|198:180,1,70,8|0,0:0|0:0,0:0:0:0:
136,256,57275,2,0,L|184:256,1,35,2|0,0:0|0:0,0:0:0:0:
264,256,57537,2,0,P|260:288|264:340,1,70,8|0,0:0|0:0,0:0:0:0:
352,328,58059,5,8,0:0:0:0:
404,336,58190,1,0,0:0:0:0:
448,308,58320,1,2,0:0:0:0:
468,260,58451,1,0,0:0:0:0:
464,208,58581,1,2,0:0:0:0:
432,116,58843,5,2,0:0:0:0:
432,116,58973,2,0,P|397:118|363:110,1,70,8|0,0:0|0:0,0:0:0:0:
276,104,59365,2,0,L|276:56,1,35,2|0,0:0|0:0,0:0:0:0:
188,108,59627,2,0,P|153:109|118:105,1,70,8|0,0:0|0:0,0:0:0:0:
100,208,60148,6,0,B|112:264|96:288,1,70,2|0,0:0|0:0,0:0:0:0:
76,324,60540,2,0,B|132:312|156:328,1,70,2|0,0:0|0:0,0:0:0:0:
228,348,60932,2,0,L|228:304,1,35,2|0,0:0|0:0,0:0:0:0:
192,228,61193,2,0,P|240:220|272:232,1,70,2|0,0:0|0:0,0:0:0:0:
353,277,61585,2,0,P|353:221|393:181,1,105,2|0,0:0|0:0,0:0:0:0:
448,140,62238,5,2,0:0:0:0:
424,65,62369,1,0,0:0:0:0:
345,65,62499,1,0,0:0:0:0:
320,140,62630,1,2,0:0:0:0:
384,186,62760,1,0,0:0:0:0:
228,156,63022,5,0,0:0:0:0:
228,156,63152,2,0,P|240:196|216:272,1,105.000004005432,0|0,0:0|0:0,0:0:0:0:
196,328,63544,2,0,L|140:328,1,52.5000020027161,2|0,0:0|0:0,0:0:0:0:
64,320,63805,2,0,P|53:269|69:219,1,105.000004005432,2|2,0:0|0:0,0:0:0:0:
224,64,64328,5,2,0:0:0:0:
224,192,64458,1,0,0:0:0:0:
149,88,64589,1,0,0:0:0:0:
270,128,64719,1,2,0:0:0:0:
149,167,64850,1,0,0:0:0:0:
184,320,65111,5,0,0:0:0:0:
184,320,65242,2,0,P|272:312|296:332,1,105.000004005432,2|0,0:0|0:0,0:0:0:0:
360,332,65634,2,0,P|352:280|356:272,1,52.5000020027161,2|0,0:0|0:0,0:0:0:0:
367,208,65895,2,0,P|416:244|424:300,1,105.000004005432,2|0,0:0|0:0,0:0:0:0:
360,332,66417,1,2,0:0:0:0:
280,272,66548,1,0,0:0:0:0:
232,360,66679,1,0,0:0:0:0:
200,224,66809,1,2,0:0:0:0:
112,344,66940,1,0,0:0:0:0:
56,220,67201,5,0,0:0:0:0:
56,220,67332,2,0,P|68:164|52:100,1,105.000004005432,2|0,0:0|0:0,0:0:0:0:
24,48,67723,2,0,P|76:40|100:48,1,52.5000020027161,2|0,0:0|0:0,0:0:0:0:
136,88,67985,2,0,P|192:96|268:64,1,105.000004005432,2|0,0:0|0:0,0:0:0:0:
348,48,68507,6,0,P|356:108|344:136,1,70
424,192,68899,2,0,P|389:187|356:197,1,70
259,190,69291,2,0,L|259:225,1,35,2|0,0:0|0:0,0:0:0:0:
191,285,69552,2,0,P|157:279|124:288,1,70,2|0,0:0|0:0,0:0:0:0:
16,328,69944,2,0,P|6:276|20:227,1,105,2|2,0:0|0:0,0:0:0:0:
96,84,70597,6,0,P|144:80|180:88,1,70,2|0,0:0|0:0,0:0:0:0:
268,104,70858,1,8,0:0:0:0:
236,4,70989,1,0,0:0:0:0:
268,104,71119,2,0,P|276:176|256:252,1,140,2|8,0:0|0:0,0:0:0:0:
208,332,71511,1,0,0:0:0:0:
312,332,71642,2,0,P|348:340|388:332,1,70,2|0,0:0|0:0,0:0:0:0:
436,244,71903,2,0,P|400:236|360:244,1,70,8|0,0:0|0:0,0:0:0:0:
260,241,72164,1,2,0:0:0:0:
120,84,72425,1,8,0:0:0:0:
115,291,72686,6,0,B|112:256|112:256|144:240,1,70,2|0,0:0|0:0,0:0:0:0:
220,232,72947,1,8,0:0:0:0:
176,136,73078,1,0,0:0:0:0:
220,232,73208,2,0,P|287:247|356:232,1,140,2|8,0:0|0:0,0:0:0:0:
452,192,73600,1,0,0:0:0:0:
360,140,73731,2,0,P|355:105|362:71,1,70,2|0,0:0|0:0,0:0:0:0:
449,123,73992,2,0,P|456:156|451:191,1,70,8|0,0:0|0:0,0:0:0:0:
260,241,74253,1,2,0:0:0:0:
452,324,74515,1,8,0:0:0:0:
244,328,74776,6,0,P|196:332|160:324,1,70,2|0,0:0|0:0,0:0:0:0:
72,308,75037,1,8,0:0:0:0:
148,236,75168,1,0,0:0:0:0:
72,308,75298,2,0,P|56:240|72:172,1,140,2|8,0:0|0:0,0:0:0:0:
128,84,75690,1,0,0:0:0:0:
192,168,75821,2,0,P|228:176|268:168,1,70,2|0,0:0|0:0,0:0:0:0:
336,96,76082,2,0,P|300:88|260:96,1,70,8|0,0:0|0:0,0:0:0:0:
192,168,76343,1,2,0:0:0:0:
356,300,76605,1,8,0:0:0:0:
136,336,76866,6,2,P|112:268|140:196,1,140,2|0,0:0|0:0,0:0:0:0:
216,128,77258,2,0,P|151:151|85:131,1,140,2|0,0:0|0:0,0:0:0:0:
28,44,77649,2,0,P|84:28|116:40,1,70,2|0,0:0|0:0,0:0:0:0:
200,28,77911,2,0,P|234:27|265:42,1,70,2|0,0:0|0:0,0:0:0:0:
356,96,78172,1,2,0:0:0:0:
288,176,78302,2,0,B|248:240|296:324,1,140
372,244,78694,1,8,0:0:0:0:
164,272,78955,6,0,P|160:224|168:188,1,70,2|0,0:0|0:0,0:0:0:0:
220,116,79216,1,8,0:0:0:0:
132,60,79347,1,0,0:0:0:0:
76,148,79477,2,0,P|84:220|64:296,1,140,2|8,0:0|0:0,0:0:0:0:
8,372,79869,1,0,0:0:0:0:
112,376,80000,2,0,P|146:371|180:378,1,70,2|0,0:0|0:0,0:0:0:0:
240,292,80261,2,0,P|204:284|164:292,1,70,8|0,0:0|0:0,0:0:0:0:
68,285,80522,1,2,0:0:0:0:
124,84,80784,1,8,0:0:0:0:
424,72,81045,6,0,P|428:120|420:156,1,70,2|0,0:0|0:0,0:0:0:0:
384,240,81306,1,8,0:0:0:0:
288,200,81437,1,0,0:0:0:0:
332,104,81567,2,0,P|268:84|176:112,1,140,2|8,0:0|0:0,0:0:0:0:
104,148,81959,1,0,0:0:0:0:
192,204,82090,2,0,P|196:238|189:272,1,70,2|0,0:0|0:0,0:0:0:0:
132,360,82351,2,0,P|166:355|200:362,1,70,8|0,0:0|0:0,0:0:0:0:
304,372,82612,1,2,0:0:0:0:
428,176,82874,1,8,0:0:0:0:
228,248,83135,6,0,P|262:252|297:247,1,70,2|0,0:0|0:0,0:0:0:0:
404,244,83396,1,8,0:0:0:0:
352,336,83527,1,0,0:0:0:0:
297,247,83657,2,0,P|281:179|289:109,1,140,2|8,0:0|0:0,0:0:0:0:
328,12,84049,1,0,0:0:0:0:
396,92,84180,2,0,P|432:100|472:92,1,70,2|0,0:0|0:0,0:0:0:0:
224,52,84441,2,0,P|188:44|148:52,1,70,8|0,0:0|0:0,0:0:0:0:
60,92,84702,1,2,0:0:0:0:
216,232,84963,1,8,0:0:0:0:
424,224,85224,6,0,P|403:158|427:93,1,140,2|0,0:0|0:0,0:0:0:0:
512,28,85616,2,0,P|446:48|381:24,1,140,2|0,0:0|0:0,0:0:0:0:
276,24,86008,2,0,P|275:58|294:91,1,70,2|0,0:0|0:0,0:0:0:0:
344,180,86269,2,0,P|344:214|329:245,1,70,2|0,0:0|0:0,0:0:0:0:
256,320,86530,1,2,0:0:0:0:
152,320,86660,2,0,B|184:240|149:184,1,140
100,92,87052,1,8,0:0:0:0:
292,180,87314,6,0,P|284:224|300:276,1,70,2|0,0:0|0:0,0:0:0:0:
340,340,87575,1,8,0:0:0:0:
396,252,87706,1,0,0:0:0:0:
287,248,87836,2,0,P|216:232|140:256,1,140,2|8,0:0|0:0,0:0:0:0:
220,328,88228,1,0,0:0:0:0:
287,248,88359,2,0,P|295:212|287:172,1,70,2|0,0:0|0:0,0:0:0:0:
252,80,88620,2,0,P|286:75|320:82,1,70,8|0,0:0|0:0,0:0:0:0:
420,168,88881,1,2,0:0:0:0:
248,292,89143,1,8,0:0:0:0:
452,336,89404,6,0,P|456:301|451:266,1,70,2|0,0:0|0:0,0:0:0:0:
420,168,89665,1,8,0:0:0:0:
348,244,89796,1,0,0:0:0:0:
420,168,89926,2,0,P|304:152|280:168,1,140,2|8,0:0|0:0,0:0:0:0:
208,224,90318,1,0,0:0:0:0:
180,124,90449,2,0,P|175:89|182:55,1,70,2|0,0:0|0:0,0:0:0:0:
84,88,90710,2,0,P|50:80|15:85,1,70,8|0,0:0|0:0,0:0:0:0:
44,188,90971,1,2,0:0:0:0:
228,292,91232,1,8,0:0:0:0:
404,176,91494,6,0,P|356:180|320:172,1,70,2|0,0:0|0:0,0:0:0:0:
240,132,91755,1,8,0:0:0:0:
324,68,91886,1,0,0:0:0:0:
334,176,92016,2,0,P|342:245|326:313,1,140,2|8,0:0|0:0,0:0:0:0:
224,304,92408,1,0,0:0:0:0:
156,224,92539,2,0,P|189:231|224:226,1,70,2|0,0:0|0:0,0:0:0:0:
196,124,92800,2,0,P|160:116|120:124,1,70,8|0,0:0|0:0,0:0:0:0:
56,196,93061,1,2,0:0:0:0:
184,28,93322,1,8,0:0:0:0:
332,176,93583,6,0,P|352:241|328:306,1,140,2|0,0:0|0:0,0:0:0:0:
240,376,93975,2,0,P|219:310|243:245,1,140,2|0,0:0|0:0,0:0:0:0:
332,176,94366,2,0,P|368:168|404:176,1,70,2|0,0:0|0:0,0:0:0:0:
456,84,94628,2,0,P|420:92|384:84,1,70,2|0,0:0|0:0,0:0:0:0:
284,80,94889,1,2,0:0:0:0:
184,52,95019,2,0,B|218:107|186:187,1,140
136,272,95411,1,8,0:0:0:0:
44,112,95673,6,0,P|78:116|113:111,1,70,2|0,0:0|0:0,0:0:0:0:
212,76,95934,1,8,0:0:0:0:
136,4,96065,1,0,0:0:0:0:
113,111,96195,2,0,P|96:184|125:259,1,140,2|8,0:0|0:0,0:0:0:0:
184,324,96587,1,0,0:0:0:0:
288,316,96718,2,0,P|292:281|285:247,1,70,2|0,0:0|0:0,0:0:0:0:
236,156,96979,2,0,P|270:151|304:158,1,70,8|0,0:0|0:0,0:0:0:0:
384,224,97240,1,2,0:0:0:0:
364,16,97501,1,8,0:0:0:0:
384,224,97763,6,0,P|376:168|388:140,1,70,2|0,0:0|0:0,0:0:0:0:
432,68,98024,1,8,0:0:0:0:
328,64,98155,1,0,0:0:0:0:
379,156,98285,2,0,P|307:176|231:144,1,140,2|8,0:0|0:0,0:0:0:0:
156,104,98677,1,0,0:0:0:0:
66,151,98808,2,0,P|59:185|64:220,1,70,2|0,0:0|0:0,0:0:0:0:
154,276,99069,2,0,P|159:241|152:208,1,70,8|0,0:0|0:0,0:0:0:0:
66,151,99330,1,2,0:0:0:0:
252,56,99591,1,8,0:0:0:0:
456,100,99852,6,0,P|460:148|452:184,1,70,2|0,0:0|0:0,0:0:0:0:
424,268,100113,1,8,0:0:0:0:
456,169,100244,1,0,0:0:0:0:
424,268,100374,2,0,P|352:276|276:256,1,140,2|8,0:0|0:0,0:0:0:0:
196,208,100766,1,0,0:0:0:0:
100,160,100897,2,0,P|92:196|100:236,1,70,2|0,0:0|0:0,0:0:0:0:
156,316,101158,2,0,P|190:311|224:318,1,70,8|0,0:0|0:0,0:0:0:0:
324,352,101419,1,2,0:0:0:0:
196,208,101681,1,8,0:0:0:0:
404,228,101942,6,0,P|338:248|273:224,1,140,2|0,0:0|0:0,0:0:0:0:
224,132,102334,2,0,P|244:197|220:262,1,140,2|0,0:0|0:0,0:0:0:0:
140,332,102725,2,0,P|105:325|72:333,1,70,2|0,0:0|0:0,0:0:0:0:
48,232,102987,2,0,P|82:238|115:230,1,70,2|0,0:0|0:0,0:0:0:0:
220,262,103248,1,2,0:0:0:0:
304,328,103378,2,0,B|348:260|300:196,1,140
208,152,103770,1,8,0:0:0:0:
208,152,104032,1,0,0:0:0:0:
300,200,111346,6,0,P|368:184|452:212,1,140
328,96,111737,2,0,P|256:120|176:96,1,140
116,48,112129,1,0,0:0:0:0:
116,48,112390,6,0,P|137:139|109:242,1,181.999991668702,2|8,0:0|0:0,0:0:0:0:
51,286,112782,2,0,P|142:265|245:293,1,181.999991668702,0|0,0:0|0:0,0:0:0:0:
312,316,113174,1,8,0:0:0:0:
432,180,113435,1,2,0:0:0:0:
468,91,113566,1,0,0:0:0:0:
379,56,113696,1,8,0:0:0:0:
343,144,113827,1,0,0:0:0:0:
262,205,113958,2,0,P|216:219|151:179,1,90.9999958343508,2|0,0:0|0:0,0:0:0:0:
91,89,114219,2,0,P|137:75|202:115,1,90.9999958343508,8|0,0:0|0:0,0:0:0:0:
263,115,114480,6,0,P|244:203|265:291,1,181.999991668702,2|8,0:0|0:0,0:0:0:0:
273,363,114872,2,0,P|193:292|276:223,1,181.999991668702
283,175,115264,1,8,0:0:0:0:
283,174,115525,2,2,P|199:191|100:165,1,181.999991668702,2|10,0:0|0:0,0:0:0:0:
159,93,115917,2,0,P|183:211|126:250,1,181.999991668702
77,304,116309,1,8,0:0:0:0:
256,331,116570,6,0,P|344:349|432:328,1,181.999991668702,2|8,0:0|0:0,0:0:0:0:
432,237,116962,2,0,P|343:218|255:239,1,181.999991668702,0|0,0:0|0:0,0:0:0:0:
177,286,117354,1,8,0:0:0:0:
95,247,117484,1,0,0:0:0:0:
113,157,117615,2,0,P|106:112|108:66,1,90.9999958343508,2|0,0:0|0:0,0:0:0:0:
199,59,117876,2,0,P|206:103|203:149,1,90.9999958343508,8|0,0:0|0:0,0:0:0:0:
167,238,118137,6,0,P|214:228|257:239,1,90.9999958343508,2|0,0:0|0:0,0:0:0:0:
325,297,118398,2,0,P|315:249|326:206,1,90.9999958343508,8|0,0:0|0:0,0:0:0:0:
347,120,118659,2,0,P|411:177|372:286,1,181.999991668702,2|8,0:0|0:0,0:0:0:0:
325,297,119051,2,0,P|243:244|299:127,1,181.999991668702,0|0,0:0|0:0,0:0:0:0:
268,79,119443,1,8,0:0:0:0:
142,210,119704,2,0,P|117:105|158:20,1,181.999991668702,2|8,0:0|0:0,0:0:0:0:
256,124,120096,2,0,B|172:96|172:168|64:128,1,181.999991668702,2|2,0:0|0:0,0:0:0:0:
0,120,120488,1,8,0:0:0:0:
53,308,120749,6,0,P|141:326|229:305,1,181.999991668702,2|8,0:0|0:0,0:0:0:0:
297,245,121141,2,0,P|317:157|299:68,1,181.999991668702,0|0,0:0|0:0,0:0:0:0:
215,32,121533,1,8,0:0:0:0:
128,192,121794,1,2,0:0:0:0:
203,243,121925,1,0,0:0:0:0:
212,152,122055,1,8,0:0:0:0:
121,286,122186,1,0,0:0:0:0:
195,338,122317,2,0,P|238:350|280:336,1,90.9999958343508,2|0,0:0|0:0,0:0:0:0:
372,236,122578,2,0,P|329:224|287:238,1,90.9999958343508,2|0,0:0|0:0,0:0:0:0:
186,273,122839,6,0,P|165:185|183:96,1,181.999991668702,2|8,0:0|0:0,0:0:0:0:
226,16,123231,2,0,P|152:8|85:86,1,181.999991668702
48,260,123623,1,8,0:0:0:0:
52,264,123884,2,0,P|139:286|232:260,1,181.999991668702,2|8,0:0|0:0,0:0:0:0:
308,208,124276,2,0,P|229:163|144:204,1,181.999991668702
226,263,124668,1,8,0:0:0:0:
150,195,124929,6,0,P|129:107|147:18,1,181.999991668702,2|8,0:0|0:0,0:0:0:0:
232,60,125321,2,0,P|314:47|412:62,1,181.999991668702
468,148,125713,1,8,0:0:0:0:
408,216,125843,1,0,0:0:0:0:
356,140,125974,2,0,P|316:134|265:144,1,90.9999958343508,2|0,0:0|0:0,0:0:0:0:
179,118,126235,2,0,P|186:162|183:208,1,90.9999958343508,2|0,0:0|0:0,0:0:0:0:
175,299,126496,2,0,B|282:282|252:325|365:304,1,181.999991668702,2|2,0:0|0:0,0:0:0:0:
374,187,127018,6,0,P|385:158|389:124,2,56,2|0|0,0:0|0:0|0:0,0:0:0:0:
317,184,127410,1,0,0:0:0:0:
168,218,127671,1,0,0:0:0:0:
168,218,127802,2,0,P|143:225|110:216,1,56,0|0,0:0|0:0,0:0:0:0:
61,198,128063,2,0,P|51:229|58:271,2,56
119,136,128455,2,0,P|180:120|239:147,1,112,0|0,0:0|0:0,0:0:0:0:
317,184,128847,1,2,0:0:0:0:
224,272,129108,6,0,L|192:301,3,35,2|0|2|0,0:0|0:0|0:0|0:0,0:0:0:0:
238,318,129630,2,0,P|287:323|319:309,1,70,2|0,0:0|0:0,0:0:0:0:
398,267,130153,1,2,0:0:0:0:
272,172,130544,1,2,0:0:0:0:
392,88,130936,2,0,L|389:49,1,35
384,24,131197,2,0,B|335:32|335:32|279:24,1,105
152,40,131851,2,0,L|168:80,1,35,0|2,0:0|0:0,0:0:0:0:
264,144,132242,1,2,0:0:0:0:
138,82,133287,6,0,L|106:111,3,35,2|0|2|0,0:0|0:0|0:0|0:0,0:0:0:0:
162,120,133809,2,0,P|169:153|163:187,1,70,2|0,0:0|0:0,0:0:0:0:
138,290,134332,1,2,0:0:0:0:
294,308,134723,1,2,0:0:0:0:
433,234,135115,2,0,L|409:193,2,35,2|0|2,0:0|0:0|0:0,0:0:0:0:
288,171,135768,1,2,0:0:0:0:
182,170,136030,2,0,L|181:119,1,35,0|2,0:0|0:0,0:0:0:0:
82,169,136421,1,2,0:0:0:0:
377,102,137467,6,0,L|402:78,3,35,2|0|0|0,0:0|0:0|0:0|0:0,0:0:0:0:
358,50,137989,2,0,P|323:43|290:51,1,70,2|0,0:0|0:0,0:0:0:0:
188,80,138512,1,2,0:0:0:0:
288,200,138903,1,0,0:0:0:0:
419,286,139295,2,0,L|443:327,2,35,2|0|2,0:0|0:0|0:0,0:0:0:0:
261,288,139948,1,2,0:0:0:0:
173,229,140210,2,0,L|138:229,1,35,0|0,0:0|0:0,0:0:0:0:
75,145,140601,1,2,0:0:0:0:
256,72,141646,6,0,L|256:27,3,35,2|0|0|0,0:0|0:0|0:0|0:0,0:0:0:0:
288,80,142168,2,0,P|295:113|289:147,1,70,2|0,0:0|0:0,0:0:0:0:
260,248,142691,1,2,0:0:0:0:
412,212,143082,1,0,0:0:0:0:
366,337,143474,2,0,L|384:368,2,35,2|0|2,0:0|0:0|0:0,0:0:0:0:
216,292,144127,1,2,0:0:0:0:
256,196,144389,2,0,L|256:160,1,35,0|0,0:0|0:0,0:0:0:0:
256,56,144780,1,2,0:0:0:0:
104,116,145825,6,0,P|144:120|200:104,1,70,2|0,0:0|0:0,0:0:0:0:
256,52,146086,2,0,P|290:46|325:51,1,70,0|0,0:0|0:0,0:0:0:0:
400,128,146348,2,0,P|396:168|424:240,1,70,2|0,0:0|0:0,0:0:0:0:
421,290,146609,2,0,P|386:296|352:292,1,70,0|0,0:0|0:0,0:0:0:0:
252,320,146870,6,0,P|232:253|252:187,1,140,2|0,0:0|0:0,0:0:0:0:
328,112,147262,2,0,P|261:92|194:109,1,140,2|0,0:0|0:0,0:0:0:0:
92,128,147654,1,2,0:0:0:0:
84,232,147784,1,0,0:0:0:0:
84,232,147915,6,0,P|88:272|72:324,1,70,2|0,0:0|0:0,0:0:0:0:
180,260,148176,2,0,P|190:298|184:352,1,70,0|0,0:0|0:0,0:0:0:0:
284,280,148437,2,0,P|301:316|304:370,1,70,2|0,0:0|0:0,0:0:0:0:
396,288,148699,2,0,P|419:320|431:373,1,70,0|0,0:0|0:0,0:0:0:0:
460,204,148960,2,0,P|376:184|288:248,1,140,2|2,0:0|0:0,0:0:0:0:
232,244,149352,1,0,0:0:0:0:
148,308,149482,2,0,P|124:236|152:168,1,140,2|2,0:0|0:0,0:0:0:0:
196,84,149874,1,0,0:0:0:0:
92,100,150005,6,0,P|36:84|-16:80,1,70,2|0,0:0|0:0,0:0:0:0:
256,152,150266,2,0,P|312:168|364:172,1,70,2|0,0:0|0:0,0:0:0:0:
428,192,150527,2,0,P|421:226|410:259,1,70,2|0,0:0|0:0,0:0:0:0:
308,280,150788,2,0,P|264:276|192:312,1,70,2|0,0:0|0:0,0:0:0:0:
136,296,151049,6,0,P|116:212|160:148,1,140,2|0,0:0|0:0,0:0:0:0:
228,108,151441,2,0,P|148:132|72:80,1,140,2|0,0:0|0:0,0:0:0:0:
164,32,151833,1,2,0:0:0:0:
228,108,151964,1,0,0:0:0:0:
288,196,152094,2,0,P|392:208|424:184,1,140,2|0,0:0|0:0,0:0:0:0:
352,116,152486,1,2,0:0:0:0:
283,31,152617,2,0,P|346:5|411:27,1,140,0|2,0:0|0:0,0:0:0:0:
472,116,153009,1,0,0:0:0:0:
504,240,153139,6,0,P|464:236|435:244,1,70,2|0,0:0|0:0,0:0:0:0:
368,324,153400,2,0,P|408:328|437:320,1,70,2|0,0:0|0:0,0:0:0:0:
360,248,153662,6,0,P|328:244|290:251,1,70,2|0,0:0|0:0,0:0:0:0:
224,332,153923,2,0,P|257:336|293:328,1,70,2|0,0:0|0:0,0:0:0:0:
360,248,154184,6,0,P|368:192|344:136,1,70,2|0,0:0|0:0,0:0:0:0:
312,88,154445,2,0,P|256:80|200:104,1,70,0|0,0:0|0:0,0:0:0:0:
152,136,154706,2,0,P|144:192|168:248,1,70,2|0,0:0|0:0,0:0:0:0:
200,296,154967,2,0,P|256:304|312:280,1,70,0|0,0:0|0:0,0:0:0:0:
376,304,155229,2,0,P|352:204|376:156,1,140,2|0,0:0|0:0,0:0:0:0:
448,112,155621,2,0,P|376:132|308:112,1,140,2|0,0:0|0:0,0:0:0:0:
216,76,156012,1,2,0:0:0:0:
112,96,156143,1,0,0:0:0:0:
112,96,156274,6,0,P|112:180|104:204,1,70,2|0,0:0|0:0,0:0:0:0:
196,232,156535,2,0,P|198:197|192:162,1,70,0|0,0:0|0:0,0:0:0:0:
260,80,156796,2,0,P|260:164|252:188,1,70,2|0,0:0|0:0,0:0:0:0:
344,216,157057,2,0,P|346:181|340:146,1,70,0|0,0:0|0:0,0:0:0:0:
340,40,157319,2,0,P|416:76|440:156,1,140,2|2,0:0|0:0,0:0:0:0:
436,228,157710,1,0,0:0:0:0:
336,256,157841,2,0,P|271:231|237:172,1,140,2|2,0:0|0:0,0:0:0:0:
224,68,158233,1,0,0:0:0:0:
128,104,158363,6,0,P|56:104|32:92,1,70,2|0,0:0|0:0,0:0:0:0:
59,185,158625,2,0,P|93:190|128:184,1,70,2|0,0:0|0:0,0:0:0:0:
128,264,158886,2,0,P|56:264|32:252,1,70,2|0,0:0|0:0,0:0:0:0:
59,345,159148,2,0,P|93:350|128:344,1,70,2|0,0:0|0:0,0:0:0:0:
228,316,159408,2,0,P|304:296|368:320,1,140,2|0,0:0|0:0,0:0:0:0:
444,380,159800,2,0,P|416:316|448:240,1,140,2|0,0:0|0:0,0:0:0:0:
492,164,160192,1,2,0:0:0:0:
492,164,160322,1,0,0:0:0:0:
388,160,160453,6,0,P|288:164|224:136,1,140,2|2,0:0|0:0,0:0:0:0:
160,96,160845,1,2,0:0:0:0:
144,200,160975,2,0,P|136:232|144:288,1,70,8|0,0:0|0:0,0:0:0:0:
236,312,161237,2,0,P|244:276|236:224,1,70,2|0,0:0|0:0,0:0:0:0:
251,151,161498,2,0,B|320:36|320:36|376:136|376:136|316:136|316:136,1,280
304,320,162282,5,2,0:0:0:0:
200,320,162412,1,0,0:0:0:0:
96,316,162543,2,0,P|72:224|120:152,1,140,2|2,0:0|0:0,0:0:0:0:
152,104,162935,1,2,0:0:0:0:
200,196,163065,2,0,P|232:204|288:184,1,70,8|0,0:0|0:0,0:0:0:0:
332,112,163326,2,0,P|300:104|244:124,1,70,2|0,0:0|0:0,0:0:0:0:
152,104,163588,2,0,B|118:111|118:111|56:91|56:91|22:101|22:101|26:138|26:138|72:186|72:186|76:254,1,280
232,336,164371,5,2,0:0:0:0:
228,232,164502,1,0,0:0:0:0:
228,128,164632,2,0,P|295:110|364:119,1,140,2|2,0:0|0:0,0:0:0:0:
448,184,165024,1,2,0:0:0:0:
380,264,165154,2,0,P|372:296|380:352,1,70,8|0,0:0|0:0,0:0:0:0:
280,284,165416,2,0,P|244:276|192:284,1,70,2|0,0:0|0:0,0:0:0:0:
108,284,165677,2,0,P|32:248|156:208,1,280,0|0,0:0|0:0,0:0:0:0:
324,280,166461,5,2,0:0:0:0:
324,280,166591,1,0,0:0:0:0:
324,280,166722,2,0,P|244:264|160:292,1,140,2|2,0:0|0:0,0:0:0:0:
84,300,167114,1,2,0:0:0:0:
124,204,167244,2,0,P|132:168|129:135,1,70,8|0,0:0|0:0,0:0:0:0:
76,44,167506,2,0,P|110:41|144:49,1,70,2|0,0:0|0:0,0:0:0:0:
240,88,167767,6,0,B|255:128|304:128|327:97|327:97|327:192|327:192|304:160|256:160|232:208,1,315
184,320,168551,1,2,0:0:0:0:
68,108,168812,6,0,P|128:96|204:128,1,105.000004005432,2|8,0:0|0:0,0:0:0:0:
256,168,169204,2,0,P|243:117|253:66,1,105.000004005432,2|8,0:0|0:0,0:0:0:0:
344,16,169595,1,8,0:0:0:0:
456,200,169857,6,0,P|468:256|448:332,1,105.000004005432,2|8,0:0|0:0,0:0:0:0:
360,304,170248,2,0,P|348:253|355:202,1,105.000004005432,2|8,0:0|0:0,0:0:0:0:
408,112,170640,1,2,0:0:0:0:
200,152,170901,6,0,P|156:168|84:132,1,105.000004005432,2|8,0:0|0:0,0:0:0:0:
24,80,171293,2,0,L|8:208,1,105.000004005432,2|8,0:0|0:0,0:0:0:0:
24,288,171684,1,2,0:0:0:0:
224,344,171946,6,0,P|276:328|348:352,1,105.000004005432,2|8,0:0|0:0,0:0:0:0:
424,368,172338,2,0,L|408:240,1,105.000004005432,2|8,0:0|0:0,0:0:0:0:
408,160,172730,2,0,P|352:160|332:176,1,52.5000020027161,8|8,0:0|0:0,0:0:0:0:
304,248,172991,1,4,0:0:0:0:
