osu file format v14

[General]
AudioFilename: audio.mp3
AudioLeadIn: 0
PreviewTime: 20641
Countdown: 0
SampleSet: Soft
StackLeniency: 0.7
Mode: 0
LetterboxInBreaks: 0
WidescreenStoryboard: 1

[Editor]
Bookmarks: 12,6968,13925,20881,34794,38272,45229,52185,55664
DistanceSpacing: 1
BeatDivisor: 8
GridSize: 32
TimelineZoom: 1.3

[Metadata]
Title:Beginning
TitleUnicode:Beginning
Artist:Toby Fox
ArtistUnicode:Toby Fox
Creator:MashaSG
Version:Ayyri's Hard
Source:DELTARUNE
Tags:UNDERTALE DELTA RUNE Intro Car eiri- ayyri
BeatmapID:1827525
BeatmapSetID:874091

[Difficulty]
HPDrainRate:5
CircleSize:3.7
OverallDifficulty:6
ApproachRate:7.5
SliderMultiplier:1.6
SliderTickRate:1

[Events]
//Background and Video events
Video,0,"SchoolRide.mp4"
0,0,"SmilingRalsei.jpg",0,0
//Break Periods
//Storyboard Layer 0 (Background)
//Storyboard Layer 1 (Fail)
//Storyboard Layer 2 (Pass)
//Storyboard Layer 3 (Foreground)
//Storyboard Sound Samples

[TimingPoints]
44,434.782608695652,4,2,1,40,1,0
7000,-100,4,2,1,50,0,0
20478,-100,4,2,1,5,0,0
20913,-83.3333333333333,4,2,1,70,0,1
31348,-83.3333333333333,4,2,1,60,0,1
33957,-83.3333333333333,4,2,1,50,0,1
34826,-100,4,2,1,40,0,0
36457,-100,4,2,1,5,0,0
36565,-100,4,2,1,40,0,0
37000,-100,4,2,1,5,0,0
37054,-100,4,2,1,40,0,0
38304,434.782608695652,4,2,2,30,1,0
38304,-100,4,2,2,30,0,0
52435,-100,4,2,2,25,0,0
53087,-100,4,2,2,20,0,0
53957,-100,4,2,2,15,0,0
54826,-100,4,2,2,10,0,0
55696,-100,4,2,2,5,0,0

[Colours]
Combo1 : 253,215,0
Combo2 : 4,174,0
Combo3 : 255,17,136

[HitObjects]
211,104,44,6,0,P|199:60|170:20,2,80,2|0|0,0:0|0:0|0:0,0:0:0:0:
293,167,696,2,0,P|305:123|334:83,2,80,2|0|0,0:0|0:0|0:0,0:0:0:0:
322,267,1348,1,2,0:0:0:0:
322,267,1783,6,0,L|410:256,2,80,2|0|0,0:0|0:0|0:0,0:0:0:0:
246,338,2435,2,0,L|334:349,2,80,2|0|0,0:0|0:0|0:0,0:0:0:0:
143,318,3087,1,2,0:0:0:0:
143,318,3522,6,0,P|90:341|54:342,2,80,2|0|0,0:0|0:0|0:0,0:0:0:0:
75,238,4174,2,0,P|21:216|-4:192,2,80,2|0|0,0:0|0:0|0:0,0:0:0:0:
83,133,4826,1,2,0:0:0:0:
83,133,5261,6,0,L|74:44,2,80,2|0|0,0:0|0:0|0:0,0:0:0:0:
174,183,5913,2,0,L|183:94,2,80,2|0|0,0:0|0:0|0:0,0:0:0:0:
190,286,6565,1,2,0:0:0:0:
300,220,6783,1,2,0:0:0:0:
300,220,6891,1,2,0:0:0:0:
300,220,7000,6,0,P|360:217|387:222,1,80,2|2,0:0|0:0,0:0:0:0:
469,272,7435,2,0,P|466:212|471:185,1,80,2|2,0:0|0:0,0:0:0:0:
503,94,7870,2,0,P|442:108|330:48,1,160,2|2,0:0|0:0,0:0:0:0:
273,5,8522,1,2,0:0:0:0:
198,98,8739,6,0,L|93:109,1,80,2|2,0:0|0:0,0:0:0:0:
94,207,9174,2,0,L|-11:196,1,80,2|2,0:0|0:0,0:0:0:0:
2,302,9609,2,0,P|26:339|139:327,1,160,2|0,0:0|0:0,0:0:0:0:
229,253,10261,1,2,0:0:0:0:
229,253,10370,1,2,0:0:0:0:
229,253,10478,6,0,P|254:292|259:330,2,80,2|2|2,0:0|0:0|0:0,0:0:0:0:
137,202,11130,1,2,0:0:0:0:
164,101,11348,2,0,L|331:95,1,160,2|2,0:0|0:0,0:0:0:0:
414,43,12000,1,2,0:0:0:0:
487,137,12217,6,0,P|503:194|441:293,1,160,2|0,0:0|0:0,0:0:0:0:
400,195,12870,1,2,0:0:0:0:
324,266,13087,2,0,L|163:279,1,160,2|0,0:0|0:0,0:0:0:0:
37,296,13739,1,2,0:0:0:0:
37,296,13848,1,2,0:0:0:0:
37,296,13957,6,0,L|10:214,1,80,2|2,0:0|0:0,0:0:0:0:
82,143,14391,2,0,L|92:57,1,80,2|2,0:0|0:0,0:0:0:0:
181,10,14826,2,0,P|226:43|212:147,1,160,2|2,0:0|0:0,0:0:0:0:
163,226,15478,1,2,0:0:0:0:
243,315,15696,6,0,P|290:310|339:321,1,80,2|2,0:0|0:0,0:0:0:0:
365,220,16130,2,0,P|401:249|428:292,1,80,2|2,0:0|0:0,0:0:0:0:
450,376,16565,2,0,L|486:198,1,160,2|2,0:0|0:0,0:0:0:0:
483,114,17217,1,2,0:0:0:0:
419,30,17435,6,0,P|357:31|260:92,1,160,2|0,0:0|0:0,0:0:0:0:
215,164,18087,1,2,0:0:0:0:
117,129,18304,2,0,L|130:217,1,80,2|2,0:0|0:0,0:0:0:0:
121,312,18739,2,0,P|64:326|14:280,1,120,2|2,0:0|0:0,0:0:0:0:
6,240,19174,5,2,0:0:0:0:
256,192,19391,12,0,20478,0:0:0:0:
346,298,20913,6,0,L|354:186,1,95.9999970703126,14|10,1:0|0:0,0:0:0:0:
261,233,21348,2,0,L|253:121,1,95.9999970703126,10|10,1:0|0:0,0:0:0:0:
242,22,21783,2,0,P|174:45|118:156,1,191.999994140625,10|10,1:0|1:0,0:0:0:0:
108,241,22435,1,10,0:0:0:0:
150,327,22652,6,0,L|274:314,1,95.9999970703126,10|10,1:0|0:0,0:0:0:0:
328,268,23087,2,0,L|452:281,1,95.9999970703126,10|10,1:0|0:0,0:0:0:0:
489,183,23522,2,0,P|483:122|362:98,1,191.999994140625,10|8,1:0|1:0,0:0:0:0:
277,157,24174,1,10,0:0:0:0:
277,157,24283,1,2,0:0:0:0:
277,157,24391,6,0,L|260:61,1,95.9999970703126,10|10,1:0|0:0,0:0:0:0:
164,53,24826,2,0,L|181:149,1,95.9999970703126,10|10,1:0|0:0,0:0:0:0:
201,241,25261,1,10,1:0:0:0:
171,342,25478,1,10,0:0:0:0:
282,311,25696,1,10,1:0:0:0:
396,381,25913,1,10,0:0:0:0:
396,381,26130,6,0,L|378:244,1,95.9999970703126,14|8,1:0|0:0,0:0:0:0:
456,196,26565,2,0,L|438:59,1,95.9999970703126,8|10,1:0|0:0,0:0:0:0:
373,9,27000,2,0,P|321:19|258:118,1,143.999995605469,14|0,1:0|0:0,0:0:0:0:
254,132,27435,1,8,1:0:0:0:
272,245,27652,1,10,0:0:0:0:
272,245,27761,1,2,0:0:0:0:
272,245,27870,6,0,P|220:234|171:238,1,95.9999970703126,14|10,1:0|0:0,0:0:0:0:
166,331,28304,2,0,P|218:342|267:338,1,95.9999970703126,10|10,1:0|0:0,0:0:0:0:
345,294,28739,2,0,L|377:84,1,191.999994140625,10|10,1:0|1:0,0:0:0:0:
392,9,29391,1,10,0:0:0:0:
298,33,29609,6,0,L|190:16,1,95.9999970703126,10|10,1:0|0:0,0:0:0:0:
148,96,30043,2,0,L|255:112,1,95.9999970703126,10|10,1:0|0:0,0:0:0:0:
299,210,30478,2,0,P|264:273|142:244,1,191.999994140625,10|10,1:0|1:0,0:0:0:0:
109,179,31130,1,10,0:0:0:0:
30,234,31348,6,0,L|8:38,1,191.999994140625,10|8,1:0|1:0,0:0:0:0:
98,77,32000,1,10,0:0:0:0:
203,31,32217,1,10,1:0:0:0:
203,31,32435,1,10,0:0:0:0:
281,139,32652,2,0,P|357:144|413:89,1,143.999995605469,10|2,1:0|0:0,0:0:0:0:
423,57,33087,6,0,L|405:253,1,191.999994140625,10|8,1:0|1:0,0:0:0:0:
390,343,33739,1,10,0:0:0:0:
308,292,33957,1,10,1:0:0:0:
308,292,34174,1,10,0:0:0:0:
228,345,34391,1,10,1:0:0:0:
228,345,34609,1,10,0:0:0:0:
145,281,34826,6,0,L|55:286,1,80,10|0,1:0|0:0,0:0:0:0:
19,191,35261,2,0,L|109:186,1,80,10|2,1:0|0:0,0:0:0:0:
196,148,35696,1,10,1:0:0:0:
196,148,35913,1,2,0:0:0:0:
275,215,36130,2,0,P|294:262|307:331,1,120,10|0,1:0|0:0,0:0:0:0:
268,365,36565,6,0,B|376:321|358:425|522:352,1,240,10|2,1:0|0:0,0:0:0:0:
425,287,37435,2,0,P|420:229|410:178,1,80,2|2,0:0|0:0,0:0:0:0:
375,111,37870,1,2,0:0:0:0:
375,111,38087,1,2,0:0:0:0:
278,150,38304,6,0,L|115:133,3,160,2|2|2|2,0:0|0:0|0:0|0:0,0:0:0:0:
39,325,40043,2,0,L|198:308,3,160,2|2|2|2,0:0|0:0|0:0|0:0,0:0:0:0:
405,288,41783,6,0,L|422:125,3,160,2|2|2|2,0:0|0:0|0:0|0:0,0:0:0:0:
230,49,43522,2,0,L|246:208,3,160,2|2|2|2,0:0|0:0|0:0|0:0,0:0:0:0:
105,285,45261,6,0,L|122:122,3,160,2|2|2|2,0:0|0:0|0:0|0:0,0:0:0:0:
267,192,47000,2,0,L|284:351,3,160,2|2|2|2,0:0|0:0|0:0|0:0,0:0:0:0:
402,244,48739,6,0,L|419:81,3,160,2|2|2|2,0:0|0:0|0:0|0:0,0:0:0:0:
273,17,50478,2,0,L|290:176,3,160,2|2|2|2,0:0|0:0|0:0|0:0,0:0:0:0:
253,332,52217,5,2,0:0:0:0:
256,192,52435,12,0,55696,0:0:0:0:
