osu file format v14

[General]
AudioFilename: audio.mp3
AudioLeadIn: 0
PreviewTime: 20696
Countdown: 0
SampleSet: Soft
StackLeniency: 0.5
Mode: 0
LetterboxInBreaks: 0
WidescreenStoryboard: 1

[Editor]
Bookmarks: 41747
DistanceSpacing: 1.3
BeatDivisor: 2
GridSize: 8
TimelineZoom: 1

[Metadata]
Title:Beginning
TitleUnicode:Beginning
Artist:Toby Fox
ArtistUnicode:Toby Fox
Creator:Error-
Version:Normal
Source:DELTARUNE
Tags:ost radiation survey_program undertale kris toriel
BeatmapID:1824195
BeatmapSetID:872679

[Difficulty]
HPDrainRate:4
CircleSize:3
OverallDifficulty:4
ApproachRate:5
SliderMultiplier:1.2
SliderTickRate:1

[Events]
//Background and Video events
0,0,"bg.png",0,0
//Break Periods
//Storyboard Layer 0 (Background)
//Storyboard Layer 1 (Fail)
//Storyboard Layer 2 (Pass)
//Storyboard Layer 3 (Foreground)
//Storyboard Sound Samples

[TimingPoints]
44.0640713706407,434.782608695652,4,2,1,35,1,0
1783,-100,4,2,1,40,0,0
3522,-100,4,2,1,45,0,0
5261,-100,4,2,1,50,0,0
20913,-100,4,2,1,60,0,0
36565,-117.647058823529,4,2,1,45,0,0
38304,434.782608695652,4,2,1,30,1,0
38304,-117.647058823529,4,2,1,30,0,0
53087,-133.333333333333,4,2,1,25,0,0
53957,-133.333333333333,4,2,1,20,0,0
54609,-133.333333333333,4,2,1,15,0,0
55261,-133.333333333333,4,2,1,10,0,0
55478,-117.647058823529,4,2,1,5,0,0

[Colours]
Combo1 : 50,94,120
Combo2 : 28,172,227
Combo3 : 15,142,191

[HitObjects]
101,81,44,6,0,P|68:164|98:222,1,120
144,227,696,2,0,L|272:219,1,120,2|0,0:0|0:0,0:0:0:0:
330,178,1348,1,2,0:0:0:0:
481,216,1783,6,0,P|513:280|505:352,1,120,2|0,0:0|0:0,0:0:0:0:
444,365,2435,2,0,L|324:357,1,120,2|0,0:0|0:0,0:0:0:0:
247,339,3087,1,2,0:0:0:0:
91,310,3522,6,0,B|75:246|75:246|91:182,1,120,2|0,0:0|0:0,0:0:0:0:
150,146,4174,2,0,L|286:154,1,120,2|0,0:0|0:0,0:0:0:0:
328,205,4826,1,2,0:0:0:0:
461,285,5261,6,0,P|501:229|493:165,1,120,2|0,0:0|0:0,0:0:0:0:
463,110,5913,2,0,B|397:101|415:142|327:126,1,120,2|0,0:0|0:0,0:0:0:0:
281,85,6565,2,0,L|201:93,1,60,2|0,0:0|0:0,0:0:0:0:
148,120,7000,6,0,P|124:168|140:248,1,120,2|2,0:0|0:0,0:0:0:0:
190,293,7652,1,0,0:0:0:0:
190,293,7870,2,0,P|238:277|318:285,1,120,2|2,0:0|0:0,0:0:0:0:
442,347,8739,6,0,L|426:211,1,120,2|2,0:0|0:0,0:0:0:0:
364,183,9391,1,0,0:0:0:0:
364,183,9609,2,0,L|380:53,1,120,2|0,0:0|0:0,0:0:0:0:
234,10,10478,6,0,P|188:49|151:52,1,60,2|0,0:0|0:0,0:0:0:0:
113,67,10913,2,0,P|76:51|44:46,1,60,2|0,0:0|0:0,0:0:0:0:
2,103,11348,2,0,P|26:150|33:227,1,120,2|2,0:0|0:0,0:0:0:0:
15,371,12217,6,0,P|65:329|133:334,1,120,2|0,0:0|0:0,0:0:0:0:
189,288,12870,1,2,0:0:0:0:
189,288,13087,2,0,P|260:298|308:266,1,120,2|0,0:0|0:0,0:0:0:0:
384,274,13739,1,2,0:0:0:0:
384,274,13957,6,0,B|372:226|372:226|387:134,1,120,2|2,0:0|0:0,0:0:0:0:
419,87,14609,1,0,0:0:0:0:
419,87,14826,2,0,P|354:122|298:110,1,120,2|2,0:0|0:0,0:0:0:0:
184,23,15696,6,0,L|110:28,1,60,2|0,0:0|0:0,0:0:0:0:
79,91,16131,2,0,L|4:100,1,60,2|0,0:0|0:0,0:0:0:0:
3,174,16565,2,0,L|21:312,1,120,2|2,0:0|0:0,0:0:0:0:
166,342,17435,6,0,B|278:367|249:308|381:324,1,180,2|2,0:0|0:0,0:0:0:0:
413,350,18304,2,0,P|467:364|511:354,2,60,2|0|2,0:0|0:0|0:0,0:0:0:0:
433,196,19174,5,2,0:0:0:0:
74,41,20696,1,2,0:0:0:0:
74,41,20913,6,0,L|59:184,1,120,6|2,0:0|0:0,0:0:0:0:
15,223,21565,1,0,3:0:0:0:
15,223,21783,2,0,B|74:208|74:208|153:220,1,120,2|2,0:0|0:0,0:0:0:0:
251,317,22652,6,0,B|316:332|316:332|379:318,1,120,2|2,0:0|0:0,0:0:0:0:
447,296,23304,1,0,3:0:0:0:
447,296,23522,2,0,P|438:227|439:175,1,120,2|0,0:0|0:0,0:0:0:0:
463,22,24391,6,0,P|404:44|330:28,1,120,2|2,0:0|0:0,0:0:0:0:
275,7,25044,1,0,3:0:0:0:
275,7,25261,2,0,L|162:13,1,60,2|0,0:0|3:0,0:0:0:0:
137,15,25696,2,0,L|24:21,1,60,2|0,0:0|3:0,0:0:0:0:
16,67,26131,6,0,L|32:216,1,120,6|6,0:0|0:0,0:0:0:0:
178,142,27000,2,0,L|162:291,1,120,6|6,0:0|0:0,0:0:0:0:
154,345,27652,1,2,0:0:0:0:
154,345,27870,6,0,P|200:331|287:330,1,120,6|2,0:0|0:0,0:0:0:0:
345,361,28522,1,0,3:0:0:0:
349,366,28739,2,0,P|411:359|458:322,1,120,2|2,0:0|0:0,0:0:0:0:
347,204,29609,6,0,P|333:134|337:108,1,60,2|0,0:0|3:0,0:0:0:0:
402,110,30044,2,0,P|411:76|408:36,1,60,2|0,0:0|3:0,0:0:0:0:
350,2,30478,2,0,B|293:22|293:22|188:9,1,120,2|2,0:0|0:0,0:0:0:0:
167,56,31131,1,2,3:2:0:0:
167,56,31348,6,0,L|35:69,1,120,2|0,0:0|0:0,0:0:0:0:
15,142,32000,1,2,3:2:0:0:
15,142,32217,2,0,P|27:201|5:244,2,60,2|2|2,0:0|3:2|0:0,0:0:0:0:
90,278,33087,6,0,P|141:227|221:224,1,120,2|2,0:0|0:0,0:0:0:0:
261,261,33739,1,0,3:0:0:0:
261,261,33957,2,0,P|332:265|356:255,2,60,2|2|2,0:0|3:2|0:0,0:0:0:0:
204,115,34826,6,0,L|69:123,1,120,2|0,0:0|0:0,0:0:0:0:
191,7,35696,2,0,L|310:-1,1,120,2|2,0:0|0:0,0:0:0:0:
409,87,36565,5,2,0:0:0:0:
256,304,37435,1,2,0:0:0:0:
48,144,38304,6,0,L|40:32,1,102.000001945496,2|0,0:0|0:0,0:0:0:0:
169,74,39173,2,0,L|176:175,1,102.000001945496
309,182,40043,2,0,P|301:254|253:294,1,102.000001945496,2|0,0:0|0:0,0:0:0:0:
416,264,40912,2,0,P|424:336|472:376,1,102.000001945496
490,233,41782,6,0,L|482:131,1,102.000001945496,2|0,0:0|0:0,0:0:0:0:
370,202,42651,2,0,L|378:314,1,102.000001945496
273,220,43521,2,0,P|281:148|329:108,1,102.000001945496,2|0,0:0|0:0,0:0:0:0:
169,158,44390,2,0,P|161:86|113:46,1,102.000001945496,2|0,0:0|0:0,0:0:0:0:
18,107,45260,6,0,P|26:179|74:219,1,102.000001945496,2|0,0:0|0:0,0:0:0:0:
144,286,46130,2,0,P|168:241|212:217,1,102.000001945496
338,179,46999,2,0,L|330:291,1,102.000001945496,2|0,0:0|0:0,0:0:0:0:
457,241,47869,2,0,L|473:369,1,102.000001945496
339,366,48738,6,0,P|275:366|235:334,1,102.000001945496,2|0,0:0|0:0,0:0:0:0:
203,219,49608,2,0,P|147:195|91:203,1,102.000001945496
4,281,50477,2,0,L|12:385,1,102.000001945496,2|0,0:0|0:0,0:0:0:0:
114,299,51347,2,0,L|106:197,1,102.000001945496,2|0,0:0|0:0,0:0:0:0:
192,96,52217,5,2,0:0:0:0:
256,192,52434,12,0,55477,0:0:0:0:
