osu file format v14

[General]
AudioFilename: audio.mp3
AudioLeadIn: 0
PreviewTime: 20696
Countdown: 0
SampleSet: Soft
StackLeniency: 0.5
Mode: 0
LetterboxInBreaks: 0
WidescreenStoryboard: 1

[Editor]
DistanceSpacing: 1.3
BeatDivisor: 4
GridSize: 8
TimelineZoom: 1

[Metadata]
Title:Beginning
TitleUnicode:Beginning
Artist:Toby Fox
ArtistUnicode:Toby Fox
Creator:Error-
Version:Hard
Source:DELTARUNE
Tags:ost radiation survey_program undertale kris toriel
BeatmapID:1824193
BeatmapSetID:872679

[Difficulty]
HPDrainRate:5
CircleSize:3.5
OverallDifficulty:6
ApproachRate:7
SliderMultiplier:1.5
SliderTickRate:1

[Events]
//Background and Video events
0,0,"bg.png",0,0
//Break Periods
//Storyboard Layer 0 (Background)
//Storyboard Layer 1 (Fail)
//Storyboard Layer 2 (Pass)
//Storyboard Layer 3 (Foreground)
//Storyboard Sound Samples

[TimingPoints]
44.0640713706407,434.782608695652,4,2,1,35,1,0
1783,-100,4,2,1,40,0,0
3522,-100,4,2,1,45,0,0
5261,-100,4,2,1,50,0,0
19174,-133.333333333333,4,2,1,50,0,0
20913,-100,4,2,1,60,0,0
36565,-133.333333333333,4,2,1,45,0,0
38304,434.782608695652,4,2,1,30,1,0
38304,-133.333333333333,4,2,1,30,0,0
53087,-133.333333333333,4,2,1,25,0,0
53957,-133.333333333333,4,2,1,20,0,0
54609,-133.333333333333,4,2,1,15,0,0
55261,-133.333333333333,4,2,1,10,0,0
55478,-133.333333333333,4,2,1,5,0,0

[Colours]
Combo1 : 50,94,120
Combo2 : 28,172,227
Combo3 : 15,142,191

[HitObjects]
58,70,44,6,0,L|63:158,1,75
32,240,479,1,0,0:0:0:0:
32,240,696,2,0,L|128:232,1,75,2|0,0:0|0:0,0:0:0:0:
192,192,1131,1,0,0:0:0:0:
192,192,1348,2,0,L|288:200,1,75,2|0,0:0|0:0,0:0:0:0:
352,248,1783,6,0,P|360:296|352:336,1,75,2|0,0:0|0:0,0:0:0:0:
448,360,2218,1,0,0:0:0:0:
448,360,2435,2,0,P|440:312|448:272,1,75,2|0,0:0|0:0,0:0:0:0:
488,200,2870,1,0,0:0:0:0:
488,200,3087,2,0,P|496:152|480:104,1,75,2|0,0:0|0:0,0:0:0:0:
448,40,3522,6,0,L|352:48,1,75,2|0,0:0|0:0,0:0:0:0:
288,88,3957,1,0,0:0:0:0:
288,88,4174,2,0,L|192:80,1,75,2|0,0:0|0:0,0:0:0:0:
128,32,4609,1,0,0:0:0:0:
128,32,4826,2,0,L|48:40,1,75,2|0,0:0|0:0,0:0:0:0:
0,120,5261,6,0,P|24:160|24:216,1,75,2|0,0:0|0:0,0:0:0:0:
8,280,5696,1,0,0:0:0:0:
8,280,5913,2,0,P|56:272|104:272,1,75,2|0,0:0|0:0,0:0:0:0:
168,320,6348,1,0,0:0:0:0:
168,320,6566,2,0,P|208:328|256:320,1,75,2|0,0:0|0:0,0:0:0:0:
280,296,6892,1,0,0:0:0:0:
280,296,7000,6,0,L|272:208,1,75,2|0,0:0|0:0,0:0:0:0:
360,168,7435,2,0,L|368:88,1,75,2|0,0:0|0:0,0:0:0:0:
304,16,7870,2,0,B|216:8|240:64|144:48,1,150,2|2,0:0|0:0,0:0:0:0:
72,16,8522,1,2,0:0:0:0:
72,16,8740,6,0,B|64:56|64:56|80:112,1,75,2|0,0:0|0:0,0:0:0:0:
136,168,9174,2,0,B|144:208|144:208|128:264,1,75,2|0,0:0|0:0,0:0:0:0:
80,328,9609,2,0,B|160:312|136:368|248:336,1,150,2|0,0:0|0:0,0:0:0:0:
304,280,10261,1,2,0:0:0:0:
304,280,10370,1,0,0:0:0:0:
304,280,10479,6,0,L|392:288,1,75,2|0,0:0|0:0,0:0:0:0:
448,224,10913,2,0,P|456:184|448:144,1,75,2|0,0:0|0:0,0:0:0:0:
456,56,11348,2,0,B|368:56|400:112|288:96,1,150,2|2,0:0|0:0,0:0:0:0:
232,48,12000,1,2,0:0:0:0:
232,48,12218,6,0,P|152:24|80:64,1,150,2|0,0:0|0:0,0:0:0:0:
8,104,12870,1,2,0:0:0:0:
8,104,13087,2,0,B|48:144|48:144|32:256,1,150,2|0,0:0|0:0,0:0:0:0:
16,336,13740,1,2,0:0:0:0:
16,336,13848,1,0,0:0:0:0:
16,336,13957,6,0,L|96:328,1,75,2|0,0:0|0:0,0:0:0:0:
184,288,14392,2,0,L|264:296,1,75,2|0,0:0|0:0,0:0:0:0:
352,272,14826,2,0,P|384:224|352:136,1,150,2|2,0:0|0:0,0:0:0:0:
312,56,15479,1,2,0:0:0:0:
312,56,15696,6,0,P|256:88|216:96,1,75,2|0,0:0|0:0,0:0:0:0:
160,48,16131,2,0,P|112:40|64:48,1,75,2|0,0:0|0:0,0:0:0:0:
16,112,16566,2,0,B|56:216|0:168|32:288,1,150,2|2,0:0|0:0,0:0:0:0:
104,320,17218,1,2,0:0:0:0:
160,240,17435,6,0,P|200:216|304:240,1,150,2|0,0:0|0:0,0:0:0:0:
360,312,18087,1,2,0:0:0:0:
440,256,18305,2,0,L|432:160,1,75,2|0,0:0|0:0,0:0:0:0:
496,112,18740,2,0,P|424:88|368:120,1,112.5,2|0,0:0|0:0,0:0:0:0:
361,119,19174,6,0,P|297:143|256:20,1,225.000008583069,2|0,0:0|0:0,0:0:0:0:
464,208,20696,1,2,0:0:0:0:
464,208,20805,1,2,0:0:0:0:
464,208,20913,6,0,L|456:296,1,75,6|0,0:0|3:0,0:0:0:0:
392,360,21348,2,0,L|296:352,1,75,2|0,0:0|3:0,0:0:0:0:
248,288,21783,2,0,B|160:304|208:352|88:336,1,150,2|2,0:0|0:0,0:0:0:0:
40,272,22435,1,2,3:2:0:0:
40,272,22653,6,0,B|24:224|40:176,1,75,2|0,0:0|3:0,0:0:0:0:
104,128,23087,2,0,P|104:88|88:32,1,75,2|0,0:0|3:0,0:0:0:0:
191,30,23522,2,0,P|231:54|335:46,1,150,2|0,0:0|0:0,0:0:0:0:
429,20,24174,1,2,3:2:0:0:
429,20,24283,1,2,0:0:0:0:
429,20,24392,6,0,P|413:60|413:116,1,75,2|0,0:0|3:0,0:0:0:0:
480,160,24826,2,0,P|496:216|496:256,1,75,2|0,0:0|3:0,0:0:0:0:
480,328,25261,1,2,0:0:0:0:
392,376,25479,1,0,3:0:0:0:
296,384,25696,1,2,0:0:0:0:
200,352,25913,1,0,3:0:0:0:
136,280,26131,6,0,L|128:192,1,75,6|0,0:0|0:0,0:0:0:0:
200,144,26566,2,0,L|208:64,1,75,6|0,0:0|0:0,0:0:0:0:
112,56,27000,2,0,L|96:144,1,75,6|0,0:0|0:0,0:0:0:0:
32,200,27435,2,0,L|40:296,1,75,6|2,0:0|0:0,0:0:0:0:
56,320,27761,1,2,0:0:0:0:
56,320,27870,6,0,P|96:304|144:304,1,75,6|0,0:0|3:0,0:0:0:0:
208,360,28305,2,0,P|248:360|304:336,1,75,2|0,0:0|3:0,0:0:0:0:
376,328,28740,2,0,P|344:272|336:168,1,150,2|2,0:0|0:0,0:0:0:0:
413,132,29392,1,2,3:2:0:0:
336,64,29609,6,0,L|240:72,1,75,2|0,0:0|3:0,0:0:0:0:
168,40,30044,2,0,L|72:32,1,75,2|0,0:0|3:0,0:0:0:0:
16,88,30479,2,0,B|0:176|56:144|32:256,1,150,2|2,0:0|0:0,0:0:0:0:
0,328,31131,1,2,3:2:0:0:
0,328,31348,6,0,P|32:288|144:296,1,150,2|0,0:0|0:0,0:0:0:0:
192,352,32000,1,2,3:2:0:0:
192,352,32218,2,0,L|296:360,1,75,2|2,0:0|3:2,0:0:0:0:
360,328,32653,2,0,P|400:264|384:216,1,112.5,2|0,0:0|0:0,0:0:0:0:
356,199,33087,6,0,L|347:48,1,150,2|2,0:0|0:0,0:0:0:0:
262,0,33740,1,0,3:0:0:0:
240,96,33957,2,0,P|176:112|136:96,1,75,2|2,0:0|3:2,0:0:0:0:
80,72,34392,2,0,P|72:128|83:156,1,75,2|0,0:0|3:0,0:0:0:0:
168,110,34826,6,0,P|200:150|184:262,1,150,2|0,0:0|0:0,0:0:0:0:
134,320,35479,1,2,0:0:0:0:
134,320,35696,2,0,P|166:337|219:339,1,75,2|0,0:0|0:0,0:0:0:0:
299,364,36131,2,0,P|355:364|419:324,1,112.5,2|0,0:0|0:0,0:0:0:0:
428,311,36566,6,0,P|411:249|419:193,1,112.500004291535,2|0,0:0|0:0,0:0:0:0:
351,166,37218,1,2,0:0:0:0:
351,166,37435,2,0,P|367:118|351:38,1,112.500004291535,2|0,0:0|0:0,0:0:0:0:
192,16,38305,5,2,0:0:0:0:
160,88,38739,1,0,0:0:0:0:
152,168,39173,1,0,0:0:0:0:
168,248,39608,1,0,0:0:0:0:
344,248,40043,5,2,0:0:0:0:
360,168,40478,1,0,0:0:0:0:
352,88,40913,1,0,0:0:0:0:
320,16,41347,1,0,0:0:0:0:
160,88,41782,5,2,0:0:0:0:
80,72,42217,1,0,0:0:0:0:
104,152,42652,1,0,0:0:0:0:
160,88,43086,1,0,0:0:0:0:
336,192,43521,5,2,0:0:0:0:
336,304,43956,1,0,0:0:0:0:
176,192,44391,1,2,0:0:0:0:
176,304,44826,1,0,0:0:0:0:
336,56,45260,5,2,0:0:0:0:
256,40,45695,1,0,0:0:0:0:
176,48,46130,1,0,0:0:0:0:
104,80,46565,1,0,0:0:0:0:
136,256,46999,5,2,0:0:0:0:
216,272,47434,1,0,0:0:0:0:
296,264,47869,1,0,0:0:0:0:
368,232,48304,1,0,0:0:0:0:
192,192,48739,5,2,0:0:0:0:
136,256,49173,1,0,0:0:0:0:
216,272,49608,1,0,0:0:0:0:
192,192,50043,1,0,0:0:0:0:
328,128,50478,5,2,0:0:0:0:
448,128,50913,1,0,0:0:0:0:
328,256,51347,1,2,0:0:0:0:
448,256,51782,1,0,0:0:0:0:
328,128,52217,5,2,0:0:0:0:
256,192,52326,12,0,55478,0:0:0:0:
