osu file format v14

[General]
AudioFilename: audio.mp3
AudioLeadIn: 0
PreviewTime: -1
Countdown: 0
SampleSet: None
StackLeniency: 0.3
Mode: 0
LetterboxInBreaks: 0
WidescreenStoryboard: 1

[Editor]
DistanceSpacing: 1.2
BeatDivisor: 4
GridSize: 32
TimelineZoom: 1

[Metadata]
Title:Beginning
TitleUnicode:Beginning
Artist:toby fox
ArtistUnicode:toby fox
Creator:DigiDrake
Version:Hard
Source:DELTARUNE
Tags:undertale ralsei susie kris delta rune
BeatmapID:1856828
BeatmapSetID:874939

[Difficulty]
HPDrainRate:5.5
CircleSize:3.9
OverallDifficulty:5
ApproachRate:7
SliderMultiplier:1.4
SliderTickRate:1

[Events]
//Background and Video events
0,0,"hey.jpg",0,0
//Break Periods
//Storyboard Layer 0 (Background)
//Storyboard Layer 1 (Fail)
//Storyboard Layer 2 (Pass)
//Storyboard Layer 3 (Foreground)
//Storyboard Sound Samples

[TimingPoints]
0,434.782608695652,4,1,0,50,1,0
0,-100,4,1,0,50,0,0
8152,-100,4,1,0,5,0,0
8260,-100,4,1,0,50,0,0
9891,-100,4,1,0,5,0,0
9999,-100,4,1,0,50,0,0
15108,-100,4,1,0,5,0,0
15217,-100,4,1,0,50,0,0
19130,-125,4,1,0,50,0,0
19239,-125,4,1,0,5,0,0
20652,-100,4,1,0,50,0,0
20869,-90.9090909090909,4,1,0,50,0,1
22065,-90.9090909090909,4,1,0,5,0,1
22173,-90.9090909090909,4,1,0,50,0,1
26413,-90.9090909090909,4,1,0,5,0,1
26521,-90.9090909090909,4,1,0,50,0,1
26847,-90.9090909090909,4,1,0,5,0,1
26956,-90.9090909090909,4,1,0,50,0,1
29021,-90.9090909090909,4,1,0,5,0,1
29130,-90.9090909090909,4,1,0,50,0,1
30760,-90.9090909090909,4,1,0,5,0,1
30869,-90.9090909090909,4,1,0,50,0,1
34782,-100,4,1,0,30,0,0
35217,-100,4,1,0,5,0,0
35434,-100,4,1,0,30,0,0
36956,-100,4,1,0,5,0,0
37173,-100,4,1,0,30,0,0
38260,-125,4,1,0,20,0,0
38586,-125,4,1,0,5,0,0
38695,-125,4,1,0,20,0,0
40760,-125,4,1,0,5,0,0
40869,-125,4,1,0,20,0,0
41630,-125,4,1,0,5,0,0
41739,-181.818181818182,4,1,0,20,0,0
43369,-125,4,1,0,5,0,0
43478,-181.818181818182,4,1,0,20,0,0
45108,-125,4,1,0,5,0,0
45217,-125,4,1,0,20,0,0
47391,-125,4,1,0,5,0,0
47717,-125,4,1,0,5,0,0
47826,-125,4,1,0,20,0,0
48586,-125,4,1,0,5,0,0
48695,-181.818181818182,4,1,0,20,0,0
50326,-125,4,1,0,5,0,0
50434,-181.818181818182,4,1,0,20,0,0
52065,-125,4,1,0,5,0,0
52173,-125,4,1,0,20,0,0
52282,-125,4,1,0,5,0,0

[HitObjects]
125,173,0,6,0,P|87:174|43:137,2,70
147,81,652,2,0,P|116:65|81:67,2,70
212,143,1304,2,0,L|307:156,1,70
363,216,1739,6,0,P|328:215|299:194,2,70
411,108,2391,2,0,P|386:132|353:139,2,70
369,0,3043,2,0,P|369:34|350:63,1,70
246,81,3478,6,0,L|165:73,1,70
91,40,3913,1,0,0:0:0:0:
35,135,4130,2,0,L|116:127,1,70
176,74,4565,1,0,0:0:0:0:
249,172,4782,2,0,L|168:164,1,70
94,241,5217,6,0,P|83:278|91:313,1,70
182,342,5652,1,0,0:0:0:0:
161,246,5869,2,0,P|128:235|93:240,1,70
182,342,6304,1,0,0:0:0:0:
271,284,6521,2,0,L|349:288,1,70
380,272,6847,1,0,0:0:0:0:
380,272,6956,6,0,P|392:235|386:203,1,70
359,125,7391,1,0,0:0:0:0:
282,160,7608,1,0,0:0:0:0:
282,160,7826,2,0,B|213:136|216:191|147:161,1,140
100,86,8478,1,0,0:0:0:0:
146,160,8695,6,0,L|136:257,1,70
110,308,9130,1,0,0:0:0:0:
195,296,9347,1,0,0:0:0:0:
195,296,9565,2,0,P|264:291|313:350,1,140
399,372,10217,1,0,0:0:0:0:
399,372,10326,1,0,0:0:0:0:
399,372,10434,6,0,L|477:360,1,70
506,286,10869,1,0,0:0:0:0:
478,206,11086,1,0,0:0:0:0:
478,206,11304,2,0,B|428:234|383:208|383:208|389:180|419:178,1,140
469,126,11956,1,0,0:0:0:0:
408,179,12173,6,0,B|391:188|382:207|382:207|358:147|292:152,1,140
237,196,12826,1,0,0:0:0:0:
293,284,13043,2,0,B|313:260|308:229|308:229|286:271|237:275,1,140
174,243,13695,1,0,0:0:0:0:
174,243,13804,1,0,0:0:0:0:
174,243,13913,6,0,P|129:238|95:264,1,70
78,327,14347,1,0,0:0:0:0:
14,280,14565,1,0,0:0:0:0:
14,280,14782,2,0,B|-5:212|37:215|15:142,1,140
35,61,15434,1,0,0:0:0:0:
102,111,15652,6,0,L|183:105,1,70
240,153,16086,1,0,0:0:0:0:
304,98,16304,1,0,0:0:0:0:
304,98,16521,2,0,B|352:123|395:99|395:99|375:112|368:139,1,140
388,216,17173,1,0,0:0:0:0:
316,260,17391,6,0,B|285:273|272:299|272:299|217:297|209:247,1,140
190,175,18043,1,0,0:0:0:0:
270,197,18260,1,0,0:0:0:0:
211,256,18478,1,0,0:0:0:0:
130,232,18695,2,0,P|109:188|114:143,1,70
117,126,19021,1,0,0:0:0:0:
117,126,19130,6,0,B|163:109|203:147|203:147|262:136|265:84|265:84|277:126|312:143|355:142|380:113|355:75|338:100,1,336
356,220,20652,1,0,0:0:0:0:
356,220,20760,1,0,0:0:0:0:
356,220,20869,5,0,0:0:0:0:
447,205,21086,1,0,0:0:0:0:
434,113,21304,1,0,0:0:0:0:
342,123,21521,1,0,0:0:0:0:
285,252,21739,6,0,P|363:296|414:269,1,154.000004699707
356,220,22391,1,0,0:0:0:0:
264,178,22608,6,0,L|187:187,1,77.0000023498536
130,122,23043,2,0,L|123:67,2,38.5000011749268
187,186,23478,2,0,B|209:228|192:275|184:254|170:300|185:337,1,154.000004699707
272,305,24130,1,0,0:0:0:0:
272,305,24239,1,0,0:0:0:0:
272,305,24347,6,0,P|312:296|358:319,1,77.0000023498536
428,345,24782,2,0,P|451:339|469:324,2,38.5000011749268
345,307,25217,1,0,0:0:0:0:
334,215,25434,1,0,0:0:0:0:
404,155,25652,1,0,0:0:0:0:
419,245,25869,1,0,0:0:0:0:
321,131,26086,6,0,B|291:81|225:93|212:118|212:118|227:117|249:128,1,154.000004699707
214,213,26739,1,0,0:0:0:0:
146,151,26956,2,0,B|133:122|143:94|143:94|125:148|66:154,1,154.000004699707
64,64,27608,1,0,0:0:0:0:
64,64,27717,1,0,0:0:0:0:
64,64,27826,5,0,0:0:0:0:
139,10,28043,1,0,0:0:0:0:
213,64,28260,1,0,0:0:0:0:
293,18,28478,1,0,0:0:0:0:
358,83,28695,6,0,B|387:90|417:76|406:62|439:52|471:71|471:71|447:79|429:111,1,154.000004699707
474,177,29347,1,0,0:0:0:0:
402,235,29565,6,0,L|319:230,1,77.0000023498536
278,309,29999,2,0,L|273:362,2,38.5000011749268
325,230,30434,2,0,B|356:180|323:119|323:119|320:144|302:160,1,154.000004699707
228,199,31086,1,0,0:0:0:0:
157,139,31304,6,0,L|55:134,1,77.0000023498536
7,193,31739,2,0,P|-2:235|5:272,1,77.0000023498536
82,316,32173,1,0,0:0:0:0:
160,267,32391,1,0,0:0:0:0:
223,334,32608,2,0,L|301:337,1,77.0000023498536
345,330,32934,1,0,0:0:0:0:
345,330,33043,6,0,P|382:263|352:195,1,154.000004699707
274,147,33695,1,0,0:0:0:0:
353,196,33913,2,0,P|394:200|435:186,1,77.0000023498536
481,114,34347,2,0,L|473:34,1,77.0000023498536
388,3,34782,6,0,B|352:-13|310:-1|292:27|312:25|267:82|199:46,1,210
119,18,35652,2,0,L|44:26,1,70
5,96,36086,2,0,L|14:184,1,70
32,203,36413,1,0,0:0:0:0:
32,203,36521,6,0,B|99:180|159:240|159:240|138:283|94:275,1,210
20,277,37391,1,0,0:0:0:0:
20,277,38260,6,0,P|73:292|106:352,1,112
80,193,39130,2,0,P|65:246|5:279,1,112
18,119,39999,6,0,P|86:97|175:183,1,196
178,205,40869,2,0,P|239:256|342:222,1,196
347,200,41739,6,0,B|355:149|322:113|322:144|261:118|260:3|367:-43|443:78|368:82,1,288.750008811951
365,94,43478,6,0,B|252:128|266:52|200:35|140:83|140:83|169:85|191:104,1,288.750008811951
204,124,45217,6,0,P|226:172|206:244,1,112
46,195,46086,2,0,P|94:173|166:193,1,112
118,344,46956,6,0,B|79:301|108:248|108:248|156:272|199:244,1,196
216,219,47826,2,0,P|268:209|347:315,1,196
340,330,48695,6,0,B|397:304|446:344|446:344|417:272|443:215|487:190,1,288.750008811951
508,180,50434,6,0,B|471:191|437:180|413:144|412:83|457:71|457:71|453:98|428:112|384:107|365:85,1,288.750008811951
344,68,52173,5,0,0:0:0:0:
256,192,52282,12,0,55434,0:0:0:0:
