osu file format v14

[General]
AudioFilename: Undertale Ost_ 098 - Battle Against a True Hero.mp3
AudioLeadIn: 0
PreviewTime: 17660
Countdown: 0
SampleSet: Normal
StackLeniency: 0.7
Mode: 1
LetterboxInBreaks: 0
WidescreenStoryboard: 0

[Editor]
DistanceSpacing: 0.5
BeatDivisor: 4
GridSize: 32
TimelineZoom: 2.4

[Metadata]
Title:Battle Against a True Hero
TitleUnicode:Battle Against a True Hero
Artist:toby fox
ArtistUnicode:toby fox
Creator:S a n d
Version:Oni
Source:Undertale
Tags:Undyne theme the Undying
BeatmapID:813324
BeatmapSetID:371182

[Difficulty]
HPDrainRate:6.5
CircleSize:5
OverallDifficulty:5
ApproachRate:5
SliderMultiplier:1.4
SliderTickRate:1

[Events]
//Background and Video events
0,0,"3930ff57772c8eee5dbf6b8b84e56a26293b271b.jpg",0,120
//Break Periods
//Storyboard Layer 0 (Background)
//Storyboard Layer 1 (Fail)
//Storyboard Layer 2 (Pass)
//Storyboard Layer 3 (Foreground)
//Storyboard Sound Samples

[TimingPoints]
60,400,4,1,0,60,1,0
60,-105.263157894737,4,1,0,60,0,0
6460,-100,4,1,0,60,0,0
19260,-95.2380952380952,4,1,0,60,0,0
44860,-90.9090909090909,4,1,0,60,0,1
96060,400,3,1,0,60,1,0
96060,-111.111111111111,4,1,0,60,0,0
105660,-105.263157894737,4,1,0,60,0,0
115260,-100,4,1,0,60,0,1
134460,-90.9090909090909,4,1,0,60,0,1
153560,-90.9090909090909,4,1,0,60,0,0

[HitObjects]
256,192,60,5,0,0:0:0:0:
256,192,360,1,8,0:0:0:0:
256,192,660,1,0,0:0:0:0:
256,192,960,1,8,0:0:0:0:
256,192,1260,1,8,0:0:0:0:
224,128,1460,1,0,0:0:0:0:
256,192,1660,1,8,0:0:0:0:
256,160,1960,1,0,0:0:0:0:
256,160,2260,1,8,0:0:0:0:
256,160,2560,1,0,0:0:0:0:
256,160,2860,1,0,0:0:0:0:
192,128,3060,1,0,0:0:0:0:
256,160,3260,1,8,0:0:0:0:
256,160,3560,1,8,0:0:0:0:
256,160,3860,1,0,0:0:0:0:
256,160,4160,1,8,0:0:0:0:
256,160,4460,1,0,0:0:0:0:
192,128,4660,1,0,0:0:0:0:
256,160,4860,1,8,0:0:0:0:
256,160,5160,1,0,0:0:0:0:
256,160,5460,1,8,0:0:0:0:
256,160,5760,1,8,0:0:0:0:
256,160,6060,1,8,0:0:0:0:
224,96,6460,1,0,0:0:0:0:
224,160,6760,1,8,0:0:0:0:
224,160,7060,1,0,0:0:0:0:
224,96,7360,1,8,0:0:0:0:
224,160,7660,1,0,0:0:0:0:
192,128,7860,1,0,0:0:0:0:
224,160,8060,1,8,0:0:0:0:
224,160,8360,1,0,0:0:0:0:
224,160,8660,1,8,0:0:0:0:
224,96,8960,1,0,0:0:0:0:
224,96,9260,1,8,0:0:0:0:
192,128,9460,1,0,0:0:0:0:
224,160,9660,1,8,0:0:0:0:
224,160,9960,1,8,0:0:0:0:
224,160,10260,1,0,0:0:0:0:
224,160,10560,1,8,0:0:0:0:
224,160,10860,1,0,0:0:0:0:
192,128,11060,1,0,0:0:0:0:
224,160,11260,1,8,0:0:0:0:
224,160,11560,1,0,0:0:0:0:
224,160,11860,1,8,0:0:0:0:
224,160,12160,1,8,0:0:0:0:
224,96,12460,1,8,0:0:0:0:
224,160,12860,1,0,0:0:0:0:
224,160,13160,1,8,0:0:0:0:
224,160,13460,1,0,0:0:0:0:
224,96,13760,1,8,0:0:0:0:
224,160,14060,1,0,0:0:0:0:
224,160,14260,1,0,0:0:0:0:
224,160,14460,1,8,0:0:0:0:
224,160,14760,1,0,0:0:0:0:
224,160,15060,1,8,0:0:0:0:
224,96,15360,1,0,0:0:0:0:
224,96,15660,1,8,0:0:0:0:
224,160,15860,1,0,0:0:0:0:
224,160,16060,1,8,0:0:0:0:
224,160,16360,1,8,0:0:0:0:
224,160,16660,1,0,0:0:0:0:
224,160,16960,1,8,0:0:0:0:
224,160,17260,1,0,0:0:0:0:
224,160,17460,1,0,0:0:0:0:
224,160,17660,1,0,0:0:0:0:
224,96,17960,1,8,0:0:0:0:
224,160,18260,1,8,0:0:0:0:
224,160,19260,1,4,0:0:0:0:
256,96,19560,1,8,0:0:0:0:
224,128,19660,1,0,0:0:0:0:
256,160,19860,1,8,0:0:0:0:
224,64,20060,1,0,0:0:0:0:
256,64,20160,1,0,0:0:0:0:
256,160,20260,1,8,0:0:0:0:
256,160,20460,1,0,0:0:0:0:
256,128,20660,1,0,0:0:0:0:
256,64,20860,1,8,0:0:0:0:
224,128,21160,1,8,0:0:0:0:
256,160,21260,1,0,0:0:0:0:
256,160,21460,1,8,0:0:0:0:
256,160,21660,1,0,0:0:0:0:
256,64,21760,1,0,0:0:0:0:
256,160,21860,1,8,0:0:0:0:
192,64,21960,1,8,0:0:0:0:
256,160,22060,1,0,0:0:0:0:
224,128,22260,1,8,0:0:0:0:
256,160,22460,1,0,0:0:0:0:
256,160,22760,1,8,0:0:0:0:
224,128,22860,1,0,0:0:0:0:
256,160,23060,1,8,0:0:0:0:
256,160,23260,1,0,0:0:0:0:
256,160,23360,1,8,0:0:0:0:
256,160,23460,1,0,0:0:0:0:
256,160,23660,1,8,0:0:0:0:
256,160,23860,1,0,0:0:0:0:
256,160,24060,1,8,0:0:0:0:
256,128,24360,1,0,0:0:0:0:
256,128,24660,1,8,0:0:0:0:
256,128,24960,1,8,0:0:0:0:
256,128,25260,1,8,0:0:0:0:
224,160,25660,1,0,0:0:0:0:
224,128,25960,1,8,0:0:0:0:
224,128,26060,1,0,0:0:0:0:
256,160,26260,1,8,0:0:0:0:
256,160,26460,1,0,0:0:0:0:
224,128,26560,1,8,0:0:0:0:
256,160,26660,1,8,0:0:0:0:
256,160,26860,1,0,0:0:0:0:
224,128,27060,1,8,0:0:0:0:
256,160,27260,1,0,0:0:0:0:
256,160,27560,1,0,0:0:0:0:
224,128,27660,1,8,0:0:0:0:
256,160,27860,1,8,0:0:0:0:
256,160,28060,1,0,0:0:0:0:
224,32,28160,1,8,0:0:0:0:
256,160,28260,1,8,0:0:0:0:
192,64,28360,1,8,0:0:0:0:
256,160,28460,1,0,0:0:0:0:
224,160,28660,1,0,0:0:0:0:
224,160,28860,1,8,0:0:0:0:
256,160,29160,1,8,0:0:0:0:
224,128,29260,1,0,0:0:0:0:
256,160,29460,1,8,0:0:0:0:
256,160,29660,1,0,0:0:0:0:
256,160,29760,1,8,0:0:0:0:
256,160,29860,1,0,0:0:0:0:
256,160,30060,1,8,0:0:0:0:
256,160,30260,1,0,0:0:0:0:
256,160,30460,1,8,0:0:0:0:
256,128,30760,1,0,0:0:0:0:
256,128,31060,1,8,0:0:0:0:
256,128,31360,1,0,0:0:0:0:
256,128,31660,1,8,0:0:0:0:
224,160,32060,1,4,0:0:0:0:
256,96,32360,1,8,0:0:0:0:
224,128,32460,1,0,0:0:0:0:
256,160,32660,1,8,0:0:0:0:
224,64,32860,1,0,0:0:0:0:
256,64,32960,1,0,0:0:0:0:
256,160,33060,1,8,0:0:0:0:
256,160,33260,1,0,0:0:0:0:
224,160,33460,1,0,0:0:0:0:
256,64,33660,1,8,0:0:0:0:
224,128,33960,1,8,0:0:0:0:
256,160,34060,1,0,0:0:0:0:
256,160,34260,1,8,0:0:0:0:
256,160,34460,1,0,0:0:0:0:
256,64,34560,1,0,0:0:0:0:
256,160,34660,1,8,0:0:0:0:
192,64,34760,1,8,0:0:0:0:
256,160,34860,1,0,0:0:0:0:
256,160,35060,1,8,0:0:0:0:
256,160,35260,1,0,0:0:0:0:
224,128,35560,1,8,0:0:0:0:
224,128,35660,1,0,0:0:0:0:
256,160,35860,1,8,0:0:0:0:
256,160,36060,1,0,0:0:0:0:
256,160,36160,1,8,0:0:0:0:
256,160,36260,1,0,0:0:0:0:
256,160,36460,1,8,0:0:0:0:
256,160,36660,1,0,0:0:0:0:
256,160,36860,1,8,0:0:0:0:
256,128,37160,1,0,0:0:0:0:
256,128,37460,1,8,0:0:0:0:
256,128,37760,1,0,0:0:0:0:
256,128,38060,1,8,0:0:0:0:
224,160,38460,1,0,0:0:0:0:
256,160,38760,1,8,0:0:0:0:
224,128,38860,1,0,0:0:0:0:
256,160,39060,1,8,0:0:0:0:
256,160,39260,1,0,0:0:0:0:
224,128,39360,1,8,0:0:0:0:
256,160,39460,1,8,0:0:0:0:
256,160,39660,1,0,0:0:0:0:
224,128,39860,1,0,0:0:0:0:
224,128,40060,1,8,0:0:0:0:
256,160,40360,1,0,0:0:0:0:
224,128,40460,1,8,0:0:0:0:
256,160,40660,1,8,0:0:0:0:
256,160,40860,1,0,0:0:0:0:
224,32,40960,1,8,0:0:0:0:
256,160,41060,1,8,0:0:0:0:
192,64,41160,1,8,0:0:0:0:
256,160,41260,1,0,0:0:0:0:
224,128,41460,1,8,0:0:0:0:
256,160,41660,1,0,0:0:0:0:
256,160,41960,1,8,0:0:0:0:
224,128,42060,1,0,0:0:0:0:
256,160,42260,1,8,0:0:0:0:
256,160,42460,1,0,0:0:0:0:
256,160,42560,1,8,0:0:0:0:
256,160,42660,1,0,0:0:0:0:
256,160,42860,1,8,0:0:0:0:
256,160,43060,1,0,0:0:0:0:
256,160,43260,1,8,0:0:0:0:
256,128,43560,1,0,0:0:0:0:
256,128,43860,5,8,0:0:0:0:
256,128,44160,1,0,0:0:0:0:
256,128,44460,1,8,0:0:0:0:
256,128,44860,5,4,0:0:0:0:
256,192,45160,1,8,0:0:0:0:
256,192,45460,1,8,0:0:0:0:
256,192,45660,1,0,0:0:0:0:
192,160,45960,1,8,0:0:0:0:
256,96,46060,1,0,0:0:0:0:
192,64,46260,1,8,0:0:0:0:
192,64,46460,1,0,0:0:0:0:
224,96,46760,1,8,0:0:0:0:
96,192,46860,1,0,0:0:0:0:
224,96,47060,1,8,0:0:0:0:
96,128,47260,1,0,0:0:0:0:
192,64,47460,1,8,0:0:0:0:
192,64,47660,1,8,0:0:0:0:
224,96,47760,1,0,0:0:0:0:
224,96,47860,1,8,0:0:0:0:
192,64,47960,1,8,0:0:0:0:
224,96,48060,1,0,0:0:0:0:
224,96,48360,1,8,0:0:0:0:
224,96,48660,1,8,0:0:0:0:
224,96,48860,1,0,0:0:0:0:
192,64,49160,1,0,0:0:0:0:
224,96,49260,1,8,0:0:0:0:
192,32,49460,1,0,0:0:0:0:
224,96,49660,1,8,0:0:0:0:
192,32,49960,1,8,0:0:0:0:
192,32,50060,1,0,0:0:0:0:
192,128,50260,1,8,0:0:0:0:
192,128,50460,1,0,0:0:0:0:
192,64,50560,1,0,0:0:0:0:
192,128,50660,1,8,0:0:0:0:
192,0,50760,1,8,0:0:0:0:
192,0,50860,1,8,0:0:0:0:
192,128,51060,1,8,0:0:0:0:
192,128,51260,1,0,0:0:0:0:
224,96,51560,1,8,0:0:0:0:
224,96,51860,1,8,0:0:0:0:
192,64,52060,1,0,0:0:0:0:
192,128,52360,1,0,0:0:0:0:
192,64,52460,1,8,0:0:0:0:
192,64,52660,1,0,0:0:0:0:
192,64,52860,1,8,0:0:0:0:
192,64,53160,1,8,0:0:0:0:
192,64,53260,1,0,0:0:0:0:
192,64,53460,1,8,0:0:0:0:
192,128,53660,1,0,0:0:0:0:
224,128,54060,1,0,0:0:0:0:
192,64,54260,1,8,0:0:0:0:
192,64,54360,1,8,0:0:0:0:
192,64,54460,1,0,0:0:0:0:
192,64,54760,1,0,0:0:0:0:
192,64,55060,1,8,0:0:0:0:
192,64,55260,1,0,0:0:0:0:
352,160,55560,1,0,0:0:0:0:
192,64,55660,1,8,0:0:0:0:
320,128,55860,1,0,0:0:0:0:
320,128,56060,1,8,0:0:0:0:
192,64,56360,1,8,0:0:0:0:
224,64,56460,1,0,0:0:0:0:
192,32,56660,1,8,0:0:0:0:
192,64,56860,1,0,0:0:0:0:
192,64,57060,1,0,0:0:0:0:
192,64,57160,1,0,0:0:0:0:
192,64,57260,1,8,0:0:0:0:
256,128,57660,1,8,0:0:0:0:
256,192,57960,1,8,0:0:0:0:
256,192,58260,1,8,0:0:0:0:
256,192,58460,1,0,0:0:0:0:
192,160,58760,1,8,0:0:0:0:
256,96,58860,1,0,0:0:0:0:
192,64,59060,1,0,0:0:0:0:
192,64,59260,1,8,0:0:0:0:
224,96,59560,1,8,0:0:0:0:
96,192,59660,1,0,0:0:0:0:
224,96,59860,1,8,0:0:0:0:
96,128,60060,1,0,0:0:0:0:
224,32,60260,1,8,0:0:0:0:
192,64,60460,1,8,0:0:0:0:
224,32,60560,1,0,0:0:0:0:
224,32,60660,1,0,0:0:0:0:
256,160,60760,1,8,0:0:0:0:
224,32,60860,1,0,0:0:0:0:
224,96,61160,1,0,0:0:0:0:
224,96,61460,1,8,0:0:0:0:
224,96,61660,1,0,0:0:0:0:
224,64,61960,1,0,0:0:0:0:
224,96,62060,1,8,0:0:0:0:
192,32,62260,1,0,0:0:0:0:
224,96,62460,1,8,0:0:0:0:
192,32,62760,1,8,0:0:0:0:
192,32,62860,1,0,0:0:0:0:
192,128,63060,1,8,0:0:0:0:
256,160,63260,1,0,0:0:0:0:
256,160,63360,1,8,0:0:0:0:
192,128,63460,1,8,0:0:0:0:
192,32,63560,1,0,0:0:0:0:
192,128,63660,1,8,0:0:0:0:
192,128,63860,1,8,0:0:0:0:
192,128,64060,1,0,0:0:0:0:
224,96,64360,1,8,0:0:0:0:
224,96,64660,1,8,0:0:0:0:
192,64,64860,1,0,0:0:0:0:
192,64,65160,1,0,0:0:0:0:
192,64,65260,1,8,0:0:0:0:
192,64,65460,1,0,0:0:0:0:
192,64,65660,1,8,0:0:0:0:
192,64,65960,1,8,0:0:0:0:
192,64,66060,1,0,0:0:0:0:
192,64,66260,1,8,0:0:0:0:
192,32,66460,1,0,0:0:0:0:
192,64,66860,1,0,0:0:0:0:
192,64,67060,1,8,0:0:0:0:
192,64,67160,1,8,0:0:0:0:
192,64,67260,1,0,0:0:0:0:
192,32,67560,1,8,0:0:0:0:
192,64,67860,1,0,0:0:0:0:
192,64,68060,1,8,0:0:0:0:
192,0,68360,1,0,0:0:0:0:
192,64,68460,1,8,0:0:0:0:
192,0,68660,1,0,0:0:0:0:
192,0,68860,1,8,0:0:0:0:
192,64,69160,1,8,0:0:0:0:
192,0,69260,1,0,0:0:0:0:
192,32,69460,5,8,0:0:0:0:
192,64,69660,1,0,0:0:0:0:
256,160,69860,1,0,0:0:0:0:
256,160,69960,1,0,0:0:0:0:
192,64,70060,1,8,0:0:0:0:
224,128,70460,1,4,0:0:0:0:
256,192,70760,1,8,0:0:0:0:
256,192,71060,1,8,0:0:0:0:
256,192,71260,1,0,0:0:0:0:
192,160,71560,1,8,0:0:0:0:
256,96,71660,1,0,0:0:0:0:
192,64,71860,1,8,0:0:0:0:
192,64,72060,1,0,0:0:0:0:
224,96,72360,1,8,0:0:0:0:
96,192,72460,1,0,0:0:0:0:
224,96,72660,1,8,0:0:0:0:
96,128,72860,1,0,0:0:0:0:
192,64,73060,1,8,0:0:0:0:
192,64,73260,1,8,0:0:0:0:
224,96,73360,1,0,0:0:0:0:
224,96,73460,1,8,0:0:0:0:
288,160,73560,1,8,0:0:0:0:
224,96,73660,1,0,0:0:0:0:
224,96,73960,1,8,0:0:0:0:
224,96,74260,1,8,0:0:0:0:
224,96,74460,1,0,0:0:0:0:
192,64,74760,1,0,0:0:0:0:
224,96,74860,1,8,0:0:0:0:
192,32,75060,1,0,0:0:0:0:
224,96,75260,1,8,0:0:0:0:
192,32,75560,1,8,0:0:0:0:
192,32,75660,1,0,0:0:0:0:
192,128,75860,1,8,0:0:0:0:
192,128,76060,1,0,0:0:0:0:
288,160,76160,1,0,0:0:0:0:
192,128,76260,1,8,0:0:0:0:
192,0,76360,1,8,0:0:0:0:
192,0,76460,1,8,0:0:0:0:
192,128,76660,1,8,0:0:0:0:
192,128,76860,1,0,0:0:0:0:
224,96,77160,1,8,0:0:0:0:
224,96,77460,1,8,0:0:0:0:
192,64,77660,1,0,0:0:0:0:
192,128,77960,1,0,0:0:0:0:
192,64,78060,1,8,0:0:0:0:
192,64,78260,1,0,0:0:0:0:
192,64,78460,1,8,0:0:0:0:
192,64,78760,1,8,0:0:0:0:
192,64,78860,1,0,0:0:0:0:
192,64,79060,1,8,0:0:0:0:
192,128,79260,1,0,0:0:0:0:
192,64,79660,1,0,0:0:0:0:
192,64,79860,1,8,0:0:0:0:
192,64,79960,1,8,0:0:0:0:
192,64,80060,1,0,0:0:0:0:
192,64,80360,1,0,0:0:0:0:
192,64,80660,1,8,0:0:0:0:
192,64,80860,1,0,0:0:0:0:
352,160,81160,1,0,0:0:0:0:
192,64,81260,1,8,0:0:0:0:
320,128,81460,1,0,0:0:0:0:
320,128,81660,1,8,0:0:0:0:
192,64,81960,1,8,0:0:0:0:
224,64,82060,1,0,0:0:0:0:
192,32,82260,1,8,0:0:0:0:
192,64,82460,1,0,0:0:0:0:
288,160,82660,1,0,0:0:0:0:
288,160,82760,1,0,0:0:0:0:
192,64,82860,1,8,0:0:0:0:
256,128,83260,1,8,0:0:0:0:
256,192,83560,1,8,0:0:0:0:
256,192,83860,1,8,0:0:0:0:
256,192,84060,1,0,0:0:0:0:
192,160,84360,1,8,0:0:0:0:
256,96,84460,1,0,0:0:0:0:
192,64,84660,1,0,0:0:0:0:
192,64,84860,1,8,0:0:0:0:
224,96,85160,1,8,0:0:0:0:
96,192,85260,1,0,0:0:0:0:
224,96,85460,1,8,0:0:0:0:
96,128,85660,1,0,0:0:0:0:
224,32,85860,1,8,0:0:0:0:
192,64,86060,1,8,0:0:0:0:
224,32,86160,1,0,0:0:0:0:
224,32,86260,1,0,0:0:0:0:
288,160,86360,1,8,0:0:0:0:
224,32,86460,1,0,0:0:0:0:
224,96,86760,1,0,0:0:0:0:
224,96,87060,1,8,0:0:0:0:
224,96,87260,1,0,0:0:0:0:
224,64,87560,1,0,0:0:0:0:
224,96,87660,1,8,0:0:0:0:
192,32,87860,1,0,0:0:0:0:
224,96,88060,1,8,0:0:0:0:
192,32,88360,1,8,0:0:0:0:
192,32,88460,1,0,0:0:0:0:
192,128,88660,1,8,0:0:0:0:
192,128,88860,1,0,0:0:0:0:
288,160,88960,1,8,0:0:0:0:
192,128,89060,1,8,0:0:0:0:
192,32,89160,1,0,0:0:0:0:
192,128,89260,1,8,0:0:0:0:
192,128,89460,1,8,0:0:0:0:
192,128,89660,1,0,0:0:0:0:
224,96,89960,1,8,0:0:0:0:
224,96,90260,1,8,0:0:0:0:
192,64,90460,1,0,0:0:0:0:
192,64,90760,1,0,0:0:0:0:
192,64,90860,1,8,0:0:0:0:
192,64,91060,1,0,0:0:0:0:
192,64,91260,1,8,0:0:0:0:
192,64,91560,1,8,0:0:0:0:
192,64,91660,1,0,0:0:0:0:
192,64,91860,1,8,0:0:0:0:
192,32,92060,1,0,0:0:0:0:
192,64,92460,1,0,0:0:0:0:
192,64,92660,1,8,0:0:0:0:
192,64,92760,1,8,0:0:0:0:
192,64,92860,1,0,0:0:0:0:
192,32,93160,1,8,0:0:0:0:
192,64,93460,1,0,0:0:0:0:
192,64,93660,1,8,0:0:0:0:
192,0,93960,1,0,0:0:0:0:
192,64,94060,1,8,0:0:0:0:
192,0,94260,1,0,0:0:0:0:
192,0,94460,1,8,0:0:0:0:
192,64,94760,1,8,0:0:0:0:
192,0,94860,1,0,0:0:0:0:
192,32,95060,5,8,0:0:0:0:
192,64,95260,1,0,0:0:0:0:
288,160,95460,1,0,0:0:0:0:
288,160,95560,1,0,0:0:0:0:
192,64,95660,1,8,0:0:0:0:
224,128,96060,1,4,0:0:0:0:
256,160,96460,1,8,0:0:0:0:
256,160,96660,1,8,0:0:0:0:
256,160,96860,1,0,0:0:0:0:
256,160,97060,1,0,0:0:0:0:
256,160,97260,1,0,0:0:0:0:
256,160,97660,1,8,0:0:0:0:
224,32,97860,1,0,0:0:0:0:
224,160,98060,1,0,0:0:0:0:
224,32,98260,1,8,0:0:0:0:
224,160,98460,1,0,0:0:0:0:
256,128,99060,1,8,0:0:0:0:
256,128,99660,1,0,0:0:0:0:
256,128,100260,1,8,0:0:0:0:
256,128,100860,1,0,0:0:0:0:
256,160,101260,1,8,0:0:0:0:
256,160,101460,1,8,0:0:0:0:
256,160,101660,1,0,0:0:0:0:
256,160,101860,1,0,0:0:0:0:
256,160,102060,1,0,0:0:0:0:
256,160,102460,1,8,0:0:0:0:
224,32,102660,1,0,0:0:0:0:
224,160,102860,1,0,0:0:0:0:
224,32,103060,1,8,0:0:0:0:
224,160,103260,1,0,0:0:0:0:
224,96,103660,1,8,0:0:0:0:
224,64,104060,1,8,0:0:0:0:
192,128,104326,1,8,0:0:0:0:
192,128,104393,1,8,0:0:0:0:
256,128,104460,1,0,0:0:0:0:
256,128,105660,1,0,0:0:0:0:
256,160,106060,1,8,0:0:0:0:
256,160,106260,1,8,0:0:0:0:
256,160,106460,1,0,0:0:0:0:
256,160,106660,1,0,0:0:0:0:
256,160,106860,1,0,0:0:0:0:
256,160,107260,1,8,0:0:0:0:
224,32,107460,1,0,0:0:0:0:
224,160,107660,1,0,0:0:0:0:
224,32,107860,1,8,0:0:0:0:
224,160,108060,1,0,0:0:0:0:
256,128,108660,1,8,0:0:0:0:
256,128,109260,1,0,0:0:0:0:
256,128,109860,1,8,0:0:0:0:
256,128,110460,1,0,0:0:0:0:
256,160,110860,1,8,0:0:0:0:
256,160,111060,1,8,0:0:0:0:
256,160,111260,1,0,0:0:0:0:
256,160,111460,1,0,0:0:0:0:
256,160,111660,1,0,0:0:0:0:
256,160,112060,1,8,0:0:0:0:
224,32,112260,1,0,0:0:0:0:
224,160,112460,1,0,0:0:0:0:
224,32,112660,1,8,0:0:0:0:
224,160,112860,1,0,0:0:0:0:
224,96,113260,1,8,0:0:0:0:
224,64,113660,1,8,0:0:0:0:
224,64,113926,1,8,0:0:0:0:
224,64,113993,1,8,0:0:0:0:
256,128,114060,1,0,0:0:0:0:
256,128,115260,1,4,0:0:0:0:
256,64,115460,1,8,0:0:0:0:
256,64,115560,1,8,0:0:0:0:
256,64,115660,1,0,0:0:0:0:
256,64,115860,1,8,0:0:0:0:
256,64,116060,1,0,0:0:0:0:
256,64,116160,1,0,0:0:0:0:
320,160,116260,1,8,0:0:0:0:
320,160,116360,1,8,0:0:0:0:
256,64,116460,1,0,0:0:0:0:
256,64,116860,1,0,0:0:0:0:
256,64,117060,1,8,0:0:0:0:
256,64,117260,1,0,0:0:0:0:
256,64,117360,1,8,0:0:0:0:
256,64,117460,1,0,0:0:0:0:
256,64,117660,1,8,0:0:0:0:
320,160,117860,1,0,0:0:0:0:
320,160,117960,1,0,0:0:0:0:
256,64,118060,1,0,0:0:0:0:
320,160,118160,1,0,0:0:0:0:
256,64,118260,1,8,0:0:0:0:
32,160,118460,1,0,0:0:0:0:
256,64,118660,1,0,0:0:0:0:
256,64,118860,1,8,0:0:0:0:
320,160,119060,1,0,0:0:0:0:
320,160,119160,1,8,0:0:0:0:
256,64,119260,1,0,0:0:0:0:
320,160,119360,1,0,0:0:0:0:
256,64,119460,1,8,0:0:0:0:
256,64,119660,1,0,0:0:0:0:
320,160,119860,1,8,0:0:0:0:
256,64,120060,1,8,0:0:0:0:
256,64,120260,1,8,0:0:0:0:
256,64,120360,1,8,0:0:0:0:
256,64,120460,1,0,0:0:0:0:
256,64,120660,1,8,0:0:0:0:
256,64,120860,1,0,0:0:0:0:
288,32,120960,1,0,0:0:0:0:
256,64,121060,1,8,0:0:0:0:
256,32,121160,1,8,0:0:0:0:
256,64,121260,1,0,0:0:0:0:
192,0,121660,1,8,0:0:0:0:
192,0,121860,1,8,0:0:0:0:
224,96,122060,1,0,0:0:0:0:
224,64,122160,1,0,0:0:0:0:
224,64,122260,1,8,0:0:0:0:
192,0,122460,1,8,0:0:0:0:
192,64,122660,1,0,0:0:0:0:
192,64,122860,1,8,0:0:0:0:
192,0,123260,1,8,0:0:0:0:
192,0,123460,1,0,0:0:0:0:
192,0,123560,1,0,0:0:0:0:
192,0,123660,1,8,0:0:0:0:
224,128,123860,1,8,0:0:0:0:
256,32,124060,1,0,0:0:0:0:
256,32,124160,1,0,0:0:0:0:
224,128,124260,1,8,0:0:0:0:
256,32,124460,1,0,0:0:0:0:
224,128,124660,1,8,0:0:0:0:
256,128,124860,1,4,0:0:0:0:
256,64,125060,1,8,0:0:0:0:
256,64,125160,1,8,0:0:0:0:
256,64,125260,1,0,0:0:0:0:
256,64,125460,1,8,0:0:0:0:
256,64,125660,1,0,0:0:0:0:
256,128,125760,1,0,0:0:0:0:
256,64,125860,1,8,0:0:0:0:
256,128,125960,1,8,0:0:0:0:
256,64,126060,1,0,0:0:0:0:
256,64,126460,1,0,0:0:0:0:
256,64,126660,1,8,0:0:0:0:
256,64,126860,1,0,0:0:0:0:
256,64,126960,1,8,0:0:0:0:
256,64,127060,1,0,0:0:0:0:
256,64,127260,1,8,0:0:0:0:
224,32,127460,1,0,0:0:0:0:
224,32,127560,1,0,0:0:0:0:
256,64,127660,1,0,0:0:0:0:
224,32,127760,1,0,0:0:0:0:
256,64,127860,1,8,0:0:0:0:
192,160,128060,1,0,0:0:0:0:
224,32,128160,1,0,0:0:0:0:
256,64,128260,1,0,0:0:0:0:
224,32,128360,1,0,0:0:0:0:
256,64,128460,1,8,0:0:0:0:
224,32,128660,1,0,0:0:0:0:
224,32,128760,1,8,0:0:0:0:
256,64,128860,1,0,0:0:0:0:
224,32,128960,1,0,0:0:0:0:
256,64,129060,1,8,0:0:0:0:
256,64,129260,1,0,0:0:0:0:
224,32,129360,1,8,0:0:0:0:
224,32,129460,1,8,0:0:0:0:
224,32,129560,1,0,0:0:0:0:
256,64,129660,1,8,0:0:0:0:
256,64,129860,1,8,0:0:0:0:
256,64,129960,1,8,0:0:0:0:
256,64,130060,1,8,0:0:0:0:
256,64,130260,1,0,0:0:0:0:
256,64,130460,1,0,0:0:0:0:
224,32,130560,1,8,0:0:0:0:
256,64,130660,1,8,0:0:0:0:
224,32,130760,1,0,0:0:0:0:
256,64,130860,1,8,0:0:0:0:
192,0,131260,1,8,0:0:0:0:
192,0,131460,1,8,0:0:0:0:
224,32,131560,1,8,0:0:0:0:
224,96,131660,1,0,0:0:0:0:
224,64,131860,1,8,0:0:0:0:
192,0,132060,1,8,0:0:0:0:
224,32,132160,1,0,0:0:0:0:
192,64,132260,1,0,0:0:0:0:
192,64,132360,1,0,0:0:0:0:
192,64,132460,1,8,0:0:0:0:
192,0,132660,1,8,0:0:0:0:
192,0,132860,1,0,0:0:0:0:
192,0,132960,1,0,0:0:0:0:
192,0,133060,1,0,0:0:0:0:
192,0,133260,1,8,0:0:0:0:
224,32,133360,1,0,0:0:0:0:
192,32,133460,5,0,0:0:0:0:
224,32,133560,1,0,0:0:0:0:
224,32,133660,1,8,0:0:0:0:
224,128,133860,1,8,0:0:0:0:
224,96,134060,1,0,0:0:0:0:
224,128,134460,1,4,0:0:0:0:
256,64,134660,1,8,0:0:0:0:
256,64,134760,1,8,0:0:0:0:
256,64,134860,1,0,0:0:0:0:
256,64,135060,1,8,0:0:0:0:
256,64,135260,1,0,0:0:0:0:
256,64,135360,1,0,0:0:0:0:
320,160,135460,1,8,0:0:0:0:
320,160,135560,1,8,0:0:0:0:
256,64,135660,1,0,0:0:0:0:
256,64,136060,1,0,0:0:0:0:
256,64,136260,1,8,0:0:0:0:
256,64,136460,1,0,0:0:0:0:
256,64,136560,1,8,0:0:0:0:
256,64,136660,1,0,0:0:0:0:
256,64,136860,1,8,0:0:0:0:
320,160,137060,1,0,0:0:0:0:
320,160,137160,1,0,0:0:0:0:
256,64,137260,1,0,0:0:0:0:
320,160,137360,1,0,0:0:0:0:
256,64,137460,1,8,0:0:0:0:
32,160,137660,1,0,0:0:0:0:
320,160,137760,1,0,0:0:0:0:
256,64,137860,1,0,0:0:0:0:
320,160,137960,1,0,0:0:0:0:
256,64,138060,1,8,0:0:0:0:
320,160,138260,1,0,0:0:0:0:
320,160,138360,1,8,0:0:0:0:
256,64,138460,1,0,0:0:0:0:
320,160,138560,1,0,0:0:0:0:
256,64,138660,1,8,0:0:0:0:
256,64,138860,1,0,0:0:0:0:
320,160,138960,1,8,0:0:0:0:
320,160,139060,1,8,0:0:0:0:
320,160,139160,1,0,0:0:0:0:
256,64,139260,1,8,0:0:0:0:
256,64,139460,1,8,0:0:0:0:
256,64,139560,1,8,0:0:0:0:
256,64,139660,1,0,0:0:0:0:
256,64,139860,1,8,0:0:0:0:
256,64,140060,1,0,0:0:0:0:
288,32,140160,1,0,0:0:0:0:
256,64,140260,1,8,0:0:0:0:
256,32,140360,1,8,0:0:0:0:
256,64,140460,1,0,0:0:0:0:
192,0,140860,1,8,0:0:0:0:
192,0,141060,1,8,0:0:0:0:
224,96,141260,1,0,0:0:0:0:
224,64,141360,1,0,0:0:0:0:
224,64,141460,1,8,0:0:0:0:
192,0,141660,1,8,0:0:0:0:
192,64,141860,1,0,0:0:0:0:
192,64,142060,1,8,0:0:0:0:
192,0,142460,1,8,0:0:0:0:
192,0,142660,1,0,0:0:0:0:
192,0,142760,1,0,0:0:0:0:
192,0,142860,1,8,0:0:0:0:
224,128,143060,1,8,0:0:0:0:
256,32,143260,1,0,0:0:0:0:
256,32,143360,1,0,0:0:0:0:
224,128,143460,1,8,0:0:0:0:
256,32,143660,1,0,0:0:0:0:
224,128,143860,1,8,0:0:0:0:
256,128,144060,1,4,0:0:0:0:
256,64,144260,1,8,0:0:0:0:
256,64,144360,1,8,0:0:0:0:
256,64,144460,1,0,0:0:0:0:
256,64,144660,1,8,0:0:0:0:
256,64,144860,1,0,0:0:0:0:
256,128,144960,1,0,0:0:0:0:
256,64,145060,1,8,0:0:0:0:
256,128,145160,1,8,0:0:0:0:
256,64,145260,1,0,0:0:0:0:
256,64,145660,1,0,0:0:0:0:
256,64,145860,1,8,0:0:0:0:
256,64,146060,1,0,0:0:0:0:
256,64,146160,1,8,0:0:0:0:
256,64,146260,1,0,0:0:0:0:
256,64,146460,1,8,0:0:0:0:
224,32,146660,1,0,0:0:0:0:
224,32,146760,1,0,0:0:0:0:
256,64,146860,1,0,0:0:0:0:
224,32,146960,1,0,0:0:0:0:
256,64,147060,1,8,0:0:0:0:
192,160,147260,1,0,0:0:0:0:
224,32,147360,1,0,0:0:0:0:
256,64,147460,1,0,0:0:0:0:
224,32,147560,1,0,0:0:0:0:
256,64,147660,1,8,0:0:0:0:
224,32,147860,1,0,0:0:0:0:
224,32,147960,1,8,0:0:0:0:
256,64,148060,1,0,0:0:0:0:
224,32,148160,1,0,0:0:0:0:
256,64,148260,1,8,0:0:0:0:
256,64,148460,1,0,0:0:0:0:
224,32,148560,1,8,0:0:0:0:
224,32,148660,1,8,0:0:0:0:
224,32,148760,1,0,0:0:0:0:
256,64,148860,1,8,0:0:0:0:
256,64,149060,1,8,0:0:0:0:
256,64,149160,1,8,0:0:0:0:
256,64,149260,1,8,0:0:0:0:
256,64,149460,1,0,0:0:0:0:
256,64,149660,1,0,0:0:0:0:
224,32,149760,1,8,0:0:0:0:
256,64,149860,1,8,0:0:0:0:
224,32,149960,1,0,0:0:0:0:
256,64,150060,1,8,0:0:0:0:
192,0,150460,1,8,0:0:0:0:
192,0,150660,1,8,0:0:0:0:
224,32,150760,1,8,0:0:0:0:
224,96,150860,1,0,0:0:0:0:
224,64,151060,1,8,0:0:0:0:
192,0,151260,1,8,0:0:0:0:
224,32,151360,5,0,0:0:0:0:
192,64,151460,1,0,0:0:0:0:
192,64,151560,1,0,0:0:0:0:
192,64,151660,1,8,0:0:0:0:
192,0,151860,1,8,0:0:0:0:
192,0,152060,1,0,0:0:0:0:
192,0,152160,1,0,0:0:0:0:
192,0,152260,1,0,0:0:0:0:
192,0,152460,1,8,0:0:0:0:
224,32,152560,1,0,0:0:0:0:
192,32,152660,5,0,0:0:0:0:
224,32,152760,1,0,0:0:0:0:
224,32,152860,1,8,0:0:0:0:
224,128,153060,1,8,0:0:0:0:
256,96,153260,1,0,0:0:0:0:
256,96,153360,1,0,0:0:0:0:
224,96,153460,1,8,0:0:0:0:
256,96,153560,1,8,0:0:0:0:
