osu file format v14

[General]
AudioFilename: toby fox - UNDERTALE Soundtrack - 98 Battle Against a True Hero.mp3
AudioLeadIn: 0
PreviewTime: 19100
Countdown: 0
SampleSet: Soft
StackLeniency: 0.7
Mode: 0
LetterboxInBreaks: 0
WidescreenStoryboard: 1

[Editor]
DistanceSpacing: 1.1
BeatDivisor: 4
GridSize: 32
TimelineZoom: 1

[Metadata]
Title:Battle Against a True Hero
TitleUnicode:Battle Against a True Hero
Artist:toby fox
ArtistUnicode:toby fox
Creator:Dreamchime
Version:Normal
Source:Undertale
Tags:
BeatmapID:817128
BeatmapSetID:371686

[Difficulty]
HPDrainRate:3
CircleSize:2.5
OverallDifficulty:3.5
ApproachRate:4.5
SliderMultiplier:1.2
SliderTickRate:2

[Events]
//Background and Video events
0,0,"Undyne the Heroine.png",0,0
//Break Periods
//Storyboard Layer 0 (Background)
//Storyboard Layer 1 (Fail)
//Storyboard Layer 2 (Pass)
//Storyboard Layer 3 (Foreground)
//Storyboard Sound Samples

[TimingPoints]
-15,400,4,2,0,50,1,0
19220,-66.6666666666667,4,2,0,75,0,0
31985,-66.6666666666667,4,2,0,100,0,1
44685,-66.6666666666667,4,2,0,75,0,0
70385,-66.6666666666667,4,2,0,100,0,1
95885,-133.333333333333,4,2,0,50,0,0
115200,-66.6666666666667,4,2,0,75,0,0
134385,-66.6666666666667,4,2,0,100,0,1
153585,-66.6666666666667,4,2,0,100,0,0

[Colours]
Combo1 : 17,234,66
Combo2 : 185,0,185
Combo3 : 142,4,225
Combo4 : 86,9,247
Combo5 : 14,193,245
Combo6 : 22,248,186

[HitObjects]
256,192,3185,12,0,5985,2:2:0:0:
278,214,6385,6,0,L|342:310,2,90,0|0|0,2:2|2:2|2:2,2:2:0:0:
223,140,7285,1,0,2:2:0:0:
168,70,7585,2,0,L|104:102,2,60,0|0|0,2:2|2:2|2:2,2:2:0:0:
256,32,8285,5,0,2:2:0:0:
320,96,8585,1,0,2:2:0:0:
352,192,8885,1,0,2:2:0:0:
272,244,9185,2,0,L|208:276,1,60,0|0,2:2|2:2,2:2:0:0:
168,247,9585,6,0,P|136:215|136:151,1,90,0|0,2:2|2:2,2:2:0:0:
192,96,10185,2,0,P|224:96|256:160,1,90,0|0,2:2|2:2,2:2:0:0:
258,244,10785,1,0,2:2:0:0:
303,280,10985,1,0,2:2:0:0:
383,222,11185,6,0,P|415:190|415:126,1,90,0|0,2:2|2:2,2:2:0:0:
320,160,11785,2,0,P|320:96|352:64,1,90,0|0,2:2|2:2,2:2:0:0:
420,36,12385,1,0,2:2:0:0:
288,32,12785,5,0,2:2:0:0:
192,56,13085,1,0,2:2:0:0:
135,137,13385,1,0,2:2:0:0:
204,205,13685,1,0,2:2:0:0:
297,221,13985,2,0,P|325:228|360:208,1,60
389,194,14385,5,0,2:2:0:0:
400,280,14685,1,0,2:2:0:0:
329,331,14985,1,0,2:2:0:0:
239,325,15285,1,0,2:2:0:0:
154,295,15585,2,0,P|126:259|112:232,1,60
136,194,15985,6,0,P|188:197|231:228,1,90,0|0,2:2|2:2,2:2:0:0:
273,129,16585,2,0,P|219:96|170:91,1,90,0|0,2:2|2:2,2:2:0:0:
122,35,17185,2,0,L|91:93,1,60,0|0,2:2|2:2,2:2:0:0:
77,127,17585,5,0,2:2:0:0:
32,218,17885,1,0,2:2:0:0:
47,314,18185,1,0,2:2:0:0:
150,316,18485,2,0,P|206:301|226:255,1,90
253,180,19185,5,0,2:2:0:0:
327,125,19485,1,0,2:2:0:0:
344,218,19785,2,0,P|392:204|455:145,2,135.000005149841
297,244,20585,1,0,2:2:0:0:
242,273,20785,6,0,P|185:288|109:259,1,135.000005149841,0|0,2:2|2:2,2:2:0:0:
92,171,21385,1,0,2:2:0:0:
159,101,21685,1,0,2:2:0:0:
254,71,21985,2,0,P|300:91|345:148,1,90.0000034332277
349,167,22385,5,0,2:2:0:0:
268,218,22685,1,0,2:2:0:0:
190,165,22985,2,0,P|138:224|81:253,2,135.000005149841
191,119,23785,1,0,2:2:0:0:
183,65,23985,6,0,P|136:61|66:122,1,135.000005149841,0|0,2:2|2:2,2:2:0:0:
43,204,24585,1,0,2:2:0:0:
98,282,24885,1,0,2:2:0:0:
193,260,25185,2,0,P|259:230|363:275,1,180.000006866455,0|0,2:2|2:2,2:2:0:0:
441,296,25885,5,0,2:2:0:0:
393,205,26185,1,0,2:2:0:0:
322,140,26485,1,0,2:2:0:0:
233,111,26785,2,0,P|194:155|188:195,1,90.0000034332277
197,239,27185,5,0,2:2:0:0:
249,320,27485,1,0,2:2:0:0:
342,314,27785,2,0,P|403:298|429:229,1,135.000005149841,0|0,2:2|2:2,2:2:0:0:
417,143,28385,2,0,P|406:96|345:115,1,90.0000034332277,0|0,2:2|2:2,2:2:0:0:
326,105,28785,5,0,2:2:0:0:
277,39,29085,1,0,2:2:0:0:
211,103,29385,1,0,2:2:0:0:
146,44,29685,1,0,2:2:0:0:
75,109,29985,2,0,L|144:204,2,90.0000034332277,0|0|0,2:2|2:2|2:2,2:2:0:0:
0,167,30685,5,0,2:2:0:0:
53,256,30985,2,0,B|141:293|127:118|129:105|153:288|173:230|210:259|237:254|257:245|273:238,1,270.000010299683,0|0,2:2|2:2,2:2:0:0:
407,193,31985,6,0,P|456:168|469:129,1,90.0000034332277
446,94,32385,2,0,P|397:72|344:87,1,90.0000034332277
324,105,32785,2,0,L|323:203,1,90.0000034332277,0|0,2:2|2:2,2:2:0:0:
313,242,33185,2,0,P|286:278|223:263,1,90.0000034332277,0|0,2:2|2:2,2:2:0:0:
215,252,33585,6,0,P|180:241|118:268,1,90.0000034332277,0|0,2:2|2:2,2:2:0:0:
118,301,33985,2,0,P|89:341|38:336,1,90.0000034332277
24,310,34385,2,0,P|53:237|95:216,1,90.0000034332277,0|0,2:2|2:2,2:2:0:0:
95,208,34785,2,0,P|184:188|205:170,1,90.0000034332277,0|0,2:2|2:2,2:2:0:0:
223,151,35185,6,0,P|239:122|221:63,1,90.0000034332277,0|0,2:2|2:2,2:2:0:0:
184,52,35585,2,0,P|103:78|71:107,1,90.0000034332277,0|0,2:2|2:2,2:2:0:0:
68,119,35985,2,0,P|47:163|61:224,1,90.0000034332277,0|0,2:2|2:2,2:2:0:0:
65,249,36385,2,0,P|88:281|150:258,1,90.0000034332277
182,257,36785,5,0,0:0:0:0:
252,189,37085,1,0,0:0:0:0:
291,276,37385,1,0,0:0:0:0:
389,272,37685,1,0,0:0:0:0:
350,180,37985,1,0,2:2:0:0:
249,86,38385,6,0,L|289:64,2,45.0000017166138,0|0|0,2:2|2:2|2:2,2:2:0:0:
156,73,38785,2,0,L|113:98,2,45.0000017166138,0|0|0,2:2|2:2|2:2,2:2:0:0:
209,157,39185,2,0,L|241:190,2,45.0000017166138,0|0|0,2:2|2:2|2:2,2:2:0:0:
288,109,39585,2,0,L|288:64,2,45.0000017166138,0|0|0,2:2|2:2|2:2,2:2:0:0:
318,204,39985,6,0,L|360:241,2,45.0000017166138,0|0|0,2:2|2:2|2:2,2:2:0:0:
222,230,40385,2,0,L|248:169,2,45.0000017166138,0|0|0,2:2|2:2|2:2,2:2:0:0:
296,308,40785,2,0,L|350:344,2,45.0000017166138,0|0|0,2:2|2:2|2:2,2:2:0:0:
204,301,41185,2,0,L|173:334,2,45.0000017166138,0|0|0,2:2|2:2|2:2,2:2:0:0:
178,251,41585,5,0,2:2:0:0:
203,208,41785,1,0,2:2:0:0:
172,176,41985,1,0,2:2:0:0:
143,139,42185,1,0,2:2:0:0:
180,105,42385,1,0,2:2:0:0:
149,69,42585,1,0,2:2:0:0:
191,50,42785,1,0,2:2:0:0:
236,87,42985,1,0,2:2:0:0:
268,139,43185,6,0,P|312:108|387:162,1,135.000005149841,0|0,2:2|2:2,2:2:0:0:
407,240,43785,1,0,2:2:0:0:
330,303,44085,2,0,P|252:251|217:179,1,135.000005149841
98,101,44785,6,0,L|9:245,1,135.000005149841,0|0,2:2|2:2,2:2:0:0:
86,290,45385,2,0,P|112:240|166:194,1,90.0000034332277
273,172,45985,2,0,P|347:137|374:98,1,90.0000034332277
389,109,46385,2,0,P|456:147|449:214,1,135.000005149841
441,301,46985,2,0,P|395:321|305:282,1,135.000005149841
206,280,47585,6,0,P|153:280|116:301,1,90.0000034332277,0|0,2:2|2:2,2:2:0:0:
90,317,47985,2,0,P|43:324|71:72,1,450.000017166138,0|0,2:2|2:2,2:2:0:0:
97,70,49185,2,0,P|153:99|201:101,1,90.0000034332277
224,108,49585,6,0,P|288:113|348:182,2,135.000005149841
184,145,50385,2,0,P|171:197|209:253,2,90.0000034332277,0|0|0,2:2|2:2|2:2,2:2:0:0:
209,111,50985,1,0,2:2:0:0:
247,83,51185,2,0,P|450:87|491:259,1,405.000015449524,0|0,2:2|2:2,2:2:0:0:
379,298,52385,6,0,P|330:297|307:263,1,90.0000034332277
297,224,52785,2,0,P|276:184|177:191,1,135.000005149841
174,268,53385,2,0,P|98:271|66:213,1,135.000005149841
138,149,53985,2,0,P|173:104|212:93,1,90.0000034332277
255,83,54385,6,0,B|592:186|594:161|246:309,1,540.000020599366
151,310,55985,2,0,P|102:311|51:247,1,135.000005149841
146,201,56585,2,0,P|206:191|241:126,1,135.000005149841
204,38,57185,1,0,2:2:0:0:
316,104,57585,6,0,P|346:142|284:201,1,135.000005149841
201,252,58185,2,0,P|220:193|211:166,2,90.0000034332277
181,298,58785,2,0,B|147:327|148:341|105:344,2,90.0000034332277
281,237,59485,2,0,P|336:189|405:184,2,135.000005149841
240,103,60385,6,0,P|191:71|149:72,1,90.0000034332277
57,108,60785,2,0,P|41:180|309:293,1,405.000015449524,0|0,2:2|2:2,2:2:0:0:
361,268,61985,2,0,P|399:237|419:200,1,90.0000034332277
432,149,62385,2,0,P|408:106|321:66,1,135.000005149841
241,50,62985,1,0,0:0:0:0:
191,55,63185,6,0,P|131:58|89:83,1,90.0000034332277,0|0,2:2|2:2,2:2:0:0:
70,96,63585,2,0,P|41:127|28:180,1,90.0000034332277,0|0,2:2|2:2,2:2:0:0:
19,214,63985,2,0,B|16:336|106:377|207:376|246:355|338:296,1,405.000015449524,0|0,2:2|2:2,2:2:0:0:
376,212,65185,2,0,P|444:184|489:213,1,90.0000034332277
507,196,65585,6,0,P|536:241|460:269,2,135.000005149841
461,105,66485,2,0,P|417:101|356:21,1,135.000005149841
305,29,66985,1,0,0:0:0:0:
252,38,67185,2,0,B|180:76|117:132|87:106|281:183,2,270.000010299683,0|0|0,2:2|2:2|2:2,2:2:0:0:
302,46,68585,1,0,0:0:0:0:
335,82,68785,6,0,P|373:144|364:215,1,135.000005149841
322,307,69385,2,0,P|272:321|188:288,1,135.000005149841
100,261,69985,1,0,0:0:0:0:
76,109,70385,6,0,P|155:158|183:122,1,135.000005149841
238,100,70985,2,0,B|250:48|257:10|269:37|355:235,1,270.000010299683,0|0,2:2|2:2,2:2:0:0:
356,270,71785,2,0,P|348:322|307:337,1,90.0000034332277
218,324,72285,2,0,P|165:289|206:238,1,135.000005149841
298,210,72885,1,0,0:0:0:0:
406,195,73185,5,0,2:2:0:0:
447,180,73385,1,0,2:2:0:0:
467,139,73585,2,0,P|467:37|261:60,1,360.000013732911,0|0,2:2|2:2,2:2:0:0:
188,102,74785,1,0,2:2:0:0:
161,56,74985,1,0,0:0:0:0:
114,54,75185,2,0,L|113:204,1,135.000005149841,0|0,2:2|2:2,2:2:0:0:
183,201,75785,6,0,L|183:297,4,90.0000034332277,0|0|0|0|0,2:2|2:2|2:2|2:2|2:2,2:2:0:0:
256,192,76785,2,0,B|416:128|480:320|320:320|224:320,1,360.000013732911,0|0,2:2|2:2,2:2:0:0:
140,337,77985,1,0,2:2:0:0:
110,292,78185,1,0,0:0:0:0:
88,247,78385,2,0,P|61:203|114:117,1,135.000005149841
173,211,78985,2,0,P|229:215|239:117,1,135.000005149841
318,33,79585,2,0,L|374:113,1,90.0000034332277,0|0,2:2|2:2,2:2:0:0:
431,95,79985,6,0,B|514:222|510:229|503:239|346:187,2,270.000010299683
388,143,81385,1,0,0:0:0:0:
371,195,81585,2,0,P|337:241|235:266,1,135.000005149841
215,281,82185,2,0,B|97:302|88:295|86:288|90:278|177:155,1,270.000010299683
263,43,83185,6,0,P|330:49|381:105,2,135.000005149841,0|0|0,2:2|2:2|2:2,2:2:0:0:
204,41,83985,1,0,2:2:0:0:
150,40,84185,1,0,0:0:0:0:
95,47,84385,1,0,2:2:0:0:
43,63,84585,1,0,0:0:0:0:
38,120,84785,6,0,L|129:245,1,135.000005149841,0|0,2:2|2:2,2:2:0:0:
205,291,85385,2,0,B|338:314|346:314|352:313|352:309|395:146,1,270.000010299683
409,135,86185,1,0,0:0:0:0:
451,86,86385,6,0,P|364:11|233:170,1,360.000013732911,0|0,2:2|2:2,2:2:0:0:
272,265,87585,1,0,2:2:0:0:
301,230,87785,1,0,0:0:0:0:
352,199,87985,2,0,L|489:176,2,135.000005149841,0|0|0,2:2|2:2|2:2,2:2:0:0:
328,165,88785,2,0,P|273:123|235:120,1,90.0000034332277,0|0,2:2|2:2,2:2:0:0:
214,114,89185,2,0,P|160:119|117:158,1,90.0000034332277,0|0,2:2|2:2,2:2:0:0:
98,140,89585,6,0,B|39:129|-13:114|-38:69|-35:53|23:27|129:8|246:6,1,405.000015449524,0|0,2:2|2:2,2:2:0:0:
327,62,90785,1,0,2:2:0:0:
364,104,90985,1,0,0:0:0:0:
380,155,91185,2,0,P|400:208|360:310,1,135.000005149841
259,312,91785,2,0,P|212:277|227:171,1,135.000005149841
256,102,92385,2,0,P|240:51|175:36,1,90.0000034332277
153,48,92785,6,0,P|110:66|75:158,1,135.000005149841,0|0,2:2|2:2,2:2:0:0:
150,162,93385,2,0,P|76:225|73:281,1,135.000005149841,0|0,2:2|2:2,2:2:0:0:
153,266,93985,2,0,P|117:301|92:365,2,90.0000034332277,0|0|0,2:2|2:2|2:2,2:2:0:0:
208,205,94685,1,0,2:2:0:0:
268,153,94985,1,0,2:2:0:0:
386,107,95385,5,0,2:2:0:0:
439,184,95685,1,0,0:0:0:0:
488,276,95985,2,2,P|454:330|262:287,1,270.000010299683
177,218,97585,1,0,0:0:0:0:
177,218,97985,1,0,0:0:0:0:
50,291,98385,6,2,P|0:230|6:160,1,135.000005149841,2|0,2:2|2:2,2:2:0:0:
0,56,99585,2,0,P|51:13|132:23,1,135.000005149841,2|0,0:0|0:0,0:0:0:0:
208,106,100785,6,2,P|370:47|435:114,1,270.000010299683,2|2,2:2|2:2,2:2:0:0:
375,172,102385,2,0,P|342:142|285:132,1,90.0000034332277,0|0,2:2|2:2,2:2:0:0:
218,113,103185,1,2,2:2:0:0:
137,132,103585,2,0,P|122:176|136:228,1,90.0000034332277,0|0,2:2|2:2,2:2:0:0:
157,291,104185,2,0,L|183:310,2,22.5000008583069,0|0|2,2:2|2:2|2:2,2:2:0:0:
202,187,104785,5,0,2:2:0:0:
253,277,105185,1,0,2:2:0:0:
346,234,105585,6,0,P|385:269|436:253,1,90.0000034332277,2|0,2:2|2:2,2:2:0:0:
418,167,106385,1,0,2:2:0:0:
351,104,106785,6,0,P|286:108|255:128,1,90.0000034332277,2|0,2:2|2:2,2:2:0:0:
191,44,107585,1,0,2:2:0:0:
126,122,107985,6,2,B|165:169|177:182|193:196|241:168|289:121|241:195|218:224|281:294,1,270.000010299683,2|2,2:2|2:2,2:2:0:0:
373,221,109785,1,0,2:2:0:0:
371,78,110385,6,0,L|321:94,1,45.0000017166138,2|0,2:2|2:2,2:2:0:0:
296,107,110785,2,0,L|249:129,1,45.0000017166138,0|0,2:2|2:2,2:2:0:0:
227,142,111185,2,0,L|187:162,1,45.0000017166138,0|0,2:2|2:2,2:2:0:0:
159,178,111585,1,2,2:2:0:0:
133,265,111985,6,0,L|135:312,1,45.0000017166138,0|0,2:2|2:2,2:2:0:0:
168,329,112385,2,0,P|192:339|224:343,1,45.0000017166138,0|0,2:2|2:2,2:2:0:0:
257,321,112785,1,2,2:2:0:0:
310,253,113185,1,0,2:2:0:0:
329,174,113585,1,0,2:2:0:0:
334,126,113785,2,0,L|338:85,2,22.5000008583069,0|0|2,2:2|2:2|2:2,2:2:0:0:
435,78,114385,6,0,L|434:186,1,90.0000034332277,0|0,2:2|2:2,2:2:0:0:
413,250,115185,5,6,2:2:0:0:
375,250,115385,1,0,2:2:0:0:
339,247,115585,1,0,2:2:0:0:
306,248,115785,1,0,2:2:0:0:
270,247,115985,1,0,2:2:0:0:
235,248,116185,1,0,0:0:0:0:
198,245,116385,2,0,B|102:241|96:236|96:228|146:147,1,180.000006866455
164,125,116985,5,0,2:2:0:0:
196,104,117185,1,0,2:2:0:0:
236,110,117385,1,0,2:2:0:0:
256,136,117585,2,2,P|293:217|418:121,2,270.000010299683,2|2|2,2:2|2:2|2:2,2:2:0:0:
168,97,119385,6,2,P|172:222|52:217,1,270.000010299683,2|2,2:2|2:2,2:2:0:0:
38,193,120185,1,0,2:2:0:0:
24,156,120385,1,0,2:2:0:0:
27,124,120585,1,0,2:2:0:0:
49,98,120785,1,0,2:2:0:0:
80,79,120985,2,0,L|200:60,1,90.0000034332277,0|2,2:2|2:2,2:2:0:0:
292,82,121585,5,0,2:2:0:0:
317,47,121785,1,0,2:2:0:0:
348,82,121985,1,0,2:2:0:0:
385,52,122185,1,0,2:2:0:0:
415,97,122385,2,2,P|451:210|393:251,1,180.000006866455,2|2,2:2|2:2,2:2:0:0:
342,297,123185,1,2,2:2:0:0:
290,292,123385,2,0,L|295:230,2,45.0000017166138
233,292,123785,5,0,0:0:0:0:
199,265,123985,2,0,L|127:180,1,90.0000034332277,0|0,2:2|2:2,2:2:0:0:
186,161,124385,2,0,L|123:91,2,90.0000034332277,0|0|6,2:2|2:2|2:2,2:2:0:0:
240,160,124985,5,0,2:2:0:0:
265,195,125185,1,0,2:2:0:0:
292,227,125385,1,0,2:2:0:0:
313,259,125585,1,0,2:2:0:0:
346,288,125785,2,0,L|424:218,1,90.0000034332277,0|2,2:2|2:2,2:2:0:0:
385,110,126385,6,0,L|446:36,2,90.0000034332277,0|0|0,2:2|2:2|2:2,2:2:0:0:
320,106,126985,1,0,2:2:0:0:
326,167,127185,2,2,B|288:208|266:230|218:243|183:229|146:208|148:95,2,270.000010299683,2|2|2,2:2|2:2|2:2,2:2:0:0:
356,154,128585,2,0,P|398:191|381:208,1,90.0000034332277,0|0,2:2|2:2,2:2:0:0:
352,227,128985,5,2,2:2:0:0:
320,257,129185,1,0,2:2:0:0:
292,283,129385,1,0,2:2:0:0:
261,297,129585,2,2,L|43:129,1,270.000010299683,2|2,2:2|2:2,2:2:0:0:
66,97,130385,6,0,L|135:36,2,90.0000034332277,0|0|2,2:2|2:2|2:2,2:2:0:0:
49,197,131185,1,2,2:2:0:0:
147,133,131585,1,2,2:2:0:0:
120,238,131985,2,2,P|277:307|371:16,1,540.000020599366,2|2,2:2|2:2,2:2:0:0:
202,35,133585,5,0,2:2:0:0:
311,95,133985,1,0,2:2:0:0:
274,123,134185,1,0,2:2:0:0:
272,165,134385,2,0,L|270:259,1,90.0000034332277,6|0,2:2|2:2,2:2:0:0:
301,254,134785,6,0,L|369:191,2,90.0000034332277,2|0|2,2:2|2:2|2:2,2:2:0:0:
256,253,135385,2,0,L|186:193,1,90.0000034332277,0|2,2:2|2:2,2:2:0:0:
148,182,135785,1,0,2:2:0:0:
94,181,135985,6,2,P|79:223|18:259,2,90.0000034332277,2|0|2,2:2|2:2|2:2,2:2:0:0:
105,136,136585,1,0,2:2:0:0:
127,97,136785,2,2,P|220:50|307:47,1,180.000006866455,2|0,0:0|0:0,0:0:0:0:
342,46,137385,2,2,P|416:77|460:174,1,180.000006866455,2|0,0:0|0:0,0:0:0:0:
459,219,137985,2,2,P|419:288|294:296,1,180.000006866455,2|0,0:0|0:0,0:0:0:0:
284,308,138585,2,2,P|190:304|132:236,1,180.000006866455,2|0,0:0|0:0,0:0:0:0:
111,186,139185,5,6,2:2:0:0:
88,142,139385,1,0,2:2:0:0:
89,88,139585,1,2,2:2:0:0:
123,46,139785,1,0,2:2:0:0:
169,85,139985,2,0,L|269:87,1,90.0000034332277,2|0,2:2|2:2,2:2:0:0:
306,46,140385,2,0,L|407:48,1,90.0000034332277,2|0,2:2|2:2,2:2:0:0:
436,100,140785,6,0,P|459:148|428:173,1,90.0000034332277,2|0,2:2|2:2,2:2:0:0:
376,200,141185,2,0,P|341:237|385:268,1,90.0000034332277,2|0,2:2|2:2,2:2:0:0:
392,270,141585,2,2,B|493:311|494:322|372:361,2,180.000006866455,2|2|2,2:2|2:2|2:2,2:2:0:0:
339,256,142585,2,0,L|294:269,2,45.0000017166138,0|0|2,2:2|2:2|2:2,2:2:0:0:
330,204,142985,5,0,2:2:0:0:
314,164,143185,1,2,2:2:0:0:
270,167,143385,1,0,2:2:0:0:
246,205,143585,1,2,2:2:0:0:
203,206,143785,1,0,2:2:0:0:
157,169,143985,6,0,P|76:192|65:230,1,90.0000034332277,6|0,2:2|2:2,2:2:0:0:
65,234,144385,1,2,2:2:0:0:
66,275,144585,2,0,P|92:319|131:318,1,90.0000034332277,0|2,2:2|2:2,2:2:0:0:
179,316,144985,1,0,2:2:0:0:
237,317,145185,2,2,P|308:309|407:253,1,180.000006866455,6|2,2:2|2:2,2:2:0:0:
363,215,145785,5,0,2:2:0:0:
407,189,145985,2,0,P|429:148|404:115,1,90.0000034332277,2|0,2:2|2:2,2:2:0:0:
374,84,146385,2,6,B|323:59|317:27|307:23|246:45|213:27|201:35|200:83|196:87|113:95,2,270.000010299683,6|6|6,2:2|2:2|2:2,2:2:0:0:
409,121,147785,5,0,2:2:0:0:
437,163,147985,1,2,2:2:0:0:
415,201,148185,2,6,B|355:246|315:271|324:206|322:124|304:123|250:240|185:238,1,270.000010299683,6|4,2:2|2:2,2:2:0:0:
176,199,148985,1,0,2:2:0:0:
144,171,149185,1,2,2:2:0:0:
109,145,149385,6,0,L|9:79,1,90.0000034332277,0|2,2:2|2:2,2:2:0:0:
63,54,149785,2,0,L|169:47,1,90.0000034332277,0|6,2:2|2:2,2:2:0:0:
256,32,150385,1,2,2:2:0:0:
256,160,150785,1,2,2:2:0:0:
384,128,151185,6,2,L|426:160,11,45.0000017166138,6|2|2|2|2|2|2|2|2|2|2|2,2:2|2:2|2:2|2:2|2:2|2:2|2:2|2:2|2:2|2:2|2:2|2:2,2:2:0:0:
415,208,152385,2,6,P|306:311|101:128,1,450.000017166138,6|6,2:2|2:2,2:2:0:0:
