osu file format v14

[General]
AudioFilename: edit.ogg
AudioLeadIn: 0
PreviewTime: 16203
Countdown: 0
SampleSet: Normal
StackLeniency: 0.7
Mode: 1
LetterboxInBreaks: 0
WidescreenStoryboard: 0

[Editor]
Bookmarks: 21469
DistanceSpacing: 0.4
BeatDivisor: 4
GridSize: 32
TimelineZoom: 1.75

[Metadata]
Title:Anticipation / Enemy Approaching
TitleUnicode:Anticipation / Enemy Approaching
Artist:toby fox
ArtistUnicode:toby fox
Creator:meiqth
Version:Encounter
Source:UNDERTALE
Tags:"radiation" radiation vulkin electronic 8bit 8-bit chiptune video game music vgm ost original soundtrack instrumental
BeatmapID:3478260
BeatmapSetID:1702297

[Difficulty]
HPDrainRate:6
CircleSize:2
OverallDifficulty:6
ApproachRate:10
SliderMultiplier:1.4
SliderTickRate:1

[Events]
//Background and Video events
0,0,"07.jpg",0,-9
//Break Periods
//Storyboard Layer 0 (Background)
//Storyboard Layer 1 (Fail)
//Storyboard Layer 2 (Pass)
//Storyboard Layer 3 (Foreground)
//Storyboard Layer 4 (Overlay)
//Storyboard Sound Samples

[TimingPoints]
486,327.868852459016,4,1,0,50,1,0
486,-111.111111111111,4,1,0,50,0,0
567,-111.111111111111,4,1,0,35,0,0
4338,-111.111111111111,4,1,0,50,0,0
5485,-111.111111111111,4,1,0,35,0,0
9625,-111.111111111111,4,1,0,50,0,0
11059,-111.111111111111,4,1,0,35,0,0
14871,-111.111111111111,4,1,0,50,0,0
16018,-111.111111111111,4,1,0,35,0,0
20117,-111.111111111111,4,1,0,50,0,0
21551,-111.111111111111,4,1,0,65,0,0
29663,-110.293787844808,4,1,0,65,0,0
29827,-109.488401086424,4,1,0,66,0,0
29991,-108.694691243425,4,1,0,66,0,0
30155,-107.912406196516,4,1,0,66,0,0
30319,-107.141301032635,4,1,0,67,0,0
30482,-106.385740244008,4,1,0,67,0,0
30646,-105.636223043217,4,1,0,67,0,0
30810,-104.897193072263,4,1,0,68,0,0
30892,-104.531542254719,4,1,0,68,0,0
30974,-104.168431754639,4,1,0,68,0,0
31138,-103.449726546066,4,1,0,68,0,0
31466,-102.041663208565,4,1,0,69,0,0
31548,-101.695616211745,4,1,0,69,0,0
31630,-101.35190833402,4,1,0,69,0,0
31712,-101.010515938219,4,1,0,70,0,0
31794,-100.671415704577,4,1,0,70,0,0
31961,-100,4,1,0,73,0,1
39830,-100,4,1,0,70,0,0
42453,-100,4,1,0,73,0,1
50322,-100,4,1,0,70,0,0
73596,-101.135811607948,4,1,0,70,0,0
73760,-101.52095669337,4,1,0,69,0,0
73924,-101.909046409175,4,1,0,69,0,0
74253,-102.69660809922,4,1,0,68,0,0
74417,-103.093755895114,4,1,0,67,0,0
74581,-103.493987311808,4,1,0,66,0,0
74909,-104.303845786812,4,1,0,66,0,0
75237,-105.126478791959,4,1,0,65,0,0
75401,-105.542680571649,4,1,0,64,0,0
75564,-105.959622888442,4,1,0,64,0,0
75728,-106.382461006886,4,1,0,63,0,0
75892,-106.808687367161,4,1,0,62,0,0
76056,-107.238342858544,4,1,0,61,0,0
76220,-107.671469030908,4,1,0,58,0,0
76384,-108.108108108108,4,1,0,55,0,0

[HitObjects]
256,192,486,5,12,0:0:0:0:
256,192,649,1,0,0:0:0:0:
256,192,813,1,8,0:0:0:0:
256,192,1141,1,0,0:0:0:0:
256,192,1305,1,8,0:0:0:0:
256,192,1633,1,0,0:0:0:0:
256,192,1797,1,8,0:0:0:0:
256,192,2125,1,0,0:0:0:0:
256,192,2289,1,8,0:0:0:0:
256,192,2617,1,8,0:0:0:0:
256,192,2945,1,8,0:0:0:0:
256,192,3108,1,0,0:0:0:0:
256,192,3272,1,0,0:0:0:0:
256,192,3436,1,8,0:0:0:0:
256,192,3764,1,0,0:0:0:0:
256,192,3928,1,8,0:0:0:0:
256,192,4256,1,0,0:0:0:0:
256,192,4420,1,8,0:0:0:0:
256,192,4584,1,0,0:0:0:0:
256,192,4666,1,0,0:0:0:0:
256,192,4748,1,0,0:0:0:0:
256,192,4912,1,8,0:0:0:0:
256,192,5240,1,0,0:0:0:0:
256,192,5322,1,0,0:0:0:0:
256,192,5404,1,8,0:0:0:0:
256,192,5731,5,0,0:0:0:0:
256,192,5895,1,0,0:0:0:0:
256,192,6059,1,8,0:0:0:0:
256,192,6387,1,0,0:0:0:0:
256,192,6551,1,8,0:0:0:0:
256,192,6879,1,0,0:0:0:0:
256,192,7043,1,8,0:0:0:0:
256,192,7371,1,0,0:0:0:0:
256,192,7535,1,8,0:0:0:0:
256,192,7863,1,8,0:0:0:0:
256,192,8190,1,8,0:0:0:0:
256,192,8354,1,0,0:0:0:0:
256,192,8518,1,0,0:0:0:0:
256,192,8682,1,8,0:0:0:0:
256,192,9010,1,0,0:0:0:0:
256,192,9174,1,8,0:0:0:0:
256,192,9502,1,0,0:0:0:0:
256,192,9666,1,8,0:0:0:0:
256,192,9830,1,0,0:0:0:0:
256,192,9912,1,0,0:0:0:0:
256,192,9994,1,0,0:0:0:0:
256,192,10158,1,8,0:0:0:0:
256,192,10485,1,8,0:0:0:0:
256,192,10567,1,8,0:0:0:0:
256,192,10649,1,8,0:0:0:0:
256,192,10731,1,8,0:0:0:0:
256,192,10813,1,0,0:0:0:0:
256,192,10977,5,12,0:0:0:0:
256,192,11141,1,0,0:0:0:0:
256,192,11305,1,8,0:0:0:0:
256,192,11633,1,0,0:0:0:0:
256,192,11797,1,8,0:0:0:0:
256,192,12125,1,0,0:0:0:0:
256,192,12289,1,8,0:0:0:0:
256,192,12617,1,0,0:0:0:0:
256,192,12781,1,8,0:0:0:0:
256,192,13108,1,8,0:0:0:0:
256,192,13436,1,8,0:0:0:0:
256,192,13600,1,0,0:0:0:0:
256,192,13764,1,0,0:0:0:0:
256,192,13928,1,8,0:0:0:0:
256,192,14256,1,0,0:0:0:0:
256,192,14420,1,8,0:0:0:0:
256,192,14748,1,0,0:0:0:0:
256,192,14912,1,8,0:0:0:0:
256,192,15076,1,0,0:0:0:0:
256,192,15158,1,0,0:0:0:0:
256,192,15240,1,0,0:0:0:0:
256,192,15404,1,8,0:0:0:0:
256,192,15731,1,0,0:0:0:0:
256,192,15813,1,0,0:0:0:0:
256,192,15895,1,8,0:0:0:0:
256,192,16223,1,0,0:0:0:0:
256,192,16387,1,0,0:0:0:0:
256,192,16551,1,8,0:0:0:0:
256,192,16879,1,0,0:0:0:0:
256,192,17043,1,8,0:0:0:0:
256,192,17371,1,0,0:0:0:0:
256,192,17535,1,8,0:0:0:0:
256,192,17863,1,0,0:0:0:0:
256,192,18026,1,8,0:0:0:0:
256,192,18354,1,8,0:0:0:0:
256,192,18682,1,8,0:0:0:0:
256,192,18846,1,0,0:0:0:0:
256,192,19010,1,0,0:0:0:0:
256,192,19174,1,8,0:0:0:0:
256,192,19502,1,0,0:0:0:0:
256,192,19666,1,8,0:0:0:0:
256,192,19994,1,0,0:0:0:0:
256,192,20158,1,8,0:0:0:0:
256,192,20322,1,0,0:0:0:0:
256,192,20404,1,0,0:0:0:0:
256,192,20485,1,0,0:0:0:0:
256,192,20649,1,8,0:0:0:0:
256,192,20977,1,8,0:0:0:0:
256,192,21059,1,8,0:0:0:0:
256,192,21141,1,8,0:0:0:0:
256,192,21223,1,8,0:0:0:0:
256,192,21305,1,0,0:0:0:0:
256,192,21469,1,8,0:0:0:0:
256,192,21633,1,0,0:0:0:0:
256,192,21715,1,0,0:0:0:0:
256,192,21797,1,8,0:0:0:0:
256,192,21961,1,8,0:0:0:0:
256,192,22125,1,0,0:0:0:0:
256,192,22289,1,8,0:0:0:0:
256,192,22617,1,8,0:0:0:0:
256,192,22781,1,0,0:0:0:0:
256,192,22945,1,0,0:0:0:0:
256,192,23108,1,8,0:0:0:0:
256,192,23272,1,8,0:0:0:0:
256,192,23436,1,0,0:0:0:0:
256,192,23600,1,8,0:0:0:0:
256,192,23928,1,0,0:0:0:0:
256,192,24092,1,8,0:0:0:0:
256,192,24256,1,0,0:0:0:0:
256,192,24338,1,0,0:0:0:0:
256,192,24420,1,8,0:0:0:0:
256,192,24584,1,8,0:0:0:0:
256,192,24748,1,0,0:0:0:0:
256,192,24912,1,8,0:0:0:0:
256,192,25240,1,0,0:0:0:0:
256,192,25404,1,8,0:0:0:0:
256,192,25567,1,0,0:0:0:0:
256,192,25649,1,0,0:0:0:0:
256,192,25731,1,0,0:0:0:0:
256,192,25895,1,8,0:0:0:0:
256,192,26223,1,8,0:0:0:0:
256,192,26305,1,8,0:0:0:0:
256,192,26387,1,0,0:0:0:0:
256,192,26551,1,8,0:0:0:0:
256,192,26715,1,8,0:0:0:0:
256,192,26879,1,0,0:0:0:0:
256,192,27043,1,8,0:0:0:0:
256,192,27207,1,8,0:0:0:0:
256,192,27371,1,0,0:0:0:0:
256,192,27535,1,8,0:0:0:0:
256,192,27863,1,0,0:0:0:0:
256,192,28026,1,8,0:0:0:0:
256,192,28190,1,0,0:0:0:0:
256,192,28354,1,0,0:0:0:0:
256,192,28518,1,8,0:0:0:0:
256,192,28682,1,0,0:0:0:0:
256,192,28846,1,8,0:0:0:0:
256,192,29174,1,8,0:0:0:0:
256,192,29338,1,0,0:0:0:0:
256,192,29502,1,0,0:0:0:0:
256,192,29666,1,8,0:0:0:0:
256,192,29830,1,8,0:0:0:0:
256,192,29994,1,0,0:0:0:0:
256,192,30158,1,8,0:0:0:0:
256,192,30322,1,8,0:0:0:0:
256,192,30485,1,0,0:0:0:0:
256,192,30649,1,8,0:0:0:0:
256,192,30813,1,0,0:0:0:0:
256,192,30895,1,0,0:0:0:0:
256,192,30977,1,8,0:0:0:0:
256,192,31141,1,8,0:0:0:0:
256,192,31469,1,8,0:0:0:0:
256,192,31551,1,8,0:0:0:0:
256,192,31633,1,8,0:0:0:0:
256,192,31715,1,8,0:0:0:0:
256,192,31797,1,0,0:0:0:0:
256,192,31961,1,12,0:0:0:0:
256,192,32125,1,0,0:0:0:0:
256,192,32207,1,0,0:0:0:0:
256,192,32289,1,8,0:0:0:0:
256,192,32453,1,8,0:0:0:0:
256,192,32617,1,0,0:0:0:0:
256,192,32699,1,0,0:0:0:0:
256,192,32781,1,8,0:0:0:0:
256,192,32945,1,8,0:0:0:0:
256,192,33108,1,0,0:0:0:0:
256,192,33272,1,0,0:0:0:0:
256,192,33436,1,8,0:0:0:0:
256,192,33600,1,8,0:0:0:0:
256,192,33764,1,0,0:0:0:0:
256,192,34092,1,8,0:0:0:0:
256,192,34256,1,0,0:0:0:0:
256,192,34420,1,8,0:0:0:0:
256,192,34748,1,0,0:0:0:0:
256,192,34830,1,0,0:0:0:0:
256,192,34912,1,8,0:0:0:0:
256,192,35076,1,8,0:0:0:0:
256,192,35240,1,0,0:0:0:0:
256,192,35404,1,8,0:0:0:0:
256,192,35567,1,0,0:0:0:0:
256,192,35731,1,0,0:0:0:0:
256,192,35895,1,8,0:0:0:0:
256,192,36223,1,8,0:0:0:0:
256,192,36305,1,8,0:0:0:0:
256,192,36387,1,0,0:0:0:0:
256,192,36551,1,8,0:0:0:0:
256,192,36715,1,8,0:0:0:0:
256,192,36879,1,0,0:0:0:0:
256,192,37043,1,0,0:0:0:0:
256,192,37207,1,8,0:0:0:0:
256,192,37371,1,0,0:0:0:0:
256,192,37453,1,0,0:0:0:0:
256,192,37535,1,8,0:0:0:0:
256,192,37699,1,8,0:0:0:0:
256,192,37863,1,0,0:0:0:0:
256,192,37945,1,0,0:0:0:0:
256,192,38026,1,8,0:0:0:0:
256,192,38190,1,0,0:0:0:0:
256,192,38354,1,0,0:0:0:0:
256,192,38518,1,8,0:0:0:0:
256,192,38846,1,8,0:0:0:0:
256,192,39010,1,0,0:0:0:0:
256,192,39174,1,8,0:0:0:0:
256,192,39338,1,0,0:0:0:0:
256,192,39502,1,8,0:0:0:0:
256,192,39666,1,8,0:0:0:0:
256,192,39830,1,0,0:0:0:0:
256,192,39994,1,0,0:0:0:0:
256,192,40158,1,12,0:0:0:0:
256,192,40485,1,8,0:0:0:0:
256,192,40649,1,0,0:0:0:0:
256,192,40813,1,12,0:0:0:0:
256,192,41141,1,0,0:0:0:0:
256,192,41469,1,12,0:0:0:0:
256,192,41797,1,12,0:0:0:0:
256,192,41961,1,0,0:0:0:0:
256,192,42125,1,8,0:0:0:0:
256,192,42289,1,8,0:0:0:0:
256,192,42453,1,4,0:0:0:0:
256,192,42617,1,0,0:0:0:0:
256,192,42699,1,0,0:0:0:0:
256,192,42781,1,8,0:0:0:0:
256,192,42945,1,8,0:0:0:0:
256,192,43108,1,0,0:0:0:0:
256,192,43190,1,0,0:0:0:0:
256,192,43272,1,8,0:0:0:0:
256,192,43436,1,8,0:0:0:0:
256,192,43600,1,0,0:0:0:0:
256,192,43764,1,0,0:0:0:0:
256,192,43928,1,8,0:0:0:0:
256,192,44092,1,8,0:0:0:0:
256,192,44256,1,0,0:0:0:0:
256,192,44584,1,8,0:0:0:0:
256,192,44748,1,0,0:0:0:0:
256,192,44912,1,8,0:0:0:0:
256,192,45240,1,0,0:0:0:0:
256,192,45322,1,0,0:0:0:0:
256,192,45404,1,8,0:0:0:0:
256,192,45567,1,8,0:0:0:0:
256,192,45731,1,0,0:0:0:0:
256,192,45895,1,8,0:0:0:0:
256,192,46059,1,0,0:0:0:0:
256,192,46223,1,0,0:0:0:0:
256,192,46387,1,8,0:0:0:0:
256,192,46715,1,8,0:0:0:0:
256,192,46797,1,8,0:0:0:0:
256,192,46879,1,0,0:0:0:0:
256,192,47043,1,8,0:0:0:0:
256,192,47207,1,8,0:0:0:0:
256,192,47371,1,0,0:0:0:0:
256,192,47535,1,0,0:0:0:0:
256,192,47699,1,8,0:0:0:0:
256,192,47863,1,0,0:0:0:0:
256,192,47945,1,0,0:0:0:0:
256,192,48026,1,8,0:0:0:0:
256,192,48190,1,8,0:0:0:0:
256,192,48354,1,0,0:0:0:0:
256,192,48436,1,0,0:0:0:0:
256,192,48518,1,8,0:0:0:0:
256,192,48682,1,0,0:0:0:0:
256,192,48846,1,0,0:0:0:0:
256,192,49010,1,8,0:0:0:0:
256,192,49338,1,8,0:0:0:0:
256,192,49502,1,0,0:0:0:0:
256,192,49666,1,8,0:0:0:0:
256,192,49830,1,0,0:0:0:0:
256,192,49994,1,8,0:0:0:0:
256,192,50158,1,8,0:0:0:0:
256,192,50322,1,0,0:0:0:0:
256,192,50485,1,0,0:0:0:0:
256,192,50649,1,12,0:0:0:0:
256,192,50977,1,8,0:0:0:0:
256,192,51141,1,0,0:0:0:0:
256,192,51305,1,12,0:0:0:0:
256,192,51633,1,0,0:0:0:0:
256,192,51961,1,12,0:0:0:0:
256,192,52289,1,12,0:0:0:0:
256,192,52453,1,0,0:0:0:0:
256,192,52617,1,8,0:0:0:0:
256,192,52781,1,8,0:0:0:0:
256,192,52945,1,4,0:0:0:0:
256,192,53108,1,0,0:0:0:0:
256,192,53190,1,0,0:0:0:0:
256,192,53272,1,8,0:0:0:0:
256,192,53436,1,8,0:0:0:0:
256,192,53600,1,0,0:0:0:0:
256,192,53764,1,8,0:0:0:0:
256,192,54092,1,8,0:0:0:0:
256,192,54256,1,0,0:0:0:0:
256,192,54420,1,0,0:0:0:0:
256,192,54584,1,8,0:0:0:0:
256,192,54666,1,8,0:0:0:0:
256,192,54748,1,0,0:0:0:0:
256,192,55076,1,0,0:0:0:0:
256,192,55240,1,8,0:0:0:0:
256,192,55404,1,8,0:0:0:0:
256,192,55567,1,0,0:0:0:0:
256,192,55895,1,8,0:0:0:0:
256,192,56059,1,8,0:0:0:0:
256,192,56223,1,0,0:0:0:0:
256,192,56387,1,8,0:0:0:0:
256,192,56551,1,8,0:0:0:0:
256,192,56715,1,0,0:0:0:0:
256,192,56879,1,8,0:0:0:0:
256,192,57207,1,0,0:0:0:0:
256,192,57371,1,8,0:0:0:0:
256,192,57699,1,0,0:0:0:0:
256,192,57863,1,8,0:0:0:0:
256,192,58026,1,8,0:0:0:0:
256,192,58190,1,0,0:0:0:0:
256,192,58354,1,0,0:0:0:0:
256,192,58436,1,0,0:0:0:0:
256,192,58518,1,8,0:0:0:0:
256,192,58682,1,0,0:0:0:0:
256,192,58846,1,0,0:0:0:0:
256,192,59010,1,8,0:0:0:0:
256,192,59338,1,8,0:0:0:0:
256,192,59502,1,8,0:0:0:0:
256,192,59666,1,0,0:0:0:0:
256,192,59830,1,8,0:0:0:0:
256,192,59912,1,8,0:0:0:0:
256,192,59994,1,0,0:0:0:0:
256,192,60322,1,0,0:0:0:0:
256,192,60485,1,0,0:0:0:0:
256,192,60649,1,8,0:0:0:0:
256,192,60813,1,0,0:0:0:0:
256,192,60977,1,8,0:0:0:0:
256,192,61059,1,8,0:0:0:0:
256,192,61141,1,8,0:0:0:0:
256,192,61305,1,8,0:0:0:0:
256,192,61469,1,0,0:0:0:0:
256,192,61633,1,8,0:0:0:0:
256,192,61797,1,8,0:0:0:0:
256,192,61961,1,0,0:0:0:0:
256,192,62125,1,8,0:0:0:0:
256,192,62453,1,0,0:0:0:0:
256,192,62617,1,8,0:0:0:0:
256,192,62945,1,8,0:0:0:0:
256,192,63108,1,0,0:0:0:0:
256,192,63272,1,0,0:0:0:0:
256,192,63436,1,12,0:0:0:0:
256,192,63600,1,0,0:0:0:0:
256,192,63682,1,0,0:0:0:0:
256,192,63764,1,8,0:0:0:0:
256,192,63928,1,8,0:0:0:0:
256,192,64092,1,0,0:0:0:0:
256,192,64256,1,8,0:0:0:0:
256,192,64584,1,8,0:0:0:0:
256,192,64748,1,0,0:0:0:0:
256,192,64912,1,0,0:0:0:0:
256,192,65076,1,8,0:0:0:0:
256,192,65158,1,8,0:0:0:0:
256,192,65240,1,0,0:0:0:0:
256,192,65567,1,0,0:0:0:0:
256,192,65731,1,8,0:0:0:0:
256,192,65895,1,8,0:0:0:0:
256,192,66059,1,0,0:0:0:0:
256,192,66387,1,8,0:0:0:0:
256,192,66551,1,8,0:0:0:0:
256,192,66715,1,0,0:0:0:0:
256,192,66879,1,8,0:0:0:0:
256,192,67043,1,8,0:0:0:0:
256,192,67207,1,0,0:0:0:0:
256,192,67371,1,8,0:0:0:0:
256,192,67699,1,0,0:0:0:0:
256,192,67863,1,8,0:0:0:0:
256,192,68190,1,0,0:0:0:0:
256,192,68354,1,8,0:0:0:0:
256,192,68518,1,8,0:0:0:0:
256,192,68682,1,0,0:0:0:0:
256,192,68846,1,0,0:0:0:0:
256,192,68928,1,0,0:0:0:0:
256,192,69010,1,8,0:0:0:0:
256,192,69174,1,8,0:0:0:0:
256,192,69338,1,0,0:0:0:0:
256,192,69502,1,8,0:0:0:0:
256,192,69830,1,8,0:0:0:0:
256,192,69994,1,8,0:0:0:0:
256,192,70158,1,0,0:0:0:0:
256,192,70322,1,8,0:0:0:0:
256,192,70404,1,8,0:0:0:0:
256,192,70485,1,0,0:0:0:0:
256,192,70813,1,0,0:0:0:0:
256,192,70977,1,0,0:0:0:0:
256,192,71141,1,8,0:0:0:0:
256,192,71305,1,4,0:0:0:0:
256,192,71469,1,8,0:0:0:0:
256,192,71551,1,8,0:0:0:0:
256,192,71633,1,8,0:0:0:0:
256,192,71797,1,8,0:0:0:0:
256,192,71961,1,0,0:0:0:0:
256,192,72125,1,8,0:0:0:0:
256,192,72289,1,8,0:0:0:0:
256,192,72453,1,0,0:0:0:0:
256,192,72617,1,8,0:0:0:0:
256,192,72945,1,0,0:0:0:0:
256,192,73108,1,8,0:0:0:0:
256,192,73600,1,0,0:0:0:0:
256,192,73764,1,0,0:0:0:0:
256,192,73928,1,12,0:0:0:0:
256,192,74256,1,8,0:0:0:0:
256,192,74420,1,8,0:0:0:0:
256,192,74584,1,0,0:0:0:0:
256,192,74912,1,0,0:0:0:0:
256,192,75240,1,0,0:0:0:0:
256,192,75404,1,8,0:0:0:0:
256,192,75567,1,8,0:0:0:0:
256,192,75731,1,0,0:0:0:0:
256,192,75895,1,8,0:0:0:0:
256,192,76059,1,8,0:0:0:0:
256,192,76223,1,0,0:0:0:0:
256,192,76387,1,0,0:0:0:0:
