osu file format v14

[General]
AudioFilename: audio.mp3
AudioLeadIn: 0
PreviewTime: 51539
Countdown: 0
SampleSet: None
StackLeniency: 0.7
Mode: 0
LetterboxInBreaks: 0
WidescreenStoryboard: 0

[Editor]
DistanceSpacing: 0.5
BeatDivisor: 4
GridSize: 4
TimelineZoom: 1.3

[Metadata]
Title:Another Medium
TitleUnicode:Another Medium
Artist:toby fox
ArtistUnicode:toby fox
Creator:Zaven
Version:Hard
Source:Undertale
Tags:radiation hotlands hotland hot lands land ost soundtrack theme video game Alphys
BeatmapID:891774
BeatmapSetID:411007

[Difficulty]
HPDrainRate:6
CircleSize:4
OverallDifficulty:5
ApproachRate:7
SliderMultiplier:1.4
SliderTickRate:2

[Events]
//Background and Video events
0,0,"lavafactory.jpg",0,0
//Break Periods
2,96230,102290
//Storyboard Layer 0 (Background)
//Storyboard Layer 1 (Fail)
//Storyboard Layer 2 (Pass)
//Storyboard Layer 3 (Foreground)
//Storyboard Sound Samples

[TimingPoints]
3723.09615266323,461.53711613946,4,3,0,25,1,0
36953,-80,4,1,0,15,0,0
53799,-80,4,1,1,15,0,0
54146,-80,4,1,0,15,0,0
57607,-80,4,1,1,15,0,0
57838,-80,4,1,0,15,0,0
66492,-80,4,1,0,15,0,1
68684,-80,4,1,1,15,0,1
68915,-80,4,1,0,15,0,1
72376,-80,4,1,1,15,0,1
72607,-80,4,1,0,15,0,1
81261,-100,4,3,0,15,0,0
110799,-80,4,1,0,15,0,0
125568,-80,4,1,0,15,0,1
127761,-80,4,1,1,15,0,1
127991,-80,4,1,0,15,0,1
131453,-80,4,1,1,15,0,1
131685,-80,4,1,0,15,0,1
133068,-80,4,2,0,5,0,0

[Colours]
Combo1 : 142,142,142
Combo2 : 185,0,0
Combo3 : 32,32,32
Combo4 : 230,115,0

[HitObjects]
321,107,22184,6,0,P|385:131|405:179,2,105,4|0|0,0:0|0:0|0:0,0:0:0:0:
240,132,23107,2,0,L|164:144,1,70,2|2,0:0|0:0,0:0:0:0:
208,212,23569,2,0,L|160:272,1,70,2|2,0:0|0:0,0:0:0:0:
232,304,24030,6,0,P|200:336|136:336,2,105,4|0|0,0:0|0:0|0:0,0:0:0:0:
300,268,24953,2,0,L|376:248,1,70,2|2,0:0|0:0,0:0:0:0:
328,184,25415,2,0,L|372:124,1,70,2|2,0:0|0:0,0:0:0:0:
308,84,25876,5,4,0:0:0:0:
192,76,26223,1,0,0:0:0:0:
132,176,26569,1,0,0:0:0:0:
98,244,26799,2,0,P|69:221|58:189,1,70,2|2,0:0|0:0,0:0:0:0:
207,177,27261,2,0,P|199:213|175:240,1,70,2|2,0:0|0:0,0:0:0:0:
77,119,27723,2,0,P|130:96|174:108,2,105,4|0|0,0:0|0:0|0:0,0:0:0:0:
213,34,28646,5,2,0:0:0:0:
280,71,28876,1,2,0:0:0:0:
349,37,29107,1,2,0:0:0:0:
416,75,29338,1,2,0:0:0:0:
381,143,29569,2,0,L|325:242,1,105,4|0,0:0|0:0,0:0:0:0:
319,248,30030,1,0,0:0:0:0:
214,227,30261,5,0,0:0:0:0:
214,227,30492,2,0,P|180:197|171:163,1,70,2|2,0:0|0:0,0:0:0:0:
202,103,30953,2,0,P|236:133|245:167,1,70,2|2,0:0|0:0,0:0:0:0:
128,109,31415,2,0,P|146:54|192:31,2,105,4|0|0,0:0|0:0|0:0,0:0:0:0:
202,103,32338,6,0,L|277:90,1,70,2|2,0:0|0:0,0:0:0:0:
335,48,32799,1,2,0:0:0:0:
399,90,33030,1,2,0:0:0:0:
385,165,33261,2,0,P|435:160|471:110,2,105,4|0|0,0:0|0:0|0:0,0:0:0:0:
342,229,34184,1,2,0:0:0:0:
266,244,34415,1,2,0:0:0:0:
212,188,34646,1,2,0:0:0:0:
263,131,34876,1,2,0:0:0:0:
311,189,35107,6,0,P|296:227|272:241,1,70,4|0,0:0|0:0,0:0:0:0:
212,188,35569,2,0,P|223:155|251:135,1,70,2|2,0:0|0:0,0:0:0:0:
301,287,36030,2,0,P|241:287|220:265,1,70,2|2,0:0|0:0,0:0:0:0:
211,97,36492,2,0,P|271:97|292:119,1,70,2|2,0:0|0:0,0:0:0:0:
150,330,36953,6,0,P|114:299|98:253,1,87.5
89,166,37415,1,8,0:0:0:0:
146,88,37646,1,0,0:0:0:0:
241,77,37876,2,0,P|284:102|303:140,1,87.5
373,198,38338,2,0,P|396:146|394:111,1,87.5,8|0,0:0|0:0,0:0:0:0:
438,30,38799,6,0,B|478:65|478:65|496:126|481:185,2,175,0|8|0,0:0|0:0|0:0,0:0:0:0:
346,61,39953,1,0,0:0:0:0:
249,87,40184,2,0,B|226:72|226:72|222:62|222:62|199:54,3,43.75,8|0|8|0,0:0|0:0|0:0|0:0,0:0:0:0:
170,45,40646,6,0,P|126:54|95:115,1,87.5
108,181,41107,2,0,P|152:172|183:111,1,87.5,8|0,0:0|0:0,0:0:0:0:
244,211,41569,2,0,L|264:301,1,87.5
357,313,42030,2,0,L|338:227,1,87.5,8|0,0:0|0:0,0:0:0:0:
390,146,42492,1,0,0:0:0:0:
228,42,42953,1,8,0:0:0:0:
60,137,43415,1,0,0:0:0:0:
150,306,43876,6,0,P|192:330|241:331,1,87.5,8|0,0:0|0:0,0:0:0:0:
304,267,44338,1,0,0:0:0:0:
315,171,44569,2,0,L|305:128,2,43.75,0|0|8,0:0|0:0|0:0,0:0:0:0:
387,233,45030,2,0,L|416:195,2,43.75
361,326,45492,1,0,0:0:0:0:
349,338,45607,1,0,0:0:0:0:
333,346,45722,1,8,0:0:0:0:
228,341,45953,5,0,0:0:0:0:
212,333,46068,1,0,0:0:0:0:
200,321,46183,1,0,0:0:0:0:
140,233,46415,2,0,L|96:251,2,43.75,0|0|8,0:0|0:0|0:0,0:0:0:0:
209,153,46876,2,0,L|173:119,2,43.75
304,197,47338,1,0,0:0:0:0:
316,209,47453,1,0,0:0:0:0:
330,219,47569,1,8,0:0:0:0:
431,243,47799,1,0,0:0:0:0:
427,260,47915,1,0,0:0:0:0:
420,276,48030,2,0,P|391:310|343:327,1,87.5
246,323,48492,5,8,0:0:0:0:
149,282,48722,1,0,0:0:0:0:
106,185,48953,2,0,P|156:175|191:183,1,87.5
190,182,49415,1,8,0:0:0:0:
260,104,49646,1,0,0:0:0:0:
359,70,49876,2,0,P|382:113|382:150,1,87.5
414,251,50338,2,0,P|370:255|324:237,1,87.5,8|0,0:0|0:0,0:0:0:0:
239,294,50799,2,0,P|224:248|231:203,1,87.5,8|0,0:0|0:0,0:0:0:0:
222,104,51261,6,8,L|190:64,3,43.75
149,55,51722,2,0,P|101:71|74:109,1,87.5,4|0,0:0|0:0,0:0:0:0:
80,205,52184,1,8,0:0:0:0:
80,205,52415,2,0,P|149:251|234:219,1,175
294,151,53107,2,0,P|325:193|320:247,1,87.5,8|0,0:0|0:0,0:0:0:0:
408,277,53569,1,0,0:0:0:0:
408,277,53799,2,0,P|417:200|378:108,1,175
292,53,54492,5,0,0:0:0:0:
188,40,54722,1,0,0:0:0:0:
106,105,54953,2,0,L|113:157,3,43.75,8|0|8|0,0:0|0:0|0:0|0:0,0:0:0:0:
121,200,55415,2,0,L|177:270,1,87.5
279,251,55876,1,8,0:0:0:0:
244,341,56107,2,0,P|314:342|374:244,1,175
381,159,56799,2,0,P|360:119|313:94,1,87.5,8|0,0:0|0:0,0:0:0:0:
233,148,57261,5,0,0:0:0:0:
233,148,57492,2,0,P|225:64|284:1,1,175
324,97,58184,1,0,0:0:0:0:
114,79,58646,1,8,0:0:0:0:
253,227,59107,6,0,P|268:276|305:303,1,87.5
390,300,59569,2,0,P|374:249|337:223,1,87.5,8|0,0:0|0:0,0:0:0:0:
289,137,60030,2,0,L|386:157,1,87.5
347,61,60492,2,0,L|250:41,1,87.5,8|0,0:0|0:0,0:0:0:0:
289,137,60953,6,0,P|191:109|163:46,2,175,0|8|0,0:0|0:0|0:0,0:0:0:0:
347,61,62107,1,0,0:0:0:0:
415,128,62338,2,0,L|464:150,3,43.75,8|0|8|0,0:0|0:0|0:0|0:0,0:0:0:0:
461,193,62799,2,0,P|467:265|388:343,1,175,0|8,0:0|0:0,0:0:0:0:
317,291,63492,1,0,0:0:0:0:
234,339,63722,2,0,P|173:278|175:193,1,175,0|8,0:0|0:0,0:0:0:0:
146,101,64415,5,0,0:0:0:0:
234,64,64645,2,0,P|283:69|328:93,1,87.5,8|0,0:0|0:0,0:0:0:0:
339,188,65107,2,0,P|289:182|245:159,1,87.5,8|0,0:0|0:0,0:0:0:0:
408,124,65569,2,0,P|429:169|427:211,1,87.5,8|0,0:0|0:0,0:0:0:0:
356,270,66030,5,8,0:0:0:0:
337,281,66145,1,0,0:0:0:0:
316,287,66261,1,8,0:0:0:0:
294,290,66376,1,0,0:0:0:0:
272,290,66492,2,0,P|218:281|181:260,1,87.5,4|0,0:0|0:0,0:0:0:0:
115,191,66953,1,8,0:0:0:0:
123,86,67184,2,0,P|181:22|268:21,1,175
369,23,67876,6,0,P|357:72|331:100,1,87.5,8|0,0:0|0:0,0:0:0:0:
234,136,68338,1,0,0:0:0:0:
234,136,68569,2,0,P|281:203|278:299,1,175
200,361,69261,1,0,0:0:0:0:
96,340,69492,1,0,0:0:0:0:
48,246,69722,2,0,L|63:202,3,43.75,8|0|8|0,0:0|0:0|0:0|0:0,0:0:0:0:
89,159,70184,6,0,L|156:98,1,87.5
255,124,70645,1,8,0:0:0:0:
281,22,70876,2,0,P|347:73|350:168,1,175
315,257,71569,2,0,L|408:231,1,87.5,8|0,0:0|0:0,0:0:0:0:
447,139,72030,1,0,0:0:0:0:
447,139,72261,2,0,P|496:189|487:294,1,175
393,328,72953,5,0,0:0:0:0:
284,147,73415,1,8,0:0:0:0:
155,312,73876,1,0,0:0:0:0:
116,217,74107,2,0,L|67:198,2,43.75,0|0|8,0:0|0:0|0:0,0:0:0:0:
220,203,74569,1,0,0:0:0:0:
240,209,74684,1,0,0:0:0:0:
260,216,74799,1,0,0:0:0:0:
359,210,75030,2,0,L|428:238,2,43.75,0|0|8,0:0|0:0|0:0,0:0:0:0:
381,106,75492,5,0,0:0:0:0:
355,101,75607,1,0,0:0:0:0:
329,106,75722,1,0,0:0:0:0:
359,210,75953,1,0,0:0:0:0:
385,215,76068,1,0,0:0:0:0:
411,210,76184,2,0,P|452:191|477:142,1,87.5,8|0,0:0|0:0,0:0:0:0:
482,131,76530,1,0,0:0:0:0:
482,103,76645,1,0,0:0:0:0:
381,106,76876,6,0,L|406:69,2,43.75,0|0|8,0:0|0:0|0:0,0:0:0:0:
286,152,77338,1,0,0:0:0:0:
273,175,77453,1,0,0:0:0:0:
256,195,77569,2,0,P|224:223|171:227,1,87.5,8|0,0:0|0:0,0:0:0:0:
181,126,78030,1,0,0:0:0:0:
88,176,78261,1,0,0:0:0:0:
88,281,78492,6,0,P|119:317|160:334,1,87.5,8|0,0:0|0:0,0:0:0:0:
240,272,78953,1,0,0:0:0:0:
331,323,79184,1,0,0:0:0:0:
399,243,79415,2,0,P|429:206|439:163,1,87.5,8|0,0:0|0:0,0:0:0:0:
331,156,79876,2,0,P|336:109|320:68,1,87.5,8|0,0:0|0:0,0:0:0:0:
230,124,80338,2,0,P|210:80|176:53,1,87.5,8|0,0:0|0:0,0:0:0:0:
129,147,80799,5,8,0:0:0:0:
121,167,80915,1,0,0:0:0:0:
116,188,81030,1,8,0:0:0:0:
115,209,81145,1,0,0:0:0:0:
117,226,81261,2,0,P|138:280|176:304,2,105,4|0|0,0:0|0:0|0:0,0:0:0:0:
201,222,82184,2,0,P|235:223|274:203,1,70,2|2,0:0|0:0,0:0:0:0:
219,139,82645,2,0,P|243:115|257:73,1,70,2|2,0:0|0:0,0:0:0:0:
221,5,83107,6,0,P|288:4|317:24,2,105
178,77,84030,1,0,0:0:0:0:
248,122,84261,1,0,0:0:0:0:
330,107,84492,1,0,0:0:0:0:
379,39,84722,1,0,0:0:0:0:
435,101,84953,6,0,P|461:50|452:0,2,105,4|0|4,0:0|0:0|0:0,0:0:0:0:
383,167,85876,1,2,0:0:0:0:
417,243,86107,1,2,0:0:0:0:
395,324,86338,1,2,0:0:0:0:
317,355,86569,1,2,0:0:0:0:
233,345,86799,6,0,P|260:290|297:271,2,105,4|0|0,0:0|0:0|0:0,0:0:0:0:
147,334,87722,2,0,L|79:284,1,70,2|2,0:0|0:0,0:0:0:0:
154,237,88184,2,0,L|129:169,1,70,2|2,0:0|0:0,0:0:0:0:
92,96,88645,2,0,B|172:72|207:146|207:146|241:70|324:96,1,280,4|2,0:0|0:0,0:0:0:0:
284,167,89799,2,0,L|259:232,1,70,2|2,0:0|0:0,0:0:0:0:
299,306,90261,1,2,0:0:0:0:
381,324,90492,2,0,P|433:307|462:267,2,105,4|0|0,0:0|0:0|0:0,0:0:0:0:
383,239,91415,2,0,P|385:201|400:172,1,70,2|2,0:0|0:0,0:0:0:0:
471,129,91876,2,0,P|444:66|373:19,1,140,2|4,0:0|0:0,0:0:0:0:
224,64,92799,6,0,P|251:127|322:174,1,140,2|4,0:0|0:0,0:0:0:0:
374,219,93492,1,2,0:0:0:0:
366,302,93722,1,2,0:0:0:0:
290,339,93953,1,2,0:0:0:0:
207,322,94184,2,0,P|188:266|207:218,2,105,4|0|0,0:0|0:0|0:0,0:0:0:0:
272,268,95107,6,0,P|306:266|345:239,1,70,2|2,0:0|0:0,0:0:0:0:
280,185,95568,2,0,P|297:152|298:120,1,70,2|2,0:0|0:0,0:0:0:0:
226,74,96030,1,4,0:0:0:0:
126,253,103415,5,4,0:0:0:0:
167,119,103876,1,0,0:0:0:0:
302,82,104338,2,0,P|367:114|395:174,1,140,8|0,0:0|0:0,0:0:0:0:
343,303,105261,2,0,P|278:271|250:211,1,140,8|0,0:0|0:0,0:0:0:0:
302,82,106184,1,0,0:0:0:0:
441,92,106645,1,0,0:0:0:0:
301,69,107107,6,0,P|232:75|170:114,1,140
158,250,108030,2,0,P|227:244|289:205,1,140
172,111,108953,1,8,0:0:0:0:
117,240,109415,1,8,0:0:0:0:
210,109,109876,5,8,0:0:0:0:
79,242,110338,1,8,0:0:0:0:
258,102,110799,6,0,P|261:157|290:195,1,87.5,4|0,0:0|0:0,0:0:0:0:
375,221,111261,2,0,P|371:165|343:128,1,87.5,8|0,0:0|0:0,0:0:0:0:
294,270,111722,2,0,P|368:316|446:282,2,175,0|8|0,0:0|0:0|0:0,0:0:0:0:
217,197,112876,1,0,0:0:0:0:
207,92,113107,2,0,P|256:98|290:119,1,87.5,8|0,0:0|0:0,0:0:0:0:
114,219,113568,6,0,P|113:181|132:137,1,87.5
217,197,114030,2,0,L|255:221,3,43.75,8|0|8|0,0:0|0:0|0:0|0:0,0:0:0:0:
298,248,114492,2,0,P|317:294|308:332,1,87.5
218,381,114953,1,8,0:0:0:0:
117,349,115184,1,0,0:0:0:0:
77,251,115415,6,0,P|77:165|137:105,1,175,0|8,0:0|0:0,0:0:0:0:
239,126,116107,1,0,0:0:0:0:
337,90,116338,2,0,P|379:74|421:76,1,87.5
480,162,116799,2,0,P|439:178|396:177,1,87.5,8|0,0:0|0:0,0:0:0:0:
291,168,117261,6,0,P|257:201|239:261,1,87.5
296,326,117722,2,0,P|329:292|348:233,1,87.5,8|0,0:0|0:0,0:0:0:0:
291,168,118184,1,0,0:0:0:0:
119,47,118645,6,0,P|83:79|63:135,1,87.5,8|0,0:0|0:0,0:0:0:0:
118,206,119107,2,0,P|153:173|174:118,1,87.5
37,190,119568,1,8,0:0:0:0:
87,282,119799,1,0,0:0:0:0:
184,322,120030,6,0,P|231:321|269:302,1,87.5
338,226,120491,1,8,0:0:0:0:
367,125,120722,1,0,0:0:0:0:
298,44,120953,1,0,0:0:0:0:
193,37,121184,1,0,0:0:0:0:
111,103,121415,5,8,0:0:0:0:
100,122,121530,1,0,0:0:0:0:
96,143,121645,1,8,0:0:0:0:
98,164,121761,1,0,0:0:0:0:
106,184,121876,2,0,P|128:223|166:241,1,87.5
269,223,122338,5,8,0:0:0:0:
359,275,122568,1,0,0:0:0:0:
441,209,122799,2,0,P|463:166|463:126,1,87.5
376,66,123261,2,0,P|354:109|354:149,1,87.5,8|0,0:0|0:0,0:0:0:0:
441,209,123722,1,0,0:0:0:0:
268,89,124184,1,8,0:0:0:0:
191,284,124645,1,0,0:0:0:0:
389,354,125107,6,0,L|407:309,3,43.75,8|0|8|0,0:0|0:0|0:0|0:0,0:0:0:0:
441,276,125568,2,0,P|456:228|447:189,1,87.5,4|0,0:0|0:0,0:0:0:0:
370,117,126030,1,8,0:0:0:0:
265,111,126261,2,0,P|293:194|369:225,1,175
370,117,126953,2,0,P|357:61|339:37,1,87.5,8|0,0:0|0:0,0:0:0:0:
265,111,127415,1,0,0:0:0:0:
265,111,127645,2,0,B|194:147|194:147|192:159|192:159|106:205,1,175
25,249,128338,5,0,0:0:0:0:
113,304,128568,1,0,0:0:0:0:
202,249,128799,1,8,0:0:0:0:
224,262,128915,1,0,0:0:0:0:
248,270,129030,1,8,0:0:0:0:
273,274,129145,1,0,0:0:0:0:
299,274,129261,2,0,P|341:264|381:234,1,87.5
447,316,129722,5,8,0:0:0:0:
469,213,129953,2,0,P|398:146|325:158,1,175
254,80,130645,2,0,L|179:152,1,87.5,8|0,0:0|0:0,0:0:0:0:
145,236,131107,1,0,0:0:0:0:
145,236,131338,2,0,P|93:180|103:85,1,175
190,140,132030,5,0,0:0:0:0:
378,231,132491,1,8,0:0:0:0:
203,348,132953,1,4,0:0:0:0:
256,192,133068,12,0,139876,0:0:0:0:
