osu file format v14

[General]
AudioFilename: audio.mp3
AudioLeadIn: 0
PreviewTime: 36975
Countdown: 0
SampleSet: Soft
StackLeniency: 0.7
Mode: 2
LetterboxInBreaks: 0
WidescreenStoryboard: 0

[Editor]
DistanceSpacing: 0.3
BeatDivisor: 2
GridSize: 4
TimelineZoom: 1.594703

[Metadata]
Title:Another Medium
TitleUnicode:Another Medium
Artist:toby fox
ArtistUnicode:toby fox
Creator:ExGon
Version:DelugeX
Source:Undertale
Tags:radiation hotland waterfall core death by glamour
BeatmapID:1387764
BeatmapSetID:654747

[Difficulty]
HPDrainRate:1.1
CircleSize:5
OverallDifficulty:10
ApproachRate:0
SliderMultiplier:2.56
SliderTickRate:1

[Events]
//Background and Video events
0,0,"bg.png",0,0
//Break Periods
//Storyboard Layer 0 (Background)
//Storyboard Layer 1 (Fail)
//Storyboard Layer 2 (Pass)
//Storyboard Layer 3 (Foreground)
//Storyboard Sound Samples

[TimingPoints]
52,461.538461538462,4,2,0,5,1,0
1898,-100,4,2,0,8,0,0
3282,-100,4,2,0,9,0,0
3744,-100,4,2,0,11,0,0
5128,-100,4,2,0,12,0,0
5590,-100,4,2,0,14,0,0
6975,-100,4,2,0,15,0,0
7436,-100,4,3,0,5,0,0
22205,-100,4,3,0,17,0,0
36282,-100,4,3,0,19,0,0
36513,-100,4,3,0,22,0,0
36744,-100,4,3,0,24,0,0
36975,-100,4,2,0,30,0,1
37003,-100,4,3,0,15,0,1
40205,-100,4,3,0,28,0,1
40667,-100,4,3,0,15,0,1
44359,-100,4,3,0,28,0,1
48513,-80,4,3,0,28,0,1
48975,-100,4,3,0,28,0,1
51744,-100,4,2,0,30,0,0
51975,-100,4,3,0,28,0,0
59244,-100,4,2,0,28,0,0
62475,-100,4,3,0,28,0,0
62936,-100,4,2,0,28,0,0
66052,-100,4,3,0,28,0,0
66513,-100,4,2,0,30,0,0
66744,-100,4,3,0,28,0,0
78052,-80,4,3,0,28,0,0
78513,-100,4,3,0,28,0,0
81282,-100,4,2,0,30,0,0
96052,-100,4,2,0,15,0,0
110821,-100,4,2,0,30,0,1
111052,-100,4,2,0,28,0,1
114167,-100,4,3,0,28,0,1
114744,-100,4,2,0,28,0,1
121552,-100,4,3,0,28,0,1
125590,-57.1428571428571,4,2,0,30,0,0
125821,-100,4,3,0,28,0,0
126975,-57.1428571428571,4,3,0,28,0,0
127205,-100,4,3,0,28,0,0
132975,-100,4,3,0,5,0,0

[HitObjects]
304,192,52,5,0,0:0:0:0:
288,192,167,5,0,0:0:0:0:
256,192,282,5,0,0:0:0:0:
224,192,398,5,0,0:0:0:0:
208,192,513,5,0,0:0:0:0:
224,192,628,5,0,0:0:0:0:
288,192,744,5,0,0:0:0:0:
304,192,859,5,0,0:0:0:0:
256,192,975,5,0,0:0:0:0:
256,192,1090,5,0,0:0:0:0:
208,192,1205,5,0,0:0:0:0:
192,192,1321,5,0,0:0:0:0:
304,192,1436,5,0,0:0:0:0:
320,192,1552,5,0,0:0:0:0:
256,192,1667,5,0,0:0:0:0:
256,192,1782,5,0,0:0:0:0:
208,192,1898,5,0,0:0:0:0:
192,192,2013,5,0,0:0:0:0:
304,192,2128,5,0,0:0:0:0:
320,192,2244,5,0,0:0:0:0:
256,192,2359,5,0,0:0:0:0:
256,192,2475,5,0,0:0:0:0:
208,192,2590,5,0,0:0:0:0:
192,192,2705,5,0,0:0:0:0:
304,192,2821,5,0,0:0:0:0:
320,192,2936,5,0,0:0:0:0:
256,192,3052,5,0,0:0:0:0:
256,192,3167,5,0,0:0:0:0:
192,192,3282,5,0,0:0:0:0:
176,192,3398,5,0,0:0:0:0:
320,192,3513,5,0,0:0:0:0:
336,192,3628,5,0,0:0:0:0:
320,192,3744,5,0,0:0:0:0:
352,192,3859,5,0,0:0:0:0:
256,192,3975,5,0,0:0:0:0:
256,192,4090,5,0,0:0:0:0:
192,192,4205,5,0,0:0:0:0:
160,192,4321,5,0,0:0:0:0:
352,192,4436,5,0,0:0:0:0:
336,192,4552,5,0,0:0:0:0:
256,192,4667,5,0,0:0:0:0:
256,192,4782,5,0,0:0:0:0:
160,192,4898,5,0,0:0:0:0:
176,192,5013,5,0,0:0:0:0:
336,192,5128,5,0,0:0:0:0:
352,192,5244,5,0,0:0:0:0:
256,192,5359,5,0,0:0:0:0:
256,192,5475,5,0,0:0:0:0:
176,192,5590,5,0,0:0:0:0:
160,192,5705,5,0,0:0:0:0:
368,192,5821,5,0,0:0:0:0:
336,192,5936,5,0,0:0:0:0:
256,192,6052,5,0,0:0:0:0:
256,192,6167,5,0,0:0:0:0:
144,192,6282,5,0,0:0:0:0:
176,192,6398,5,0,0:0:0:0:
384,192,6513,5,0,0:0:0:0:
320,192,6628,5,0,0:0:0:0:
128,192,6744,5,0,0:0:0:0:
192,192,6859,5,0,0:0:0:0:
144,192,6975,5,0,0:0:0:0:
176,192,7090,5,0,0:0:0:0:
368,192,7205,5,0,0:0:0:0:
336,192,7321,5,0,0:0:0:0:
256,192,7436,12,0,22205,0:0:0:0:
264,0,7436,5,0,0:0:0:0:
248,0,7465,5,0,0:0:0:0:
264,0,7494,5,0,0:0:0:0:
248,0,7523,5,0,0:0:0:0:
264,0,7552,5,0,0:0:0:0:
248,0,7580,5,0,0:0:0:0:
264,0,7609,5,0,0:0:0:0:
248,0,7638,5,0,0:0:0:0:
264,0,7667,5,0,0:0:0:0:
248,0,7696,5,0,0:0:0:0:
264,0,7725,5,0,0:0:0:0:
248,0,7753,5,0,0:0:0:0:
264,0,7782,5,0,0:0:0:0:
248,0,7811,5,0,0:0:0:0:
264,0,7840,5,0,0:0:0:0:
248,0,7869,5,0,0:0:0:0:
264,0,7898,5,0,0:0:0:0:
248,0,7927,5,0,0:0:0:0:
264,0,7955,5,0,0:0:0:0:
248,0,7984,5,0,0:0:0:0:
264,0,8013,5,0,0:0:0:0:
248,0,8042,5,0,0:0:0:0:
264,0,8071,5,0,0:0:0:0:
248,0,8100,5,0,0:0:0:0:
264,0,8128,5,0,0:0:0:0:
248,0,8157,5,0,0:0:0:0:
264,0,8186,5,0,0:0:0:0:
248,0,8215,5,0,0:0:0:0:
264,0,8244,5,0,0:0:0:0:
248,0,8273,5,0,0:0:0:0:
264,0,8302,5,0,0:0:0:0:
248,0,8330,5,0,0:0:0:0:
264,0,8359,5,0,0:0:0:0:
248,0,8388,5,0,0:0:0:0:
264,0,8417,5,0,0:0:0:0:
248,0,8446,5,0,0:0:0:0:
264,0,8475,5,0,0:0:0:0:
248,0,8503,5,0,0:0:0:0:
264,0,8532,5,0,0:0:0:0:
248,0,8561,5,0,0:0:0:0:
264,0,8590,5,0,0:0:0:0:
248,0,8619,5,0,0:0:0:0:
264,0,8648,5,0,0:0:0:0:
248,0,8677,5,0,0:0:0:0:
264,0,8705,5,0,0:0:0:0:
248,0,8734,5,0,0:0:0:0:
264,0,8763,5,0,0:0:0:0:
248,0,8792,5,0,0:0:0:0:
264,0,8821,5,0,0:0:0:0:
248,0,8850,5,0,0:0:0:0:
264,0,8878,5,0,0:0:0:0:
248,0,8907,5,0,0:0:0:0:
264,0,8936,5,0,0:0:0:0:
248,0,8965,5,0,0:0:0:0:
264,0,8994,5,0,0:0:0:0:
248,0,9023,5,0,0:0:0:0:
264,0,9052,5,0,0:0:0:0:
248,0,9080,5,0,0:0:0:0:
264,0,9109,5,0,0:0:0:0:
248,0,9138,5,0,0:0:0:0:
264,0,9167,5,0,0:0:0:0:
248,0,9196,5,0,0:0:0:0:
264,0,9225,5,0,0:0:0:0:
248,0,9253,5,0,0:0:0:0:
264,0,9282,5,0,0:0:0:0:
248,0,9311,5,0,0:0:0:0:
264,0,9340,5,0,0:0:0:0:
248,0,9369,5,0,0:0:0:0:
264,0,9398,5,0,0:0:0:0:
248,0,9427,5,0,0:0:0:0:
264,0,9455,5,0,0:0:0:0:
248,0,9484,5,0,0:0:0:0:
264,0,9513,5,0,0:0:0:0:
248,0,9542,5,0,0:0:0:0:
264,0,9571,5,0,0:0:0:0:
248,0,9600,5,0,0:0:0:0:
264,0,9628,5,0,0:0:0:0:
248,0,9657,5,0,0:0:0:0:
264,0,9686,5,0,0:0:0:0:
248,0,9715,5,0,0:0:0:0:
264,0,9744,5,0,0:0:0:0:
248,0,9773,5,0,0:0:0:0:
264,0,9802,5,0,0:0:0:0:
248,0,9830,5,0,0:0:0:0:
264,0,9859,5,0,0:0:0:0:
248,0,9888,5,0,0:0:0:0:
264,0,9917,5,0,0:0:0:0:
248,0,9946,5,0,0:0:0:0:
264,0,9975,5,0,0:0:0:0:
248,0,10003,5,0,0:0:0:0:
264,0,10032,5,0,0:0:0:0:
248,0,10061,5,0,0:0:0:0:
264,0,10090,5,0,0:0:0:0:
248,0,10119,5,0,0:0:0:0:
264,0,10148,5,0,0:0:0:0:
248,0,10177,5,0,0:0:0:0:
264,0,10205,5,0,0:0:0:0:
248,0,10234,5,0,0:0:0:0:
264,0,10263,5,0,0:0:0:0:
248,0,10292,5,0,0:0:0:0:
264,0,10321,5,0,0:0:0:0:
248,0,10350,5,0,0:0:0:0:
264,0,10378,5,0,0:0:0:0:
248,0,10407,5,0,0:0:0:0:
264,0,10436,5,0,0:0:0:0:
248,0,10465,5,0,0:0:0:0:
264,0,10494,5,0,0:0:0:0:
248,0,10523,5,0,0:0:0:0:
264,0,10552,5,0,0:0:0:0:
248,0,10580,5,0,0:0:0:0:
264,0,10609,5,0,0:0:0:0:
248,0,10638,5,0,0:0:0:0:
264,0,10667,5,0,0:0:0:0:
248,0,10696,5,0,0:0:0:0:
264,0,10725,5,0,0:0:0:0:
248,0,10753,5,0,0:0:0:0:
264,0,10782,5,0,0:0:0:0:
248,0,10811,5,0,0:0:0:0:
264,0,10840,5,0,0:0:0:0:
248,0,10869,5,0,0:0:0:0:
264,0,10898,5,0,0:0:0:0:
248,0,10927,5,0,0:0:0:0:
264,0,10955,5,0,0:0:0:0:
248,0,10984,5,0,0:0:0:0:
264,0,11013,5,0,0:0:0:0:
248,0,11042,5,0,0:0:0:0:
264,0,11071,5,0,0:0:0:0:
248,0,11100,5,0,0:0:0:0:
272,192,11128,5,0,0:0:0:0:
240,192,11157,5,0,0:0:0:0:
272,192,11186,5,0,0:0:0:0:
240,192,11215,5,0,0:0:0:0:
272,192,11244,5,0,0:0:0:0:
240,192,11273,5,0,0:0:0:0:
272,192,11302,5,0,0:0:0:0:
240,192,11330,5,0,0:0:0:0:
272,192,11359,5,0,0:0:0:0:
240,192,11388,5,0,0:0:0:0:
272,192,11417,5,0,0:0:0:0:
240,192,11446,5,0,0:0:0:0:
272,192,11475,5,0,0:0:0:0:
240,192,11503,5,0,0:0:0:0:
272,192,11532,5,0,0:0:0:0:
240,192,11561,5,0,0:0:0:0:
272,192,11590,5,0,0:0:0:0:
240,192,11619,5,0,0:0:0:0:
272,192,11648,5,0,0:0:0:0:
240,192,11677,5,0,0:0:0:0:
272,192,11705,5,0,0:0:0:0:
240,192,11734,5,0,0:0:0:0:
272,192,11763,5,0,0:0:0:0:
240,192,11792,5,0,0:0:0:0:
272,192,11821,5,0,0:0:0:0:
240,192,11850,5,0,0:0:0:0:
272,192,11878,5,0,0:0:0:0:
240,192,11907,5,0,0:0:0:0:
272,192,11936,5,0,0:0:0:0:
240,192,11965,5,0,0:0:0:0:
272,192,11994,5,0,0:0:0:0:
240,192,12023,5,0,0:0:0:0:
272,192,12052,5,0,0:0:0:0:
240,192,12080,5,0,0:0:0:0:
272,192,12109,5,0,0:0:0:0:
240,192,12138,5,0,0:0:0:0:
272,192,12167,5,0,0:0:0:0:
240,192,12196,5,0,0:0:0:0:
272,192,12225,5,0,0:0:0:0:
240,192,12253,5,0,0:0:0:0:
272,192,12282,5,0,0:0:0:0:
240,192,12311,5,0,0:0:0:0:
272,192,12340,5,0,0:0:0:0:
240,192,12369,5,0,0:0:0:0:
272,192,12398,5,0,0:0:0:0:
240,192,12427,5,0,0:0:0:0:
272,192,12455,5,0,0:0:0:0:
240,192,12484,5,0,0:0:0:0:
272,192,12513,5,0,0:0:0:0:
240,192,12542,5,0,0:0:0:0:
272,192,12571,5,0,0:0:0:0:
240,192,12600,5,0,0:0:0:0:
272,192,12628,5,0,0:0:0:0:
240,192,12657,5,0,0:0:0:0:
272,192,12686,5,0,0:0:0:0:
240,192,12715,5,0,0:0:0:0:
272,192,12744,5,0,0:0:0:0:
240,192,12773,5,0,0:0:0:0:
272,192,12802,5,0,0:0:0:0:
240,192,12830,5,0,0:0:0:0:
272,192,12859,5,0,0:0:0:0:
240,192,12888,5,0,0:0:0:0:
272,192,12917,5,0,0:0:0:0:
240,192,12946,5,0,0:0:0:0:
280,384,12975,5,0,0:0:0:0:
232,384,13003,5,0,0:0:0:0:
280,384,13032,5,0,0:0:0:0:
232,384,13061,5,0,0:0:0:0:
280,384,13090,5,0,0:0:0:0:
232,384,13119,5,0,0:0:0:0:
280,384,13148,5,0,0:0:0:0:
232,384,13177,5,0,0:0:0:0:
280,384,13205,5,0,0:0:0:0:
232,384,13234,5,0,0:0:0:0:
280,384,13263,5,0,0:0:0:0:
232,384,13292,5,0,0:0:0:0:
280,384,13321,5,0,0:0:0:0:
232,384,13350,5,0,0:0:0:0:
280,384,13378,5,0,0:0:0:0:
232,384,13407,5,0,0:0:0:0:
280,384,13436,5,0,0:0:0:0:
232,384,13465,5,0,0:0:0:0:
280,384,13494,5,0,0:0:0:0:
232,384,13523,5,0,0:0:0:0:
280,384,13552,5,0,0:0:0:0:
232,384,13580,5,0,0:0:0:0:
280,384,13609,5,0,0:0:0:0:
232,384,13638,5,0,0:0:0:0:
280,384,13667,5,0,0:0:0:0:
232,384,13696,5,0,0:0:0:0:
280,384,13725,5,0,0:0:0:0:
232,384,13753,5,0,0:0:0:0:
280,384,13782,5,0,0:0:0:0:
232,384,13811,5,0,0:0:0:0:
280,384,13840,5,0,0:0:0:0:
232,384,13869,5,0,0:0:0:0:
280,384,13898,5,0,0:0:0:0:
232,384,13927,5,0,0:0:0:0:
280,384,13955,5,0,0:0:0:0:
232,384,13984,5,0,0:0:0:0:
280,384,14013,5,0,0:0:0:0:
232,384,14042,5,0,0:0:0:0:
280,384,14071,5,0,0:0:0:0:
232,384,14100,5,0,0:0:0:0:
280,384,14128,5,0,0:0:0:0:
232,384,14157,5,0,0:0:0:0:
280,384,14186,5,0,0:0:0:0:
232,384,14215,5,0,0:0:0:0:
280,384,14244,5,0,0:0:0:0:
232,384,14273,5,0,0:0:0:0:
280,384,14302,5,0,0:0:0:0:
232,384,14330,5,0,0:0:0:0:
280,384,14359,5,0,0:0:0:0:
232,384,14388,5,0,0:0:0:0:
280,384,14417,5,0,0:0:0:0:
232,384,14446,5,0,0:0:0:0:
280,384,14475,5,0,0:0:0:0:
232,384,14503,5,0,0:0:0:0:
280,384,14532,5,0,0:0:0:0:
232,384,14561,5,0,0:0:0:0:
280,384,14590,5,0,0:0:0:0:
232,384,14619,5,0,0:0:0:0:
280,384,14648,5,0,0:0:0:0:
232,384,14677,5,0,0:0:0:0:
280,384,14705,5,0,0:0:0:0:
232,384,14734,5,0,0:0:0:0:
280,384,14763,5,0,0:0:0:0:
232,384,14792,5,0,0:0:0:0:
268,96,14821,5,0,0:0:0:0:
244,96,14850,5,0,0:0:0:0:
268,96,14878,5,0,0:0:0:0:
244,96,14907,5,0,0:0:0:0:
268,96,14936,5,0,0:0:0:0:
244,96,14965,5,0,0:0:0:0:
268,96,14994,5,0,0:0:0:0:
244,96,15023,5,0,0:0:0:0:
268,96,15052,5,0,0:0:0:0:
244,96,15080,5,0,0:0:0:0:
268,96,15109,5,0,0:0:0:0:
244,96,15138,5,0,0:0:0:0:
268,96,15167,5,0,0:0:0:0:
244,96,15196,5,0,0:0:0:0:
268,96,15225,5,0,0:0:0:0:
244,96,15253,5,0,0:0:0:0:
268,96,15282,5,0,0:0:0:0:
244,96,15311,5,0,0:0:0:0:
268,96,15340,5,0,0:0:0:0:
244,96,15369,5,0,0:0:0:0:
268,96,15398,5,0,0:0:0:0:
244,96,15427,5,0,0:0:0:0:
268,96,15455,5,0,0:0:0:0:
244,96,15484,5,0,0:0:0:0:
268,96,15513,5,0,0:0:0:0:
244,96,15542,5,0,0:0:0:0:
268,96,15571,5,0,0:0:0:0:
244,96,15600,5,0,0:0:0:0:
268,96,15628,5,0,0:0:0:0:
244,96,15657,5,0,0:0:0:0:
268,96,15686,5,0,0:0:0:0:
244,96,15715,5,0,0:0:0:0:
268,96,15744,5,0,0:0:0:0:
244,96,15773,5,0,0:0:0:0:
268,96,15802,5,0,0:0:0:0:
244,96,15830,5,0,0:0:0:0:
268,96,15859,5,0,0:0:0:0:
244,96,15888,5,0,0:0:0:0:
268,96,15917,5,0,0:0:0:0:
244,96,15946,5,0,0:0:0:0:
268,96,15975,5,0,0:0:0:0:
244,96,16003,5,0,0:0:0:0:
268,96,16032,5,0,0:0:0:0:
244,96,16061,5,0,0:0:0:0:
268,96,16090,5,0,0:0:0:0:
244,96,16119,5,0,0:0:0:0:
268,96,16148,5,0,0:0:0:0:
244,96,16177,5,0,0:0:0:0:
268,96,16205,5,0,0:0:0:0:
244,96,16234,5,0,0:0:0:0:
268,96,16263,5,0,0:0:0:0:
244,96,16292,5,0,0:0:0:0:
268,96,16321,5,0,0:0:0:0:
244,96,16350,5,0,0:0:0:0:
268,96,16378,5,0,0:0:0:0:
244,96,16407,5,0,0:0:0:0:
268,96,16436,5,0,0:0:0:0:
244,96,16465,5,0,0:0:0:0:
268,96,16494,5,0,0:0:0:0:
244,96,16523,5,0,0:0:0:0:
268,96,16552,5,0,0:0:0:0:
244,96,16580,5,0,0:0:0:0:
268,96,16609,5,0,0:0:0:0:
244,96,16638,5,0,0:0:0:0:
268,96,16667,5,0,0:0:0:0:
244,96,16696,5,0,0:0:0:0:
268,96,16725,5,0,0:0:0:0:
244,96,16753,5,0,0:0:0:0:
268,96,16782,5,0,0:0:0:0:
244,96,16811,5,0,0:0:0:0:
268,96,16840,5,0,0:0:0:0:
244,96,16869,5,0,0:0:0:0:
268,96,16898,5,0,0:0:0:0:
244,96,16927,5,0,0:0:0:0:
268,96,16955,5,0,0:0:0:0:
244,96,16984,5,0,0:0:0:0:
268,96,17013,5,0,0:0:0:0:
244,96,17042,5,0,0:0:0:0:
268,96,17071,5,0,0:0:0:0:
244,96,17100,5,0,0:0:0:0:
268,96,17128,5,0,0:0:0:0:
244,96,17157,5,0,0:0:0:0:
268,96,17186,5,0,0:0:0:0:
244,96,17215,5,0,0:0:0:0:
268,96,17244,5,0,0:0:0:0:
244,96,17273,5,0,0:0:0:0:
268,96,17302,5,0,0:0:0:0:
244,96,17330,5,0,0:0:0:0:
268,96,17359,5,0,0:0:0:0:
244,96,17388,5,0,0:0:0:0:
268,96,17417,5,0,0:0:0:0:
244,96,17446,5,0,0:0:0:0:
268,96,17475,5,0,0:0:0:0:
244,96,17503,5,0,0:0:0:0:
268,96,17532,5,0,0:0:0:0:
244,96,17561,5,0,0:0:0:0:
268,96,17590,5,0,0:0:0:0:
244,96,17619,5,0,0:0:0:0:
268,96,17648,5,0,0:0:0:0:
244,96,17677,5,0,0:0:0:0:
268,96,17705,5,0,0:0:0:0:
244,96,17734,5,0,0:0:0:0:
268,96,17763,5,0,0:0:0:0:
244,96,17792,5,0,0:0:0:0:
268,96,17821,5,0,0:0:0:0:
244,96,17850,5,0,0:0:0:0:
268,96,17878,5,0,0:0:0:0:
244,96,17907,5,0,0:0:0:0:
268,96,17936,5,0,0:0:0:0:
244,96,17965,5,0,0:0:0:0:
268,96,17994,5,0,0:0:0:0:
244,96,18023,5,0,0:0:0:0:
260,48,18052,5,0,0:0:0:0:
252,48,18080,5,0,0:0:0:0:
260,48,18109,5,0,0:0:0:0:
252,48,18138,5,0,0:0:0:0:
260,48,18167,5,0,0:0:0:0:
252,48,18196,5,0,0:0:0:0:
260,48,18225,5,0,0:0:0:0:
252,48,18253,5,0,0:0:0:0:
260,48,18282,5,0,0:0:0:0:
252,48,18311,5,0,0:0:0:0:
260,48,18340,5,0,0:0:0:0:
252,48,18369,5,0,0:0:0:0:
260,48,18398,5,0,0:0:0:0:
252,48,18427,5,0,0:0:0:0:
260,48,18455,5,0,0:0:0:0:
252,48,18484,5,0,0:0:0:0:
268,96,18513,5,0,0:0:0:0:
244,96,18542,5,0,0:0:0:0:
268,96,18571,5,0,0:0:0:0:
244,96,18600,5,0,0:0:0:0:
268,96,18628,5,0,0:0:0:0:
244,96,18657,5,0,0:0:0:0:
268,96,18686,5,0,0:0:0:0:
244,96,18715,5,0,0:0:0:0:
268,96,18744,5,0,0:0:0:0:
244,96,18773,5,0,0:0:0:0:
268,96,18802,5,0,0:0:0:0:
244,96,18830,5,0,0:0:0:0:
268,96,18859,5,0,0:0:0:0:
244,96,18888,5,0,0:0:0:0:
268,96,18917,5,0,0:0:0:0:
244,96,18946,5,0,0:0:0:0:
268,96,18975,5,0,0:0:0:0:
244,96,19003,5,0,0:0:0:0:
268,96,19032,5,0,0:0:0:0:
244,96,19061,5,0,0:0:0:0:
268,96,19090,5,0,0:0:0:0:
244,96,19119,5,0,0:0:0:0:
268,96,19148,5,0,0:0:0:0:
244,96,19177,5,0,0:0:0:0:
268,96,19205,5,0,0:0:0:0:
244,96,19234,5,0,0:0:0:0:
268,96,19263,5,0,0:0:0:0:
244,96,19292,5,0,0:0:0:0:
268,96,19321,5,0,0:0:0:0:
244,96,19350,5,0,0:0:0:0:
268,96,19378,5,0,0:0:0:0:
244,96,19407,5,0,0:0:0:0:
268,96,19436,5,0,0:0:0:0:
244,96,19465,5,0,0:0:0:0:
268,96,19494,5,0,0:0:0:0:
244,96,19523,5,0,0:0:0:0:
268,96,19552,5,0,0:0:0:0:
244,96,19580,5,0,0:0:0:0:
268,96,19609,5,0,0:0:0:0:
244,96,19638,5,0,0:0:0:0:
268,96,19667,5,0,0:0:0:0:
244,96,19696,5,0,0:0:0:0:
268,96,19725,5,0,0:0:0:0:
244,96,19753,5,0,0:0:0:0:
268,96,19782,5,0,0:0:0:0:
244,96,19811,5,0,0:0:0:0:
268,96,19840,5,0,0:0:0:0:
244,96,19869,5,0,0:0:0:0:
268,96,19898,5,0,0:0:0:0:
244,96,19927,5,0,0:0:0:0:
268,96,19955,5,0,0:0:0:0:
244,96,19984,5,0,0:0:0:0:
268,96,20013,5,0,0:0:0:0:
244,96,20042,5,0,0:0:0:0:
268,96,20071,5,0,0:0:0:0:
244,96,20100,5,0,0:0:0:0:
268,96,20128,5,0,0:0:0:0:
244,96,20157,5,0,0:0:0:0:
268,96,20186,5,0,0:0:0:0:
244,96,20215,5,0,0:0:0:0:
268,96,20244,5,0,0:0:0:0:
244,96,20273,5,0,0:0:0:0:
268,96,20302,5,0,0:0:0:0:
244,96,20330,5,0,0:0:0:0:
268,96,20359,5,0,0:0:0:0:
244,96,20388,5,0,0:0:0:0:
268,96,20417,5,0,0:0:0:0:
244,96,20446,5,0,0:0:0:0:
268,96,20475,5,0,0:0:0:0:
244,96,20503,5,0,0:0:0:0:
268,96,20532,5,0,0:0:0:0:
244,96,20561,5,0,0:0:0:0:
268,96,20590,5,0,0:0:0:0:
244,96,20619,5,0,0:0:0:0:
268,96,20648,5,0,0:0:0:0:
244,96,20677,5,0,0:0:0:0:
268,96,20705,5,0,0:0:0:0:
244,96,20734,5,0,0:0:0:0:
268,96,20763,5,0,0:0:0:0:
244,96,20792,5,0,0:0:0:0:
260,48,20821,5,0,0:0:0:0:
252,48,20850,5,0,0:0:0:0:
260,48,20878,5,0,0:0:0:0:
252,48,20907,5,0,0:0:0:0:
260,48,20936,5,0,0:0:0:0:
252,48,20965,5,0,0:0:0:0:
260,48,20994,5,0,0:0:0:0:
252,48,21023,5,0,0:0:0:0:
260,48,21052,5,0,0:0:0:0:
252,48,21080,5,0,0:0:0:0:
260,48,21109,5,0,0:0:0:0:
252,48,21138,5,0,0:0:0:0:
260,48,21167,5,0,0:0:0:0:
252,48,21196,5,0,0:0:0:0:
260,48,21225,5,0,0:0:0:0:
252,48,21253,5,0,0:0:0:0:
268,96,21282,5,0,0:0:0:0:
244,96,21311,5,0,0:0:0:0:
268,96,21340,5,0,0:0:0:0:
244,96,21369,5,0,0:0:0:0:
268,96,21398,5,0,0:0:0:0:
244,96,21427,5,0,0:0:0:0:
268,96,21455,5,0,0:0:0:0:
244,96,21484,5,0,0:0:0:0:
268,96,21513,5,0,0:0:0:0:
244,96,21542,5,0,0:0:0:0:
268,96,21571,5,0,0:0:0:0:
244,96,21600,5,0,0:0:0:0:
268,96,21628,5,0,0:0:0:0:
244,96,21657,5,0,0:0:0:0:
268,96,21686,5,0,0:0:0:0:
244,96,21715,5,0,0:0:0:0:
280,384,21744,5,0,0:0:0:0:
232,384,21773,5,0,0:0:0:0:
280,384,21802,5,0,0:0:0:0:
232,384,21830,5,0,0:0:0:0:
280,384,21859,5,0,0:0:0:0:
232,384,21888,5,0,0:0:0:0:
280,384,21917,5,0,0:0:0:0:
232,384,21946,5,0,0:0:0:0:
280,384,21975,5,0,0:0:0:0:
232,384,22003,5,0,0:0:0:0:
280,384,22032,5,0,0:0:0:0:
232,384,22061,5,0,0:0:0:0:
280,384,22090,5,0,0:0:0:0:
232,384,22119,5,0,0:0:0:0:
280,384,22148,5,0,0:0:0:0:
232,384,22177,5,0,0:0:0:0:
256,192,22205,5,0,0:0:0:0:
256,192,22552,5,0,2:0:0:0:
512,192,23128,5,2,0:0:0:0:
480,192,23359,5,0,0:0:0:0:
512,192,23590,5,0,0:0:0:0:
192,192,24052,5,0,0:0:0:0:
192,192,24398,5,0,2:0:0:0:
512,192,24975,5,2,0:0:0:0:
448,192,25205,5,0,0:0:0:0:
512,192,25436,5,0,0:0:0:0:
128,192,25898,5,0,0:0:0:0:
128,192,26244,5,0,2:0:0:0:
512,192,26821,5,2,0:0:0:0:
416,192,27052,5,0,0:0:0:0:
512,192,27282,5,0,0:0:0:0:
64,192,27744,5,0,0:0:0:0:
64,192,28090,5,0,2:0:0:0:
512,192,28667,5,2,0:0:0:0:
384,192,28898,5,0,0:0:0:0:
512,192,29128,5,0,0:0:0:0:
0,192,29590,6,0,B|0:64|0:64|64:64,1,192,0|0,0:0|2:0,0:0:0:0:
256,192,30513,5,2,0:0:0:0:
416,192,30744,5,0,0:0:0:0:
512,192,30975,5,0,0:0:0:0:
0,192,31436,6,0,B|0:96|0:96|96:96,1,192,0|0,0:0|2:0,0:0:0:0:
256,192,32359,5,2,0:0:0:0:
384,192,32590,5,0,0:0:0:0:
512,192,32821,5,0,0:0:0:0:
0,192,33282,6,0,B|0:128|0:128|128:128,1,192,0|0,0:0|2:0,0:0:0:0:
256,192,34205,5,2,0:0:0:0:
352,192,34436,5,0,0:0:0:0:
512,192,34667,5,0,0:0:0:0:
0,192,35128,6,0,B|0:160|0:160|160:160,1,192,0|0,0:0|2:0,0:0:0:0:
256,192,36052,5,2,0:0:0:0:
416,192,36282,5,2,0:0:0:0:
256,192,36513,5,2,0:0:0:0:
480,192,36744,5,2,0:0:0:0:
256,192,36975,5,4,0:2:0:0:
256,192,37003,5,0,0:0:0:0:
256,192,37032,5,0,0:0:0:0:
256,192,37061,5,0,0:0:0:0:
256,192,37090,5,0,0:0:0:0:
256,192,37119,5,0,0:0:0:0:
256,192,37148,5,0,0:0:0:0:
256,192,37177,5,0,0:0:0:0:
256,192,37205,5,0,0:0:0:0:
144,192,37436,5,0,0:0:0:0:
144,192,37465,5,0,0:0:0:0:
144,192,37494,5,0,0:0:0:0:
144,192,37523,5,0,0:0:0:0:
144,192,37552,5,0,0:0:0:0:
144,192,37580,5,0,0:0:0:0:
144,192,37609,5,0,0:0:0:0:
144,192,37638,5,0,0:0:0:0:
144,192,37667,5,0,0:0:0:0:
32,192,37898,5,0,0:0:0:0:
32,192,37927,5,0,0:0:0:0:
32,192,37955,5,0,0:0:0:0:
32,192,37984,5,0,0:0:0:0:
32,192,38013,5,0,0:0:0:0:
32,192,38042,5,0,0:0:0:0:
32,192,38071,5,0,0:0:0:0:
32,192,38100,5,0,0:0:0:0:
32,192,38128,5,0,0:0:0:0:
144,192,38359,5,0,0:0:0:0:
144,192,38388,5,0,0:0:0:0:
144,192,38417,5,0,0:0:0:0:
144,192,38446,5,0,0:0:0:0:
144,192,38475,5,0,0:0:0:0:
144,192,38503,5,0,0:0:0:0:
144,192,38532,5,0,0:0:0:0:
144,192,38561,5,0,0:0:0:0:
144,192,38590,5,0,0:0:0:0:
256,192,38821,5,0,0:0:0:0:
256,192,38850,5,0,0:0:0:0:
256,192,38878,5,0,0:0:0:0:
256,192,38907,5,0,0:0:0:0:
256,192,38936,5,0,0:0:0:0:
256,192,38965,5,0,0:0:0:0:
256,192,38994,5,0,0:0:0:0:
256,192,39023,5,0,0:0:0:0:
256,192,39052,5,0,0:0:0:0:
32,192,39282,5,0,0:0:0:0:
32,192,39311,5,0,0:0:0:0:
32,192,39340,5,0,0:0:0:0:
32,192,39369,5,0,0:0:0:0:
32,192,39398,5,0,0:0:0:0:
32,192,39427,5,0,0:0:0:0:
32,192,39455,5,0,0:0:0:0:
32,192,39484,5,0,0:0:0:0:
32,192,39513,5,0,0:0:0:0:
256,192,39744,5,0,0:0:0:0:
256,192,39773,5,0,0:0:0:0:
256,192,39802,5,0,0:0:0:0:
256,192,39830,5,0,0:0:0:0:
256,192,39859,5,0,0:0:0:0:
256,192,39888,5,0,0:0:0:0:
256,192,39917,5,0,0:0:0:0:
256,192,39946,5,0,0:0:0:0:
256,192,39975,5,0,0:0:0:0:
480,192,40205,5,0,0:0:0:0:
384,192,40321,5,0,0:0:0:0:
480,192,40436,5,0,0:0:0:0:
384,192,40552,5,0,0:0:0:0:
480,192,40667,5,0,0:0:0:0:
464,192,40696,5,0,0:0:0:0:
448,192,40725,5,0,0:0:0:0:
432,192,40753,5,0,0:0:0:0:
416,192,40782,5,0,0:0:0:0:
400,192,40811,5,0,0:0:0:0:
384,192,40840,5,0,0:0:0:0:
368,192,40869,5,0,0:0:0:0:
352,192,40898,5,0,0:0:0:0:
256,192,41128,5,0,0:0:0:0:
272,192,41157,5,0,0:0:0:0:
288,192,41186,5,0,0:0:0:0:
304,192,41215,5,0,0:0:0:0:
320,192,41244,5,0,0:0:0:0:
336,192,41273,5,0,0:0:0:0:
352,192,41302,5,0,0:0:0:0:
368,192,41330,5,0,0:0:0:0:
384,192,41359,5,0,0:0:0:0:
256,192,41590,5,0,0:0:0:0:
240,192,41619,5,0,0:0:0:0:
224,192,41648,5,0,0:0:0:0:
208,192,41677,5,0,0:0:0:0:
192,192,41705,5,0,0:0:0:0:
176,192,41734,5,0,0:0:0:0:
160,192,41763,5,0,0:0:0:0:
144,192,41792,5,0,0:0:0:0:
128,192,41821,5,0,0:0:0:0:
32,192,42052,5,0,0:0:0:0:
48,192,42080,5,0,0:0:0:0:
64,192,42109,5,0,0:0:0:0:
80,192,42138,5,0,0:0:0:0:
96,192,42167,5,0,0:0:0:0:
112,192,42196,5,0,0:0:0:0:
128,192,42225,5,0,0:0:0:0:
144,192,42253,5,0,0:0:0:0:
160,192,42282,5,0,0:0:0:0:
32,192,42513,5,0,0:0:0:0:
59,192,42542,5,0,0:0:0:0:
87,192,42571,5,0,0:0:0:0:
115,192,42600,5,0,0:0:0:0:
143,192,42628,5,0,0:0:0:0:
171,192,42657,5,0,0:0:0:0:
199,192,42686,5,0,0:0:0:0:
227,192,42715,5,0,0:0:0:0:
255,192,42744,5,0,0:0:0:0:
256,192,42975,5,0,0:0:0:0:
229,192,43003,5,0,0:0:0:0:
201,192,43032,5,0,0:0:0:0:
173,192,43061,5,0,0:0:0:0:
145,192,43090,5,0,0:0:0:0:
117,192,43119,5,0,0:0:0:0:
89,192,43148,5,0,0:0:0:0:
61,192,43177,5,0,0:0:0:0:
33,192,43205,5,0,0:0:0:0:
32,192,43436,5,0,0:0:0:0:
88,192,43465,5,0,0:0:0:0:
144,192,43494,5,0,0:0:0:0:
200,192,43523,5,0,0:0:0:0:
256,192,43552,5,0,0:0:0:0:
312,192,43580,5,0,0:0:0:0:
368,192,43609,5,0,0:0:0:0:
424,192,43638,5,0,0:0:0:0:
481,192,43667,5,0,0:0:0:0:
480,192,43898,5,0,0:0:0:0:
424,192,43927,5,0,0:0:0:0:
368,192,43955,5,0,0:0:0:0:
312,192,43984,5,0,0:0:0:0:
256,192,44013,5,0,0:0:0:0:
200,192,44042,5,0,0:0:0:0:
144,192,44071,5,0,0:0:0:0:
88,192,44100,5,0,0:0:0:0:
31,192,44128,5,0,0:0:0:0:
0,96,44359,6,0,B|16:34|16:34|32:96,1,128,0|2,0:0|0:2,0:0:0:0:
32,128,44705,5,2,0:2:0:0:
128,96,44821,6,0,B|144:34|144:34|160:96,1,128,0|2,0:0|0:2,0:0:0:0:
160,128,45167,5,2,0:2:0:0:
256,96,45282,6,0,B|272:34|272:34|288:96,1,128,0|2,0:0|0:2,0:0:0:0:
288,128,45628,5,2,0:2:0:0:
384,96,45744,6,0,B|400:34|400:34|416:96,1,128,0|2,0:0|0:2,0:0:0:0:
416,128,46090,5,2,0:2:0:0:
512,288,46205,6,0,B|496:350|496:350|480:288,1,128,0|2,0:0|0:2,0:0:0:0:
384,256,46552,5,2,0:2:0:0:
384,288,46667,6,0,B|368:350|368:350|352:288,1,128,0|2,0:0|0:2,0:0:0:0:
256,256,47013,5,2,0:2:0:0:
256,288,47128,6,0,B|240:350|240:350|224:288,1,128,0|2,0:0|0:2,0:0:0:0:
128,256,47475,5,2,0:2:0:0:
128,288,47590,6,0,B|112:350|112:350|96:288,1,128,0|2,0:0|0:2,0:0:0:0:
0,256,47936,5,2,0:2:0:0:
0,192,48052,6,0,B|48:150|48:150|96:192,1,128
32,192,48398,5,0,0:0:0:0:
296,192,48513,6,0,L|216:192,1,80,2|0,0:0|0:0,0:0:0:0:
296,192,48744,6,0,L|216:192,1,80,2|0,0:2|0:0,0:0:0:0:
512,192,48975,6,0,B|464:150|464:150|416:192,1,128
480,192,49321,5,0,0:0:0:0:
216,192,49436,5,2,0:0:0:0:
296,192,49552,5,0,0:0:0:0:
216,192,49667,5,2,0:2:0:0:
296,192,49782,5,0,0:0:0:0:
216,104,49898,5,0,0:0:0:0:
160,88,50013,5,0,0:0:0:0:
128,136,50128,5,0,0:0:0:0:
296,104,50359,5,2,0:0:0:0:
352,88,50475,5,0,0:0:0:0:
384,136,50590,5,2,0:2:0:0:
64,160,50821,6,0,P|19:192|64:224,1,128,2|0,0:2|0:0,0:0:0:0:
512,192,51282,5,8,0:2:0:0:
512,192,51398,5,8,0:0:0:0:
512,192,51513,5,8,0:2:0:0:
400,192,51628,5,8,0:0:0:0:
288,192,51744,6,0,L|288:320,1,128,4|0,0:0|0:0,0:0:0:0:
160,192,52205,5,0,0:0:0:0:
368,192,52436,6,0,P|335:256|465:320,1,256
224,192,53128,6,0,L|224:320,1,128
352,192,53590,5,0,0:0:0:0:
144,192,53821,6,0,P|177:256|47:320,2,256
304,112,54975,5,0,0:0:0:0:
208,112,55090,5,0,0:0:0:0:
304,112,55205,5,0,0:0:0:0:
208,112,55321,5,0,0:0:0:0:
304,112,55436,6,0,L|432:112,1,128
480,192,55898,5,0,0:0:0:0:
256,272,56128,6,0,L|512:272,1,256
208,112,56821,6,0,L|80:112,1,128
32,192,57282,5,0,0:0:0:0:
256,272,57513,6,0,L|0:272,1,256
32,192,58205,5,0,0:0:0:0:
480,192,58667,5,0,0:0:0:0:
32,32,59128,6,0,L|96:32,1,64
32,96,59359,6,0,L|96:96,1,64,2|0,0:0|0:0,0:0:0:0:
224,32,59590,6,0,L|160:32,1,64,8|0,1:2|0:0,0:0:0:0:
224,96,59821,6,0,L|160:96,1,64,2|0,0:0|0:0,0:0:0:0:
288,32,60052,6,0,L|352:32,1,64
288,96,60282,6,0,L|352:96,1,64,2|0,0:0|0:0,0:0:0:0:
480,32,60513,6,0,L|416:32,1,64,8|0,1:2|0:0,0:0:0:0:
480,96,60744,6,0,L|416:96,1,64,2|0,0:0|0:0,0:0:0:0:
288,352,60975,6,0,L|352:352,1,64
224,352,61205,6,0,L|160:352,1,64,2|0,0:0|0:0,0:0:0:0:
288,352,61436,6,0,L|352:352,1,64,8|0,1:2|0:0,0:0:0:0:
224,352,61667,6,0,L|160:352,1,64,2|0,0:0|0:0,0:0:0:0:
288,320,61898,6,0,L|224:320,1,64
352,288,62128,6,0,L|288:288,1,64,2|0,0:0|0:0,0:0:0:0:
416,256,62359,6,0,L|352:256,1,64,8|0,1:2|0:0,0:0:0:0:
480,224,62590,6,0,L|416:224,1,64
512,192,62821,6,0,L|512:128,1,64
400,192,63052,6,0,L|400:128,1,64,2|0,0:0|0:0,0:0:0:0:
288,192,63282,6,0,L|288:128,1,64,8|0,1:2|0:0,0:0:0:0:
176,192,63513,6,0,L|176:128,1,64,2|0,0:0|0:0,0:0:0:0:
0,192,63744,6,0,L|0:128,1,64
112,192,63975,6,0,L|112:128,1,64,2|0,0:0|0:0,0:0:0:0:
224,192,64205,6,0,L|224:128,1,64,8|0,1:2|0:0,0:0:0:0:
336,192,64436,6,0,L|336:128,1,64,2|0,0:0|0:0,0:0:0:0:
224,352,64667,6,0,L|160:352,1,64
288,352,64898,6,0,L|352:352,1,64,2|0,0:0|0:0,0:0:0:0:
224,352,65128,6,0,L|160:352,1,64,8|0,1:2|0:0,0:0:0:0:
288,352,65359,6,0,L|352:352,1,64,2|0,0:0|0:0,0:0:0:0:
224,320,65590,6,0,L|288:320,1,64
160,288,65821,6,0,L|224:288,1,64,2|0,0:0|0:0,0:0:0:0:
96,256,66052,6,0,L|160:256,1,64,8|8,0:2|0:0,0:0:0:0:
32,224,66282,6,0,L|96:224,1,64,8|8,0:2|0:0,0:0:0:0:
0,192,66513,6,0,L|128:192,1,128,4|0,0:0|0:0,0:0:0:0:
32,192,66975,5,0,0:0:0:0:
256,224,67205,6,0,B|160:224|160:224|160:160|160:160|256:160,1,256
512,192,67898,6,0,L|384:192,1,128
480,192,68359,5,0,0:0:0:0:
256,224,68590,6,0,B|352:224|352:224|352:160|352:160|256:160,2,256
80,112,69744,5,0,0:0:0:0:
176,112,69859,5,0,0:0:0:0:
80,112,69975,5,0,0:0:0:0:
176,112,70090,5,0,0:0:0:0:
80,112,70205,6,0,L|208:112,1,128
32,192,70667,5,0,0:0:0:0:
256,272,70898,6,0,L|0:272,1,256
432,112,71590,6,0,L|304:112,1,128
480,192,72052,5,0,0:0:0:0:
256,272,72282,6,0,L|512:272,1,256
480,192,72975,5,0,0:0:0:0:
32,192,73436,5,0,0:0:0:0:
512,192,73898,6,0,L|512:320,1,128,0|2,0:0|0:2,0:0:0:0:
288,192,74244,5,2,0:2:0:0:
400,192,74359,6,0,L|400:320,1,128,0|2,0:0|0:2,0:0:0:0:
192,192,74705,5,2,0:2:0:0:
288,192,74821,6,0,L|288:320,1,128,0|2,0:0|0:2,0:0:0:0:
96,192,75167,5,2,0:2:0:0:
176,192,75282,6,0,L|176:320,1,128,0|2,0:0|0:2,0:0:0:0:
0,192,75628,5,2,0:2:0:0:
0,192,75744,6,0,L|0:320,1,128,0|2,0:0|0:2,0:0:0:0:
224,192,76090,5,2,0:2:0:0:
112,192,76205,6,0,L|112:320,1,128,0|2,0:0|0:2,0:0:0:0:
320,192,76552,5,2,0:2:0:0:
224,192,76667,6,0,L|224:320,1,128,0|2,0:0|0:2,0:0:0:0:
416,192,77013,5,2,0:2:0:0:
336,192,77128,6,0,L|336:320,1,128,0|2,0:0|0:2,0:0:0:0:
512,192,77475,5,2,0:2:0:0:
512,192,77590,6,0,B|464:150|464:150|416:192,1,128
480,192,77936,5,0,0:0:0:0:
216,192,78052,6,0,L|296:192,1,80,2|0,0:0|0:0,0:0:0:0:
216,192,78282,6,0,L|296:192,1,80,2|0,0:2|0:0,0:0:0:0:
0,192,78513,6,0,B|48:150|48:150|96:192,1,128
32,192,78859,5,0,0:0:0:0:
296,192,78975,5,2,0:0:0:0:
216,192,79090,5,0,0:0:0:0:
296,192,79205,5,2,0:2:0:0:
216,192,79321,5,0,0:0:0:0:
296,104,79436,5,0,0:0:0:0:
352,88,79552,5,0,0:0:0:0:
384,136,79667,5,0,0:0:0:0:
216,104,79898,5,2,0:0:0:0:
160,88,80013,5,0,0:0:0:0:
128,136,80128,5,2,0:2:0:0:
448,160,80359,6,0,P|493:192|448:224,1,128,2|0,0:2|0:0,0:0:0:0:
0,192,80821,5,8,0:2:0:0:
0,192,80936,5,8,0:0:0:0:
0,192,81052,5,8,0:2:0:0:
256,192,81167,5,8,0:0:0:0:
512,192,81282,5,4,0:0:0:0:
153,192,96052,5,0,0:0:0:0:
256,192,96513,5,0,0:0:0:0:
460,192,96975,5,0,0:0:0:0:
409,192,97436,5,0,0:0:0:0:
384,192,97898,5,0,0:0:0:0:
0,192,98359,5,0,0:0:0:0:
153,192,98821,5,0,0:0:0:0:
230,192,99282,5,0,0:0:0:0:
153,192,99744,5,0,0:0:0:0:
256,192,100205,5,0,0:0:0:0:
460,192,100667,5,0,0:0:0:0:
409,192,101128,5,0,0:0:0:0:
307,192,101590,5,0,0:0:0:0:
230,192,102052,5,0,0:0:0:0:
102,192,102513,5,0,0:0:0:0:
230,192,102975,5,0,0:0:0:0:
96,192,103436,5,0,0:0:0:0:
204,192,103898,5,0,0:0:0:0:
460,192,104359,5,0,0:0:0:0:
409,192,104821,5,0,0:0:0:0:
307,192,105282,5,0,0:0:0:0:
0,192,105744,5,0,0:0:0:0:
230,192,106205,5,0,0:0:0:0:
384,192,106667,5,0,0:0:0:0:
307,192,107128,5,0,0:0:0:0:
256,192,107590,5,0,0:0:0:0:
230,192,108052,5,0,0:0:0:0:
256,192,108513,5,0,0:0:0:0:
384,192,108975,5,0,0:0:0:0:
230,192,109436,5,0,0:0:0:0:
153,192,109898,5,0,0:0:0:0:
230,192,110359,5,0,0:0:0:0:
163,324,110821,5,4,0:0:0:0:
366,283,111052,5,2,0:0:0:0:
66,211,111282,5,0,1:2:0:0:
454,299,111513,5,2,0:0:0:0:
136,184,111744,5,0,0:0:0:0:
335,210,111975,5,2,0:0:0:0:
347,210,112090,5,0,0:0:0:0:
359,210,112205,5,0,1:0:0:0:
177,210,112436,5,2,0:0:0:0:
165,210,112552,5,0,0:0:0:0:
153,210,112667,5,0,0:0:0:0:
305,271,112898,5,2,0:0:0:0:
88,287,113128,5,0,1:0:0:0:
324,331,113359,5,2,0:0:0:0:
132,311,113590,5,0,0:0:0:0:
282,326,113821,5,2,0:0:0:0:
160,192,114052,5,0,1:0:0:0:
256,192,114167,5,0,0:0:0:0:
160,192,114282,5,0,0:0:0:0:
256,192,114398,5,0,0:0:0:0:
160,192,114513,5,0,0:0:0:0:
337,264,114744,5,2,0:0:0:0:
91,334,114975,5,0,1:0:0:0:
424,317,115205,5,2,0:0:0:0:
119,260,115436,5,0,0:0:0:0:
415,235,115667,5,2,0:0:0:0:
427,235,115782,5,0,0:0:0:0:
439,235,115898,5,0,1:0:0:0:
97,235,116128,5,2,0:0:0:0:
85,235,116244,5,0,0:0:0:0:
73,235,116359,5,0,0:0:0:0:
236,275,116590,5,2,0:0:0:0:
39,293,116821,5,0,1:0:0:0:
333,329,117052,5,2,0:0:0:0:
131,268,117282,5,0,0:0:0:0:
118,268,117398,5,0,0:0:0:0:
232,268,117513,5,2,0:0:0:0:
251,268,117628,5,0,0:0:0:0:
381,268,117744,5,0,1:0:0:0:
394,268,117859,5,0,0:0:0:0:
280,268,117975,5,2,0:0:0:0:
261,268,118090,5,0,0:0:0:0:
448,192,118205,6,0,B|507:216|507:216|448:240,1,128,0|2,0:0|0:0,0:0:0:0:
384,192,118552,5,0,0:0:0:0:
448,192,118667,5,0,1:0:0:0:
384,192,118782,5,0,0:0:0:0:
384,192,118898,5,2,0:0:0:0:
448,192,119013,5,0,0:0:0:0:
384,192,119128,5,0,0:0:0:0:
320,192,119244,5,0,0:0:0:0:
320,192,119359,5,2,0:0:0:0:
256,192,119475,5,0,0:0:0:0:
320,192,119590,5,0,1:0:0:0:
320,192,119705,5,0,0:0:0:0:
256,192,119821,5,2,0:0:0:0:
192,192,119936,5,0,0:0:0:0:
256,192,120052,5,0,0:0:0:0:
192,192,120167,5,0,0:0:0:0:
128,192,120282,5,2,0:0:0:0:
192,192,120398,5,0,0:0:0:0:
192,192,120513,5,0,1:0:0:0:
256,192,120628,5,0,0:0:0:0:
192,192,120744,5,2,0:0:0:0:
256,192,120859,5,0,0:0:0:0:
192,192,120975,5,0,0:0:0:0:
128,192,121090,5,0,0:0:0:0:
128,192,121205,5,2,0:0:0:0:
64,192,121321,5,0,0:0:0:0:
128,192,121436,5,0,1:0:0:0:
192,192,121552,5,0,0:0:0:0:
128,192,121667,5,0,0:0:0:0:
128,192,121782,5,0,0:0:0:0:
64,192,121898,6,0,B|5:216|5:216|64:240,1,128
160,192,122244,5,0,0:0:0:0:
63,192,122359,6,0,L|1:168,1,64,2|0,0:0|0:0,0:0:0:0:
64,192,122590,5,2,0:2:0:0:
352,192,122821,6,0,L|413:169,1,64
160,192,123052,6,0,L|97:168,1,64
448,192,123282,6,0,L|509:168,1,64,2|0,0:0|0:0,0:0:0:0:
448,192,123513,5,2,0:2:0:0:
256,192,123628,5,0,0:0:0:0:
128,192,123744,6,0,L|66:169,1,64
384,192,123975,6,0,L|445:168,1,64
64,192,124205,6,0,L|1:168,1,64,2|0,0:0|0:0,0:0:0:0:
64,192,124436,5,2,0:2:0:0:
512,192,124667,6,0,L|512:64,1,128,2|0,0:2|0:0,0:0:0:0:
0,192,125128,5,8,0:2:0:0:
0,149,125244,5,8,0:0:0:0:
0,106,125359,5,8,0:2:0:0:
0,64,125475,5,8,0:0:0:0:
256,192,125590,6,0,L|480:192,1,224.00000213623,4|0,0:0|0:0,0:0:0:0:
96,192,126052,5,0,0:0:0:0:
256,192,126282,6,0,B|256:256|256:256|256:192|256:192|256:256|256:256|256:192|256:192,1,256
256,192,126975,6,0,L|32:192,1,224.00000213623
416,192,127436,5,0,0:0:0:0:
256,192,127667,6,0,B|256:256|256:256|256:192|256:192|256:256|256:256|256:192|256:192,2,256
352,192,128821,5,0,0:0:0:0:
160,192,128936,5,0,0:0:0:0:
352,192,129052,5,0,0:0:0:0:
160,192,129167,5,0,0:0:0:0:
352,192,129282,6,0,L|352:320,1,128
160,192,129744,5,0,0:0:0:0:
382,192,129975,6,0,B|382:320|382:320|382:192,1,256
130,192,130667,5,0,0:0:0:0:
412,192,130898,5,0,0:0:0:0:
100,192,131128,5,0,0:0:0:0:
442,192,131359,6,0,B|442:320|442:320|442:192,1,256
70,192,132052,6,0,L|70:320,1,128
472,192,132513,5,0,0:0:0:0:
40,192,132744,5,0,0:0:0:0:
256,192,132975,12,0,140330,0:0:0:0:
268,96,132975,5,0,0:0:0:0:
244,96,133003,5,0,0:0:0:0:
268,96,133032,5,0,0:0:0:0:
244,96,133061,5,0,0:0:0:0:
268,96,133090,5,0,0:0:0:0:
244,96,133119,5,0,0:0:0:0:
268,96,133148,5,0,0:0:0:0:
244,96,133177,5,0,0:0:0:0:
268,96,133205,5,0,0:0:0:0:
244,96,133234,5,0,0:0:0:0:
268,96,133263,5,0,0:0:0:0:
244,96,133292,5,0,0:0:0:0:
268,96,133321,5,0,0:0:0:0:
244,96,133350,5,0,0:0:0:0:
268,96,133378,5,0,0:0:0:0:
244,96,133407,5,0,0:0:0:0:
268,96,133436,5,0,0:0:0:0:
244,96,133465,5,0,0:0:0:0:
268,96,133494,5,0,0:0:0:0:
244,96,133523,5,0,0:0:0:0:
268,96,133552,5,0,0:0:0:0:
244,96,133580,5,0,0:0:0:0:
268,96,133609,5,0,0:0:0:0:
244,96,133638,5,0,0:0:0:0:
268,96,133667,5,0,0:0:0:0:
244,96,133696,5,0,0:0:0:0:
268,96,133725,5,0,0:0:0:0:
244,96,133753,5,0,0:0:0:0:
268,96,133782,5,0,0:0:0:0:
244,96,133811,5,0,0:0:0:0:
268,96,133840,5,0,0:0:0:0:
244,96,133869,5,0,0:0:0:0:
268,96,133898,5,0,0:0:0:0:
244,96,133927,5,0,0:0:0:0:
268,96,133955,5,0,0:0:0:0:
244,96,133984,5,0,0:0:0:0:
268,96,134013,5,0,0:0:0:0:
244,96,134042,5,0,0:0:0:0:
268,96,134071,5,0,0:0:0:0:
244,96,134100,5,0,0:0:0:0:
268,96,134128,5,0,0:0:0:0:
244,96,134157,5,0,0:0:0:0:
268,96,134186,5,0,0:0:0:0:
244,96,134215,5,0,0:0:0:0:
268,96,134244,5,0,0:0:0:0:
244,96,134273,5,0,0:0:0:0:
268,96,134302,5,0,0:0:0:0:
244,96,134330,5,0,0:0:0:0:
268,96,134359,5,0,0:0:0:0:
244,96,134388,5,0,0:0:0:0:
268,96,134417,5,0,0:0:0:0:
244,96,134446,5,0,0:0:0:0:
268,96,134475,5,0,0:0:0:0:
244,96,134503,5,0,0:0:0:0:
268,96,134532,5,0,0:0:0:0:
244,96,134561,5,0,0:0:0:0:
268,96,134590,5,0,0:0:0:0:
244,96,134619,5,0,0:0:0:0:
268,96,134648,5,0,0:0:0:0:
244,96,134677,5,0,0:0:0:0:
268,96,134821,5,0,0:0:0:0:
244,96,134850,5,0,0:0:0:0:
268,96,134878,5,0,0:0:0:0:
244,96,134907,5,0,0:0:0:0:
268,96,134936,5,0,0:0:0:0:
244,96,134965,5,0,0:0:0:0:
268,96,134994,5,0,0:0:0:0:
244,96,135023,5,0,0:0:0:0:
268,96,135052,5,0,0:0:0:0:
244,96,135080,5,0,0:0:0:0:
268,96,135109,5,0,0:0:0:0:
244,96,135138,5,0,0:0:0:0:
268,96,135167,5,0,0:0:0:0:
244,96,135196,5,0,0:0:0:0:
268,96,135225,5,0,0:0:0:0:
244,96,135253,5,0,0:0:0:0:
268,96,135282,5,0,0:0:0:0:
244,96,135311,5,0,0:0:0:0:
268,96,135340,5,0,0:0:0:0:
244,96,135369,5,0,0:0:0:0:
268,96,135398,5,0,0:0:0:0:
244,96,135427,5,0,0:0:0:0:
268,96,135455,5,0,0:0:0:0:
244,96,135484,5,0,0:0:0:0:
268,96,135513,5,0,0:0:0:0:
244,96,135542,5,0,0:0:0:0:
268,96,135571,5,0,0:0:0:0:
244,96,135600,5,0,0:0:0:0:
268,96,135628,5,0,0:0:0:0:
244,96,135657,5,0,0:0:0:0:
268,96,135686,5,0,0:0:0:0:
244,96,135715,5,0,0:0:0:0:
268,96,135744,5,0,0:0:0:0:
244,96,135773,5,0,0:0:0:0:
268,96,135802,5,0,0:0:0:0:
244,96,135830,5,0,0:0:0:0:
268,96,135859,5,0,0:0:0:0:
244,96,135888,5,0,0:0:0:0:
268,96,135917,5,0,0:0:0:0:
244,96,135946,5,0,0:0:0:0:
268,96,135975,5,0,0:0:0:0:
244,96,136003,5,0,0:0:0:0:
268,96,136032,5,0,0:0:0:0:
244,96,136061,5,0,0:0:0:0:
268,96,136090,5,0,0:0:0:0:
244,96,136119,5,0,0:0:0:0:
268,96,136148,5,0,0:0:0:0:
244,96,136177,5,0,0:0:0:0:
268,96,136205,5,0,0:0:0:0:
244,96,136234,5,0,0:0:0:0:
268,96,136263,5,0,0:0:0:0:
244,96,136292,5,0,0:0:0:0:
268,96,136321,5,0,0:0:0:0:
244,96,136350,5,0,0:0:0:0:
268,96,136378,5,0,0:0:0:0:
244,96,136407,5,0,0:0:0:0:
268,96,136436,5,0,0:0:0:0:
244,96,136465,5,0,0:0:0:0:
268,96,136494,5,0,0:0:0:0:
244,96,136523,5,0,0:0:0:0:
268,96,136552,5,0,0:0:0:0:
244,96,136580,5,0,0:0:0:0:
268,96,136609,5,0,0:0:0:0:
244,96,136638,5,0,0:0:0:0:
268,96,136667,5,0,0:0:0:0:
244,96,136696,5,0,0:0:0:0:
268,96,136725,5,0,0:0:0:0:
244,96,136753,5,0,0:0:0:0:
268,96,136782,5,0,0:0:0:0:
244,96,136811,5,0,0:0:0:0:
268,96,136840,5,0,0:0:0:0:
244,96,136869,5,0,0:0:0:0:
268,96,136898,5,0,0:0:0:0:
244,96,136927,5,0,0:0:0:0:
268,96,136955,5,0,0:0:0:0:
244,96,136984,5,0,0:0:0:0:
268,96,137013,5,0,0:0:0:0:
244,96,137042,5,0,0:0:0:0:
268,96,137071,5,0,0:0:0:0:
244,96,137100,5,0,0:0:0:0:
268,96,137128,5,0,0:0:0:0:
244,96,137157,5,0,0:0:0:0:
268,96,137186,5,0,0:0:0:0:
244,96,137215,5,0,0:0:0:0:
268,96,137244,5,0,0:0:0:0:
244,96,137273,5,0,0:0:0:0:
268,96,137302,5,0,0:0:0:0:
244,96,137330,5,0,0:0:0:0:
268,96,137359,5,0,0:0:0:0:
244,96,137388,5,0,0:0:0:0:
268,96,137417,5,0,0:0:0:0:
244,96,137446,5,0,0:0:0:0:
268,96,137475,5,0,0:0:0:0:
244,96,137503,5,0,0:0:0:0:
268,96,137532,5,0,0:0:0:0:
244,96,137561,5,0,0:0:0:0:
268,96,137590,5,0,0:0:0:0:
244,96,137619,5,0,0:0:0:0:
268,96,137648,5,0,0:0:0:0:
244,96,137677,5,0,0:0:0:0:
268,96,137705,5,0,0:0:0:0:
244,96,137734,5,0,0:0:0:0:
268,96,137763,5,0,0:0:0:0:
244,96,137792,5,0,0:0:0:0:
268,96,137821,5,0,0:0:0:0:
244,96,137850,5,0,0:0:0:0:
268,96,137878,5,0,0:0:0:0:
244,96,137907,5,0,0:0:0:0:
268,96,137936,5,0,0:0:0:0:
244,96,137965,5,0,0:0:0:0:
268,96,137994,5,0,0:0:0:0:
244,96,138023,5,0,0:0:0:0:
268,96,138052,5,0,0:0:0:0:
244,96,138080,5,0,0:0:0:0:
268,96,138109,5,0,0:0:0:0:
244,96,138138,5,0,0:0:0:0:
268,96,138167,5,0,0:0:0:0:
244,96,138196,5,0,0:0:0:0:
268,96,138225,5,0,0:0:0:0:
244,96,138253,5,0,0:0:0:0:
268,96,138282,5,0,0:0:0:0:
244,96,138311,5,0,0:0:0:0:
268,96,138340,5,0,0:0:0:0:
244,96,138369,5,0,0:0:0:0:
268,96,138398,5,0,0:0:0:0:
244,96,138427,5,0,0:0:0:0:
268,96,138455,5,0,0:0:0:0:
244,96,138484,5,0,0:0:0:0:
268,96,138513,5,0,0:0:0:0:
244,96,138542,5,0,0:0:0:0:
268,96,138571,5,0,0:0:0:0:
244,96,138600,5,0,0:0:0:0:
268,96,138628,5,0,0:0:0:0:
244,96,138657,5,0,0:0:0:0:
268,96,138686,5,0,0:0:0:0:
244,96,138715,5,0,0:0:0:0:
268,96,138744,5,0,0:0:0:0:
244,96,138773,5,0,0:0:0:0:
268,96,138802,5,0,0:0:0:0:
244,96,138830,5,0,0:0:0:0:
268,96,138859,5,0,0:0:0:0:
244,96,138888,5,0,0:0:0:0:
268,96,138917,5,0,0:0:0:0:
244,96,138946,5,0,0:0:0:0:
260,48,138975,5,0,0:0:0:0:
252,48,139003,5,0,0:0:0:0:
260,48,139032,5,0,0:0:0:0:
252,48,139061,5,0,0:0:0:0:
260,48,139090,5,0,0:0:0:0:
252,48,139119,5,0,0:0:0:0:
260,48,139148,5,0,0:0:0:0:
252,48,139177,5,0,0:0:0:0:
260,48,139205,5,0,0:0:0:0:
252,48,139234,5,0,0:0:0:0:
260,48,139263,5,0,0:0:0:0:
252,48,139292,5,0,0:0:0:0:
260,48,139321,5,0,0:0:0:0:
252,48,139350,5,0,0:0:0:0:
260,48,139378,5,0,0:0:0:0:
252,48,139407,5,0,0:0:0:0:
268,96,139436,5,0,0:0:0:0:
244,96,139465,5,0,0:0:0:0:
268,96,139494,5,0,0:0:0:0:
244,96,139523,5,0,0:0:0:0:
268,96,139552,5,0,0:0:0:0:
244,96,139580,5,0,0:0:0:0:
268,96,139609,5,0,0:0:0:0:
244,96,139638,5,0,0:0:0:0:
268,96,139667,5,0,0:0:0:0:
244,96,139696,5,0,0:0:0:0:
268,96,139725,5,0,0:0:0:0:
244,96,139753,5,0,0:0:0:0:
268,96,139782,5,0,0:0:0:0:
244,96,139811,5,0,0:0:0:0:
268,96,139840,5,0,0:0:0:0:
244,96,139869,5,0,0:0:0:0:
280,384,139898,5,0,0:0:0:0:
232,384,139927,5,0,0:0:0:0:
280,384,139955,5,0,0:0:0:0:
232,384,139984,5,0,0:0:0:0:
280,384,140013,5,0,0:0:0:0:
232,384,140042,5,0,0:0:0:0:
280,384,140071,5,0,0:0:0:0:
232,384,140100,5,0,0:0:0:0:
280,384,140128,5,0,0:0:0:0:
232,384,140157,5,0,0:0:0:0:
280,384,140186,5,0,0:0:0:0:
232,384,140215,5,0,0:0:0:0:
280,384,140244,5,0,0:0:0:0:
232,384,140273,5,0,0:0:0:0:
280,384,140302,5,0,0:0:0:0:
232,384,140330,5,0,0:0:0:0:
