osu file format v14

[General]
AudioFilename: toby fox - UNDERTALE Soundtrack - 81 An Ending.mp3
AudioLeadIn: 0
PreviewTime: 88690
Countdown: 0
SampleSet: Soft
StackLeniency: 0.7
Mode: 0
LetterboxInBreaks: 0
WidescreenStoryboard: 1

[Editor]
DistanceSpacing: 1.3
BeatDivisor: 4
GridSize: 4
TimelineZoom: 1

[Metadata]
Title:An Ending
TitleUnicode:An Ending
Artist:toby fox
ArtistUnicode:toby fox
Creator:samplefish
Version:Normal
Source:UNDERTALE
Tags:kuey Soundtrack RPG Playstation ps4 Steam
BeatmapID:856140
BeatmapSetID:392854

[Difficulty]
HPDrainRate:3
CircleSize:3.5
OverallDifficulty:4
ApproachRate:5
SliderMultiplier:1.2
SliderTickRate:2

[Events]
//Background and Video events
0,0,"frisk.jpg",0,0
//Break Periods
//Storyboard Layer 0 (Background)
//Storyboard Layer 1 (Fail)
//Storyboard Layer 2 (Pass)
//Storyboard Layer 3 (Foreground)
//Storyboard Sound Samples

[TimingPoints]
40,600,3,2,1,70,1,0
32440,-100,3,2,1,55,0,0
36040,-100,3,2,1,45,0,0
46840,-100,3,2,1,40,0,0
54040,-100,3,2,1,35,0,0
57640,-100,3,2,1,30,0,0
88840,-100,3,2,1,35,0,0
89140,-100,3,2,1,40,0,0
89440,-100,3,2,1,45,0,0
89740,-100,3,2,1,50,0,0
90040,-100,3,2,1,70,0,0
202240,-100,3,2,1,60,0,0
202540,-100,3,2,1,50,0,0
202840,-100,3,2,1,40,0,0
203140,-100,3,2,1,30,0,0
203440,-100,3,2,1,20,0,0
203740,-100,3,2,1,10,0,0
204040,-100,3,2,1,5,0,0

[Colours]
Combo1 : 252,163,165
Combo2 : 215,176,247
Combo3 : 251,230,155
Combo4 : 253,193,235

[HitObjects]
96,256,40,6,0,P|100:286|109:326,2,60,2|0|2,0:0|0:0|0:0,0:0:0:0:
172,120,1240,2,0,P|168:90|159:50,2,60,2|0|2,0:0|0:0|0:0,0:0:0:0:
172,120,3340,1,0,0:0:0:0:
241,154,3640,6,0,P|309:150|378:149,1,120,2|2,0:0|0:0,0:0:0:0:
424,291,4840,2,0,P|356:295|287:296,1,120,2|2,0:0|0:0,0:0:0:0:
148,302,6040,2,0,P|136:271|123:223,1,60,2|0,0:0|0:0,0:0:0:0:
180,186,6640,2,0,P|192:155|205:107,1,60,2|0,0:0|0:0,0:0:0:0:
137,82,7240,6,0,P|176:54|261:80,1,120,2|0,0:0|0:0,0:0:0:0:
280,132,8140,2,0,P|337:144|387:114,1,120,2|0,0:0|0:0,0:0:0:0:
323,67,9040,1,2,0:0:0:0:
404,199,9640,2,0,P|404:233|400:277,1,60,2|0,0:0|0:0,0:0:0:0:
326,271,10240,2,0,P|325:236|330:193,1,60,2|0,0:0|0:0,0:0:0:0:
349,136,10840,6,0,P|326:130|219:113,1,120,2|0,0:0|0:0,0:0:0:0:
153,121,11740,1,2,0:0:0:0:
76,256,12340,2,0,L|40:244,2,30,2|2|0,0:0|0:0|0:0,0:0:0:0:
214,332,13240,2,0,P|212:309|207:266,1,60,2|0,0:0|0:0,0:0:0:0:
175,201,13840,2,0,P|177:178|182:135,1,60,2|0,0:0|0:0,0:0:0:0:
246,98,14440,6,0,P|304:88|305:201,1,180,2|2,0:0|0:0,0:0:0:0:
207,272,15940,1,2,0:0:0:0:
268,320,16240,2,0,P|321:310|408:304,1,120,2|2,0:0|0:0,0:0:0:0:
496,196,17440,1,2,0:0:0:0:
348,148,18040,6,0,P|344:184|344:228,1,60,2|0,0:0|0:0,0:0:0:0:
420,200,18640,1,2,0:0:0:0:
424,122,18940,2,0,P|410:96|311:80,1,120,2|2,0:0|0:0,0:0:0:0:
269,124,19840,1,2,0:0:0:0:
48,203,20740,2,0,P|39:166|32:124,2,60,0|2|0,0:0|0:0|0:0,0:0:0:0:
118,237,21640,6,0,P|123:269|128:370,1,120,2|2,0:0|0:0,0:0:0:0:
284,349,22840,2,0,P|328:345|360:340,1,60,2|0,0:0|0:0,0:0:0:0:
418,319,23440,1,2,0:0:0:0:
289,231,24040,2,0,P|290:191|293:148,1,60,2|0,0:0|0:0,0:0:0:0:
364,145,24640,2,0,P|363:105|360:62,1,60,2|0,0:0|0:0,0:0:0:0:
295,43,25240,6,0,P|244:27|175:119,2,180,2|2|2,0:0|0:0|0:0,0:0:0:0:
330,195,27640,2,0,P|368:186|408:187,1,60,0|0,0:0|0:0,0:0:0:0:
459,219,28240,2,0,P|465:258|462:297,1,60,2|0,0:0|0:0,0:0:0:0:
414,338,28840,6,0,B|377:335|357:316|357:316|325:327|277:313,1,120,2|2,0:0|0:0,0:0:0:0:
147,286,30040,2,0,P|150:308|161:355,2,60,2|0|2,0:0|0:0|0:0,0:0:0:0:
277,91,31540,2,0,P|274:68|263:22,2,60,0|2|0,0:0|0:0|0:0,0:0:0:0:
217,142,32440,6,0,P|197:128|156:106,1,60,2|0,0:0|0:0,0:0:0:0:
92,84,33040,1,2,0:0:0:0:
34,229,33640,2,0,P|53:242|94:264,1,60,2|0,0:0|0:0,0:0:0:0:
159,287,34240,1,2,0:0:0:0:
277,91,35140,2,0,P|274:68|263:22,2,60,0|2|0,0:0|0:0|0:0,0:0:0:0:
308,162,36040,6,0,P|337:154|390:152,1,60,2|0,0:0|0:0,0:0:0:0:
440,177,36640,1,2,0:0:0:0:
424,332,37240,2,0,L|500:320,2,60,2|0|2,0:0|0:0|0:0,0:0:0:0:
282,265,38440,2,0,P|256:262|201:262,1,60,2|0,0:0|0:0,0:0:0:0:
157,304,39040,2,0,P|127:303|97:299,1,60,2|0,0:0|0:0,0:0:0:0:
37,249,39640,6,0,B|66:156|4:159|41:63,2,180,2|2|2,0:0|0:0|0:0,0:0:0:0:
268,284,42340,2,0,P|268:320|262:363,2,60,0|2|0,0:0|0:0|0:0,0:0:0:0:
222,220,43240,6,0,P|222:184|228:141,1,60,2|0,0:0|0:0,0:0:0:0:
288,114,43840,2,0,P|288:78|282:35,1,60,2|0,0:0|0:0,0:0:0:0:
207,46,44440,2,0,P|186:40|134:33,2,60,2|0|2,0:0|0:0|0:0,0:0:0:0:
342,236,45940,2,0,P|362:241|415:249,2,60,0|2|0,0:0|0:0|0:0,0:0:0:0:
309,165,46840,6,0,P|278:192|282:289,1,120,2|2,0:0|0:0,0:0:0:0:
423,242,48040,2,0,P|454:215|450:118,1,120,2|2,0:0|0:0,0:0:0:0:
340,42,49240,2,0,P|321:38|268:30,1,60,2|0,0:0|0:0,0:0:0:0:
256,105,49840,2,0,P|275:109|328:117,1,60,2|0,0:0|0:0,0:0:0:0:
392,106,50440,6,0,P|389:140|388:237,1,120,2|0,0:0|0:0,0:0:0:0:
406,301,51340,1,2,0:0:0:0:
345,350,51640,2,0,P|322:353|267:350,1,60,0|0,0:0|0:0,0:0:0:0:
222,306,52240,1,2,0:0:0:0:
16,192,53140,1,2,0:0:0:0:
222,78,54040,6,0,P|224:112|224:152,1,60,2|0,0:0|0:0,0:0:0:0:
164,188,54640,2,0,P|162:222|162:262,1,60,2|0,0:0|0:0,0:0:0:0:
212,304,55240,2,0,L|284:316,2,60,2|0|2,0:0|0:0|0:0,0:0:0:0:
392,140,57640,6,0,L|464:128,2,60,2|0|2,0:0|0:0|0:0,0:0:0:0:
312,136,58540,1,0,0:0:0:0:
236,128,58840,2,0,L|164:140,1,60,2|0,0:0|0:0,0:0:0:0:
108,104,59440,1,2,0:0:0:0:
108,104,61240,6,0,P|99:157|92:224,1,120,2|2,0:0|0:0,0:0:0:0:
212,322,62440,1,2,0:0:0:0:
238,168,63040,2,0,P|244:108|253:49,1,120,2|0,0:0|0:0,0:0:0:0:
409,64,64240,2,0,P|428:96|425:136,1,60,2|0,0:0|0:0,0:0:0:0:
423,195,64840,6,0,P|408:193|297:181,1,120,2|0,0:0|0:0,0:0:0:0:
228,162,65740,2,0,P|224:129|221:81,2,60,2|2|0,0:0|0:0|0:0,0:0:0:0:
251,236,66640,1,2,0:0:0:0:
108,299,67240,2,0,P|86:302|43:304,1,60,2|0,0:0|0:0,0:0:0:0:
23,229,67840,2,0,P|52:225|82:223,1,60,2|0,0:0|0:0,0:0:0:0:
159,238,68440,6,0,P|159:203|72:149,2,120,2|0|0,0:0|0:0|0:0,0:0:0:0:
295,161,70240,2,0,P|305:97|318:30,2,120,2|0|0,0:0|0:0|0:0,0:0:0:0:
382,292,72040,6,0,P|358:289|245:277,1,120,2|0,0:0|0:0,0:0:0:0:
107,295,73240,1,2,0:0:0:0:
167,151,73840,2,0,P|191:148|304:136,1,120,2|0,0:0|0:0,0:0:0:0:
442,154,75040,1,0,0:0:0:0:
322,53,75640,6,0,B|282:38|245:48|245:48|228:33|187:36,2,120,2|2|2,0:0|0:0|0:0,0:0:0:0:
442,154,77440,2,0,P|437:201|435:285,1,120,2|0,0:0|0:0,0:0:0:0:
297,200,78640,2,0,P|268:194|211:196,1,60,2|0,0:0|0:0,0:0:0:0:
186,133,79240,6,0,P|137:139|98:202,1,120,2|0,0:0|0:0,0:0:0:0:
121,268,80140,2,0,L|118:329,2,60,2|2|0,0:0|0:0|0:0,0:0:0:0:
174,208,81040,2,0,P|219:207|310:215,1,120,2|2,0:0|0:0,0:0:0:0:
368,236,81940,1,0,0:0:0:0:
444,216,82240,2,0,P|449:186|455:136,1,60,2|0,0:0|0:0,0:0:0:0:
496,92,82840,6,0,P|476:60|376:61,1,120,2|0,0:0|0:0,0:0:0:0:
339,189,84040,1,0,0:0:0:0:
200,259,84640,2,0,P|141:256|103:212,1,120,2|0,0:0|0:0,0:0:0:0:
101,56,85840,1,0,0:0:0:0:
256,56,86440,5,2,0:0:0:0:
256,56,88840,2,0,P|248:96|248:144,1,60,2|0,0:0|0:0,0:0:0:0:
296,176,89440,2,0,P|304:216|304:264,1,60,2|0,0:0|0:0,0:0:0:0:
260,300,90040,38,0,P|232:296|116:288,2,120,4|2|2,0:0|0:0|0:0,0:0:0:0:
416,316,91840,2,0,P|432:280|400:196,1,120,2|0,0:0|0:0,0:0:0:0:
260,172,93040,2,0,P|256:152|260:104,1,60,2|0,0:0|0:0,0:0:0:0:
328,76,93640,6,0,P|311:74|196:60,1,120,2|2,0:0|0:0,0:0:0:0:
123,191,94840,2,0,P|156:187|195:183,1,60,2|0,0:0|0:0,0:0:0:0:
260,172,95440,2,0,P|255:222|252:303,1,120,2|2,0:0|0:0,0:0:0:0:
300,353,96340,1,0,0:0:0:0:
374,331,96640,2,0,P|409:322|460:317,1,60,2|0,0:0|0:0,0:0:0:0:
439,240,97240,6,0,P|409:243|312:271,1,120,2|0,0:0|0:0,0:0:0:0:
249,293,98140,1,0,0:0:0:0:
174,314,98440,2,0,P|154:306|102:296,1,60,2|0,0:0|0:0,0:0:0:0:
38,306,99040,2,0,L|27:224,1,60,2|0,0:0|0:0,0:0:0:0:
28,168,99640,2,0,P|32:127|40:87,1,60
109,84,100240,1,0,0:0:0:0:
105,162,100540,1,0,0:0:0:0:
78,236,100840,6,0,P|134:237|179:191,1,120,2|0,0:0|0:0,0:0:0:0:
236,52,102040,1,2,0:0:0:0:
304,192,102640,2,0,P|359:195|405:147,1,120,2|0,0:0|0:0,0:0:0:0:
384,76,103540,2,0,P|388:44|396:8,2,60,0|2|0,0:0|0:0|0:0,0:0:0:0:
308,60,104440,6,0,P|276:56|184:48,1,120,4|2,0:0|0:0,0:0:0:0:
84,164,105640,2,0,P|116:160|208:152,1,120,2|2,0:0|0:0,0:0:0:0:
280,172,106540,1,0,0:0:0:0:
344,216,106840,2,0,P|377:209|412:200,1,60,0|0,0:0|0:0,0:0:0:0:
480,192,107440,2,0,P|476:228|476:272,1,60,2|0,0:0|0:0,0:0:0:0:
412,300,108040,6,0,P|368:300|324:364,1,120,2|2,0:0|0:0,0:0:0:0:
284,204,109240,2,0,P|280:173|268:124,1,60,2|0,0:0|0:0,0:0:0:0:
196,152,109840,2,0,P|203:185|221:291,1,120,2|2,0:0|0:0,0:0:0:0:
172,333,110740,1,0,0:0:0:0:
134,264,111040,2,0,P|130:233|118:184,1,60,2|0,0:0|0:0,0:0:0:0:
46,208,111640,6,0,P|64:152|132:127,1,120,2|0,0:0|0:0,0:0:0:0:
193,132,112540,1,0,0:0:0:0:
261,169,112840,2,0,P|283:175|330:167,1,60,2|0,0:0|0:0,0:0:0:0:
397,172,113440,2,0,P|393:202|390:246,1,60,2|0,0:0|0:0,0:0:0:0:
468,224,114040,2,0,P|472:194|475:150,1,60,0|0,0:0|0:0,0:0:0:0:
429,100,114640,2,0,P|407:94|360:102,1,60,2|0,0:0|0:0,0:0:0:0:
294,116,115240,6,0,P|255:107|166:90,2,120,2|0|2,0:0|0:0|0:0,0:0:0:0:
395,235,117040,2,0,P|434:226|523:209,2,120,2|0|2,0:0|0:0|0:0,0:0:0:0:
238,230,118840,6,0,P|203:200|108:201,1,120,4|2,0:0|0:0,0:0:0:0:
193,334,120040,1,2,0:0:0:0:
345,364,120640,2,0,P|404:361|451:325,1,120,2|0,0:0|0:0,0:0:0:0:
486,173,121840,2,0,P|483:140|478:108,1,60,2|0,0:0|0:0,0:0:0:0:
403,131,122440,6,0,B|339:141|353:94|265:101,1,120,2|2,0:0|0:0,0:0:0:0:
155,180,123640,2,0,P|126:179|87:173,1,60,2|0,0:0|0:0,0:0:0:0:
34,125,124240,2,0,P|39:167|45:262,1,120,2|2,0:0|0:0,0:0:0:0:
17,317,125140,1,0,0:0:0:0:
85,354,125440,2,0,P|114:353|153:347,1,60,2|0,0:0|0:0,0:0:0:0:
199,293,126040,6,0,B|212:152,1,120,2|0,0:0|0:0,0:0:0:0:
186,98,126940,1,0,0:0:0:0:
260,75,127240,2,0,P|295:72|335:73,1,60,2|0,0:0|0:0,0:0:0:0:
353,142,127840,2,0,P|382:141|412:139,1,60,2|0,0:0|0:0,0:0:0:0:
489,122,128440,2,0,L|484:200,1,60
496,259,129040,1,2,0:0:0:0:
447,320,129340,1,0,0:0:0:0:
370,332,129640,6,0,P|352:329|215:321,1,120,2|0,0:0|0:0,0:0:0:0:
94,324,130840,1,2,0:0:0:0:
36,179,131440,2,0,P|28:144|27:116,1,60,2|0,0:0|0:0,0:0:0:0:
89,73,132040,2,0,L|181:55,1,60,0|0,0:0|0:0,0:0:0:0:
179,132,132640,2,0,L|237:143,1,60,2|0,0:0|0:0,0:0:0:0:
239,221,133240,6,0,P|266:249|321:313,1,120,4|2,0:0|0:0,0:0:0:0:
444,218,134440,2,0,P|451:179|472:98,1,120,2|2,0:0|0:0,0:0:0:0:
497,28,135340,1,0,0:0:0:0:
419,32,135640,2,0,P|395:66|382:121,1,60,0|0,0:0|0:0,0:0:0:0:
369,158,136240,2,0,P|339:157|309:164,1,60,2|0,0:0|0:0,0:0:0:0:
275,234,136840,6,0,P|243:208|254:109,2,120,2|2|2,0:0|0:0|0:0,0:0:0:0:
342,273,138340,1,0,0:0:0:0:
296,335,138640,2,0,P|277:333|147:327,1,120,2|2,0:0|0:0,0:0:0:0:
98,327,139540,1,0,0:0:0:0:
54,262,139840,2,0,P|46:228|45:196,1,60,2|0,0:0|0:0,0:0:0:0:
74,130,140440,6,0,P|135:137|196:109,1,120,2|0,0:0|0:0,0:0:0:0:
318,28,141640,2,0,P|351:43|373:78,1,60,2|0,0:0|0:0,0:0:0:0:
300,103,142240,2,0,P|315:135|309:176,1,60,2|0,0:0|0:0,0:0:0:0:
253,206,142840,2,0,L|262:300,1,60
300,331,143440,1,2,0:0:0:0:
371,361,143740,1,0,0:0:0:0:
447,343,144040,6,0,P|456:266|469:181,1,120,2|0,0:0|0:0,0:0:0:0:
336,130,145240,2,0,P|345:207|358:292,1,120,2|2,0:0|0:0,0:0:0:0:
356,327,146140,1,0,0:0:0:0:
278,316,146440,2,0,P|258:309|188:305,1,60,0|0,0:0|0:0,0:0:0:0:
151,341,147040,2,0,P|121:337|92:328,1,60,2|0,0:0|0:0,0:0:0:0:
40,269,147640,6,0,P|31:215|79:162,1,120,4|2,0:0|0:0,0:0:0:0:
222,134,148840,2,0,P|231:81|183:27,1,120,2|2,0:0|0:0,0:0:0:0:
114,22,149740,1,0,0:0:0:0:
95,98,150040,2,0,P|125:100|154:98,1,60,0|0,0:0|0:0,0:0:0:0:
228,72,150640,2,0,P|257:69|287:71,1,60,2|0,0:0|0:0,0:0:0:0:
339,130,151240,6,0,P|399:146|468:105,1,120,2|2,0:0|0:0,0:0:0:0:
412,276,152440,2,0,P|413:304|417:339,1,60,2|0,0:0|0:0,0:0:0:0:
340,349,153040,2,0,P|281:335|222:327,1,120,2|2,0:0|0:0,0:0:0:0:
145,339,153940,1,0,0:0:0:0:
168,264,154240,2,0,P|161:228|137:167,1,60,2|0,0:0|0:0,0:0:0:0:
90,160,154840,6,0,P|156:159|189:94,1,120,2|0,0:0|0:0,0:0:0:0:
208,44,155740,1,0,0:0:0:0:
285,33,156040,2,0,P|326:47|363:66,1,60,2|0,0:0|0:0,0:0:0:0:
346,132,156640,2,0,P|373:143|402:152,1,60,2|0,0:0|0:0,0:0:0:0:
479,164,157240,2,0,P|477:187|472:250,1,60
464,301,157840,1,2,0:0:0:0:
391,329,158140,1,0,0:0:0:0:
324,288,158440,6,0,P|298:260|197:304,1,120,2|0,0:0|0:0,0:0:0:0:
89,347,159640,1,2,0:0:0:0:
30,203,160240,2,0,P|27:153|31:56,1,120,2|0,0:0|0:0,0:0:0:0:
88,32,161140,1,0,0:0:0:0:
150,79,161440,2,0,P|187:97|237:107,1,60,2|0,0:0|0:0,0:0:0:0:
282,106,162040,6,0,P|329:130|317:219,2,120,4|2|2,0:0|0:0|0:0,0:0:0:0:
139,169,163840,2,0,P|107:164|-22:148,1,120,2|0,0:0|0:0,0:0:0:0:
106,282,165040,2,0,P|140:279|205:271,1,60,2|0,0:0|0:0,0:0:0:0:
225,226,165640,6,0,P|219:266|212:357,1,120,2|2,0:0|0:0,0:0:0:0:
367,323,166840,2,0,P|412:335|443:349,2,60,2|0|2,0:0|0:0|0:0,0:0:0:0:
307,178,168040,2,0,P|307:152|310:93,1,60,2|0,0:0|0:0,0:0:0:0:
235,88,168640,2,0,P|235:62|232:3,1,60,2|0,0:0|0:0,0:0:0:0:
156,42,169240,6,0,P|157:77|161:186,1,120,2|0,0:0|0:0,0:0:0:0:
81,157,170140,1,0,0:0:0:0:
48,228,170440,2,0,L|51:305,1,60,2|0,0:0|0:0,0:0:0:0:
128,282,171040,2,0,L|125:359,1,60,2|0,0:0|0:0,0:0:0:0:
203,332,171640,2,0,P|239:315|293:320,1,60,0|0,0:0|0:0,0:0:0:0:
331,283,172240,1,2,0:0:0:0:
393,329,172540,1,0,0:0:0:0:
454,280,172840,6,0,P|459:217|463:139,1,120,2|0,0:0|0:0,0:0:0:0:
431,7,174040,1,2,0:0:0:0:
311,107,174640,2,0,P|262:136|181:123,1,120,2|0,0:0|0:0,0:0:0:0:
140,84,175540,1,0,0:0:0:0:
83,138,175840,2,0,P|82:173|92:237,1,60,2|0,0:0|0:0,0:0:0:0:
146,245,176440,6,0,P|160:300|112:361,1,120,4|2,0:0|0:0,0:0:0:0:
39,223,177640,2,0,P|25:168|73:107,1,120,2|2,0:0|0:0,0:0:0:0:
115,66,178540,1,0,0:0:0:0:
189,90,178840,2,0,P|236:86|296:78,1,60,0|0,0:0|0:0,0:0:0:0:
316,45,179440,2,0,P|345:41|375:39,1,60,2|0,0:0|0:0,0:0:0:0:
450,63,180040,6,0,P|446:99|441:193,1,120,2|2,0:0|0:0,0:0:0:0:
413,336,181240,2,0,P|389:330|316:318,1,60,2|0,0:0|0:0,0:0:0:0:
277,335,181840,2,0,P|250:318|123:269,1,120,2|2,0:0|0:0,0:0:0:0:
99,248,182740,1,0,0:0:0:0:
38,198,183040,2,0,P|35:165|38:125,1,60,2|0,0:0|0:0,0:0:0:0:
78,72,183640,6,0,B|212:58,1,120,2|0,0:0|0:0,0:0:0:0:
275,57,184540,1,0,0:0:0:0:
352,54,184840,2,0,P|388:48|450:45,1,60,2|0,0:0|0:0,0:0:0:0:
410,124,185440,2,0,P|374:130|312:133,1,60,2|0,0:0|0:0,0:0:0:0:
280,166,186040,2,0,L|284:266,1,60
294,303,186640,1,0,0:0:0:0:
368,326,186940,1,0,0:0:0:0:
443,307,187240,6,0,P|474:272|441:182,1,120,2|0,0:0|0:0,0:0:0:0:
325,134,188440,2,0,P|294:99|327:9,1,120,2|2,0:0|0:0,0:0:0:0:
175,121,189640,2,0,P|126:112|26:103,1,120,2|2,0:0|0:0,0:0:0:0:
151,228,190840,6,0,B|191:228|220:251|220:251|258:244|289:252,1,120,6|2,0:0|0:0,0:0:0:0:
373,361,192040,2,0,B|333:361|304:338|304:338|266:345|235:337,1,120,2|2,0:0|0:0,0:0:0:0:
180,346,192940,1,0,0:0:0:0:
114,304,193240,2,0,P|110:267|117:227,1,60,0|0,0:0|0:0,0:0:0:0:
167,189,193840,2,0,P|170:152|164:112,1,60,2|0,0:0|0:0,0:0:0:0:
94,103,194440,6,0,P|136:56|196:55,1,120,2|2,0:0|0:0,0:0:0:0:
315,146,195640,2,0,P|351:141|384:132,1,60,2|0,0:0|0:0,0:0:0:0:
433,84,196240,2,0,P|430:129|431:211,1,120,2|2,0:0|0:0,0:0:0:0:
436,280,197140,1,0,0:0:0:0:
361,315,197440,2,0,P|344:311|259:306,1,60,2|0,0:0|0:0,0:0:0:0:
227,329,198040,6,0,L|99:320,1,120,2|0,0:0|0:0,0:0:0:0:
38,282,198940,1,0,0:0:0:0:
103,239,199240,2,0,L|207:246,1,60,2|0,0:0|0:0,0:0:0:0:
240,249,199840,2,0,P|247:220|256:192,1,60,2|0,0:0|0:0,0:0:0:0:
328,157,200440,2,0,P|336:128|343:99,1,60,0|0,0:0|0:0,0:0:0:0:
277,57,201040,2,0,P|268:85|261:114,1,60,2|0,0:0|0:0,0:0:0:0:
256,192,201640,5,4,0:0:0:0:
256,192,201790,12,0,205240,0:0:0:0:
