osu file format v14

[General]
AudioFilename: toby fox - UNDERTALE Soundtrack - 81 An Ending.mp3
AudioLeadIn: 0
PreviewTime: 88690
Countdown: 0
SampleSet: Soft
StackLeniency: 0.6
Mode: 0
LetterboxInBreaks: 0
WidescreenStoryboard: 1

[Editor]
DistanceSpacing: 1.3
BeatDivisor: 4
GridSize: 4
TimelineZoom: 1

[Metadata]
Title:An Ending
TitleUnicode:An Ending
Artist:toby fox
ArtistUnicode:toby fox
Creator:samplefish
Version:Hard
Source:UNDERTALE
Tags:kuey Soundtrack RPG Playstation ps4 Steam
BeatmapID:855271
BeatmapSetID:392854

[Difficulty]
HPDrainRate:5
CircleSize:4
OverallDifficulty:6
ApproachRate:7
SliderMultiplier:1.4
SliderTickRate:2

[Events]
//Background and Video events
0,0,"frisk.jpg",0,0
//Break Periods
//Storyboard Layer 0 (Background)
//Storyboard Layer 1 (Fail)
//Storyboard Layer 2 (Pass)
//Storyboard Layer 3 (Foreground)
//Storyboard Sound Samples

[TimingPoints]
40,600,3,2,1,50,1,0
88840,-100,3,2,1,55,0,0
89440,-100,3,2,1,65,0,0
90040,-100,3,2,1,70,0,0
202240,-100,3,2,1,40,0,0
202540,-100,3,2,1,30,0,0
202840,-100,3,2,1,20,0,0
203140,-100,3,2,1,10,0,0
203440,-100,3,2,1,5,0,0

[Colours]
Combo1 : 252,163,165
Combo2 : 215,176,247
Combo3 : 251,230,155
Combo4 : 253,193,235

[HitObjects]
160,320,40,6,0,P|156:280|156:228,1,70,2|0,0:0|0:0,0:0:0:0:
204,192,640,1,2,0:0:0:0:
348,132,1240,2,0,P|394:138|436:148,2,70,2|0|2,0:0|0:0|0:0,0:0:0:0:
348,132,3340,1,0,0:0:0:0:
262,162,3640,6,0,P|216:156|174:146,1,70,2|0,0:0|0:0,0:0:0:0:
105,124,4240,2,0,P|112:184|121:277,1,140,2|2,0:0|0:0,0:0:0:0:
58,329,5140,1,0,0:0:0:0:
142,362,5440,1,2,0:0:0:0:
310,293,6040,1,2,0:0:0:0:
395,325,6340,1,0,0:0:0:0:
479,290,6640,1,2,0:0:0:0:
503,206,6940,1,0,0:0:0:0:
441,138,7240,6,0,P|444:104|446:52,1,70,2|0,0:0|0:0,0:0:0:0:
364,28,7840,1,0,0:0:0:0:
276,56,8140,2,0,P|248:52|112:36,1,140,2|0,0:0|0:0,0:0:0:0:
56,84,9040,1,2,0:0:0:0:
160,236,9640,2,0,P|200:230|248:228,1,70,2|0,0:0|0:0,0:0:0:0:
328,320,10240,1,2,0:0:0:0:
232,339,10540,1,0,0:0:0:0:
324,228,10840,6,0,P|332:144|340:80,1,140,2|0,0:0|0:0,0:0:0:0:
445,37,11740,2,0,P|453:106|459:176,1,140,2|2,0:0|0:0,0:0:0:0:
441,205,12490,1,0,0:0:0:0:
441,205,12640,2,0,P|385:185|321:233,1,140,2|2,0:0|0:0,0:0:0:0:
332,320,13540,1,0,0:0:0:0:
244,340,13840,1,2,0:0:0:0:
192,268,14140,1,0,0:0:0:0:
104,292,14440,6,0,B|96:244|96:244|68:208|68:208|64:148,1,140,2|0,0:0|0:0,0:0:0:0:
116,88,15340,1,2,0:0:0:0:
280,164,15940,1,2,0:0:0:0:
361,203,16240,2,0,P|307:249|229:235,2,140,2|2|2,0:0|0:0|0:0,0:0:0:0:
242,243,18040,6,0,P|250:286|253:343,1,70,2|0,0:0|0:0,0:0:0:0:
153,282,18640,1,2,0:0:0:0:
176,179,18940,2,0,P|257:151|320:193,1,140,2|2,0:0|0:0,0:0:0:0:
343,253,19840,1,2,0:0:0:0:
343,253,20740,2,0,P|350:293|353:334,2,70,0|2|0,0:0|0:0|0:0,0:0:0:0:
302,172,21640,6,0,B|284:122|297:69|297:69|324:62|342:72,1,140,2|2,0:0|0:0,0:0:0:0:
480,173,22840,2,0,P|483:221|470:271,1,70,2|0,0:0|0:0,0:0:0:0:
423,314,23440,1,2,0:0:0:0:
247,360,24040,2,0,P|214:358|159:349,1,70,2|0,0:0|0:0,0:0:0:0:
168,262,24640,2,0,P|133:256|98:254,1,70,2|0,0:0|0:0,0:0:0:0:
51,333,25240,6,0,P|49:269|37:175,1,140,2|0,0:0|0:0,0:0:0:0:
62,105,26140,2,0,P|142:101|175:156,1,140,2|0,0:0|0:0,0:0:0:0:
146,231,27040,1,2,0:0:0:0:
303,139,27640,1,0,0:0:0:0:
387,104,27940,2,0,P|427:110|476:130,2,70,0|2|0,0:0|0:0|0:0,0:0:0:0:
303,139,28840,5,2,0:0:0:0:
303,230,29140,1,0,0:0:0:0:
383,187,29440,1,2,0:0:0:0:
264,325,30040,1,2,0:0:0:0:
174,306,30340,1,0,0:0:0:0:
85,284,30640,1,2,0:0:0:0:
304,120,31540,1,2,0:0:0:0:
394,128,31840,1,0,0:0:0:0:
360,43,32140,1,0,0:0:0:0:
304,120,32440,6,0,P|306:162|310:215,1,70,2|0,0:0|0:0,0:0:0:0:
321,280,33040,1,2,0:0:0:0:
455,224,33640,2,0,P|453:182|449:129,1,70,2|0,0:0|0:0,0:0:0:0:
377,102,34240,1,2,0:0:0:0:
136,230,35140,2,0,P|109:222|61:210,2,70,0|2|0,0:0|0:0|0:0,0:0:0:0:
189,304,36040,5,2,0:0:0:0:
274,272,36340,1,0,0:0:0:0:
336,338,36640,1,2,0:0:0:0:
456,201,37240,1,2,0:0:0:0:
426,114,37540,1,0,0:0:0:0:
390,30,37840,1,2,0:0:0:0:
254,151,38440,2,0,L|266:233,1,70,2|0,0:0|0:0,0:0:0:0:
157,120,39040,2,0,L|169:202,1,70,2|0,0:0|0:0,0:0:0:0:
52,120,39640,6,0,B|100:108|100:108|156:116|156:116|208:100,1,140,2|0,0:0|0:0,0:0:0:0:
256,44,40540,1,2,0:0:0:0:
328,100,40840,2,0,P|332:132|328:188,1,70
276,244,41440,1,2,0:0:0:0:
276,244,42340,2,0,L|272:336,2,70,0|2|0,0:0|0:0|0:0,0:0:0:0:
236,164,43240,6,0,P|252:160|328:156,1,70,2|0,0:0|0:0,0:0:0:0:
392,176,43840,1,2,0:0:0:0:
392,176,44440,2,0,L|385:106,1,70,2|0,0:0|0:0,0:0:0:0:
460,52,45040,1,2,0:0:0:0:
460,52,45940,1,0,0:0:0:0:
385,106,46240,2,0,L|392:176,1,70,2|0,0:0|0:0,0:0:0:0:
460,236,46840,6,0,L|466:305,2,70,2|0|2,0:0|0:0|0:0,0:0:0:0:
392,176,47740,1,0,0:0:0:0:
368,264,48040,2,0,L|284:256,1,70,2|0,0:0|0:0,0:0:0:0:
208,248,48640,1,2,0:0:0:0:
28,276,49240,2,0,P|34:319|48:372,1,70,2|0,0:0|0:0,0:0:0:0:
121,284,49840,2,0,P|115:241|101:188,1,70,2|0,0:0|0:0,0:0:0:0:
42,152,50440,5,2,0:0:0:0:
97,80,50740,1,0,0:0:0:0:
185,100,51040,1,0,0:0:0:0:
191,190,51340,2,0,P|234:197|286:205,1,70,2|0,0:0|0:0,0:0:0:0:
342,163,51940,1,0,0:0:0:0:
380,80,52240,1,2,0:0:0:0:
342,163,53140,1,2,0:0:0:0:
388,244,54040,6,0,P|392:272|388:324,1,70,2|0,0:0|0:0,0:0:0:0:
314,364,54640,2,0,P|279:365|240:359,1,70,2|0,0:0|0:0,0:0:0:0:
208,255,55240,1,2,0:0:0:0:
138,313,55540,1,0,0:0:0:0:
224,345,55840,1,2,0:0:0:0:
224,344,57640,6,0,L|216:244,1,70,2|0,0:0|0:0,0:0:0:0:
299,233,58240,2,0,L|307:133,1,70,2|0,0:0|0:0,0:0:0:0:
225,40,58840,1,2,0:0:0:0:
229,128,59140,1,0,0:0:0:0:
305,80,59440,1,2,0:0:0:0:
312,84,61240,6,0,P|276:80|156:72,1,140,2|2,0:0|0:0,0:0:0:0:
172,72,62440,1,2,0:0:0:0:
3,141,63040,2,0,B|27:241|39:277,1,140,2|0,0:0|0:0,0:0:0:0:
196,340,64240,2,0,L|272:326,1,70,2|0,0:0|0:0,0:0:0:0:
350,348,64840,6,0,P|430:333|433:262,1,140,2|0,0:0|0:0,0:0:0:0:
411,198,65740,1,2,0:0:0:0:
321,181,66040,2,0,P|295:189|262:226,1,70,2|0,0:0|0:0,0:0:0:0:
264,309,66640,1,2,0:0:0:0:
108,216,67240,2,0,P|110:241|112:296,2,70,2|0|2,0:0|0:0|0:0,0:0:0:0:
36,160,68140,1,2,0:0:0:0:
86,86,68440,6,0,P|140:80|248:74,1,140,2|0,0:0|0:0,0:0:0:0:
225,74,69640,1,0,0:0:0:0:
385,26,70240,2,0,P|376:96|372:166,2,140,2|0|0,0:0|0:0|0:0,0:0:0:0:
458,195,72040,6,0,P|410:247|325:246,1,140,2|0,0:0|0:0,0:0:0:0:
202,139,73240,1,2,0:0:0:0:
55,247,73840,2,0,P|52:216|33:85,1,140,2|0,0:0|0:0,0:0:0:0:
37,108,75040,1,0,0:0:0:0:
184,213,75640,6,0,P|181:272|172:358,1,140,2|2,0:0|0:0,0:0:0:0:
34,234,76840,1,2,0:0:0:0:
135,82,77440,2,0,P|242:105|285:121,1,140,2|0,0:0|0:0,0:0:0:0:
432,192,78640,2,0,P|438:151|440:102,1,70,2|0,0:0|0:0,0:0:0:0:
344,192,79240,6,0,P|367:256|450:279,1,140,2|0,0:0|0:0,0:0:0:0:
432,192,80140,1,2,0:0:0:0:
430,282,80440,2,0,P|432:316|436:368,1,70,2|0,0:0|0:0,0:0:0:0:
336,337,81040,2,0,B|283:338|283:338|246:351|246:351|167:347,1,140,2|2,0:0|0:0,0:0:0:0:
112,316,81940,1,0,0:0:0:0:
52,247,82240,1,2,0:0:0:0:
104,172,82540,1,0,0:0:0:0:
190,199,82840,6,0,P|269:183|351:170,1,140,2|0,0:0|0:0,0:0:0:0:
327,173,84040,1,2,0:0:0:0:
500,80,84640,2,0,P|421:64|339:51,1,140,2|0,0:0|0:0,0:0:0:0:
362,54,85840,1,2,0:0:0:0:
170,96,86440,5,2,0:0:0:0:
170,96,88840,1,2,0:0:0:0:
126,183,89140,1,0,0:0:0:0:
223,181,89440,1,2,0:0:0:0:
256,273,89740,1,0,0:0:0:0:
316,196,90040,6,0,P|373:185|460:171,1,140,4|2,0:0|0:0,0:0:0:0:
492,76,90940,1,0,0:0:0:0:
404,28,91240,2,0,P|392:60|400:120,1,70,2|0,0:0|0:0,0:0:0:0:
308,144,91840,2,0,L|216:132,1,70,2|0,0:0|0:0,0:0:0:0:
204,44,92440,2,0,L|112:32,1,70
37,54,93040,2,0,P|41:94|49:143,1,70,2|0,0:0|0:0,0:0:0:0:
140,148,93640,6,0,B|156:176|168:216|168:216|132:248|136:292,1,140,2|2,0:0|0:0,0:0:0:0:
287,349,94840,2,0,P|325:348|361:327,1,70,2|0,0:0|0:0,0:0:0:0:
424,280,95440,2,0,B|408:252|396:212|396:212|432:180|428:136,1,140,2|2,0:0|0:0,0:0:0:0:
458,55,96340,1,0,0:0:0:0:
360,45,96640,1,2,0:0:0:0:
262,32,96940,1,0,0:0:0:0:
199,107,97240,6,0,B|216:258,1,140,2|0,0:0|0:0,0:0:0:0:
165,330,98140,1,0,0:0:0:0:
78,284,98440,2,0,P|77:253|89:207,1,70,2|0,0:0|0:0,0:0:0:0:
165,330,99040,2,0,L|254:320,1,70,2|0,0:0|0:0,0:0:0:0:
332,330,99640,1,0,0:0:0:0:
407,267,99940,1,0,0:0:0:0:
361,180,100240,1,2,0:0:0:0:
435,115,100540,1,0,0:0:0:0:
355,57,100840,6,0,P|331:53|207:36,1,140,2|0,0:0|0:0,0:0:0:0:
216,37,102040,1,2,0:0:0:0:
216,37,102640,2,0,B|226:78|226:78|226:138,1,70,2|0,0:0|0:0,0:0:0:0:
144,159,103240,2,0,B|134:200|134:200|134:260,1,70
211,287,103840,2,0,B|221:246|221:246|221:186,1,70,2|0,0:0|0:0,0:0:0:0:
144,159,104440,6,0,P|132:85|176:28,2,140,4|2|2,0:0|0:0|0:0,0:0:0:0:
216,108,105940,1,0,0:0:0:0:
280,168,106240,2,0,P|280:200|276:256,1,70,2|0,0:0|0:0,0:0:0:0:
212,312,106840,1,0,0:0:0:0:
277,237,107140,1,0,0:0:0:0:
376,232,107440,2,0,P|384:208|396:156,1,70,2|0,0:0|0:0,0:0:0:0:
316,108,108040,6,0,P|252:96|212:28,1,140,2|2,0:0|0:0,0:0:0:0:
68,144,109240,2,0,P|75:175|84:236,1,70,2|0,0:0|0:0,0:0:0:0:
72,310,109840,2,0,B|113:308|146:322|146:322|173:294|223:284,1,140,2|2,0:0|0:0,0:0:0:0:
299,295,110740,1,0,0:0:0:0:
392,327,111040,1,2,0:0:0:0:
447,247,111340,1,0,0:0:0:0:
392,168,111640,6,0,P|400:123|410:77,2,70,2|0|0,0:0|0:0|0:0,0:0:0:0:
299,198,112540,1,0,0:0:0:0:
262,107,112840,2,0,P|254:62|247:15,1,70,2|0,0:0|0:0,0:0:0:0:
152,97,113440,2,0,P|159:141|166:188,1,70,2|0,0:0|0:0,0:0:0:0:
111,249,114040,1,0,0:0:0:0:
71,338,114340,1,0,0:0:0:0:
127,258,114640,1,2,0:0:0:0:
184,337,114940,1,0,0:0:0:0:
273,276,115240,6,0,P|318:287|416:328,1,140,2|0,0:0|0:0,0:0:0:0:
404,321,116440,1,2,0:0:0:0:
452,106,117040,2,0,P|439:153|432:207,1,70,2|0,0:0|0:0,0:0:0:0:
351,103,117640,2,0,P|337:66|334:13,1,70
251,102,118240,2,0,P|222:74|196:28,1,70,2|0,0:0|0:0,0:0:0:0:
112,121,118840,6,0,P|187:107|275:100,1,140,4|2,0:0|0:0,0:0:0:0:
351,103,119740,1,0,0:0:0:0:
430,160,120040,2,0,P|431:187|426:247,1,70,2|0,0:0|0:0,0:0:0:0:
361,301,120640,2,0,P|317:289|258:361,1,140,2|0,0:0|0:0,0:0:0:0:
349,172,121840,2,0,P|351:137|350:102,1,70,2|0,0:0|0:0,0:0:0:0:
266,51,122440,6,0,P|249:47|119:30,1,140,2|2,0:0|0:0,0:0:0:0:
127,30,123640,2,0,L|120:112,1,70,2|0,0:0|0:0,0:0:0:0:
46,172,124240,2,0,B|67:206|67:206|88:327,1,140,2|2,0:0|0:0,0:0:0:0:
152,371,125140,1,0,0:0:0:0:
221,301,125440,1,2,0:0:0:0:
152,230,125740,1,0,0:0:0:0:
225,164,126040,6,0,P|267:150|313:143,1,70,2|0,0:0|0:0,0:0:0:0:
352,222,126640,2,0,P|386:214|419:203,1,70
495,86,127240,2,0,P|460:93|428:105,1,70,2|0,0:0|0:0,0:0:0:0:
419,203,127840,2,0,P|412:245|411:300,1,70,2|0,0:0|0:0,0:0:0:0:
317,241,128440,1,0,0:0:0:0:
286,334,128740,1,0,0:0:0:0:
195,295,129040,1,2,0:0:0:0:
225,201,129340,1,0,0:0:0:0:
128,218,129640,6,0,P|122:177|89:60,1,140,2|0,0:0|0:0,0:0:0:0:
97,81,130840,1,2,0:0:0:0:
45,270,131440,2,0,P|91:261|205:247,1,140,2|0,0:0|0:0,0:0:0:0:
280,261,132340,1,0,0:0:0:0:
367,216,132640,2,0,P|377:175|381:126,1,70,2|0,0:0|0:0,0:0:0:0:
265,169,133240,6,0,P|281:262|293:321,1,140,4|2,0:0|0:0,0:0:0:0:
465,220,134440,2,0,P|470:125|471:65,1,140,2|2,0:0|0:0,0:0:0:0:
384,36,135340,1,0,0:0:0:0:
292,64,135640,2,0,P|294:109|300:148,1,70
300,232,136240,2,0,P|324:236|388:240,1,70,2|0,0:0|0:0,0:0:0:0:
465,220,136840,6,0,P|470:125|471:65,1,140,2|2,0:0|0:0,0:0:0:0:
298,162,138040,2,0,P|298:201|300:246,1,70,2|0,0:0|0:0,0:0:0:0:
373,144,138640,2,0,P|351:106|252:100,1,140,2|2,0:0|0:0,0:0:0:0:
172,112,139540,1,0,0:0:0:0:
88,64,139840,1,2,0:0:0:0:
168,132,140140,1,0,0:0:0:0:
80,180,140440,6,0,L|96:319,1,140,2|0,0:0|0:0,0:0:0:0:
184,280,141340,1,0,0:0:0:0:
251,349,141640,2,0,P|294:348|342:343,1,70,2|0,0:0|0:0,0:0:0:0:
426,277,142240,2,0,L|420:368,1,70,2|0,0:0|0:0,0:0:0:0:
323,258,142840,1,0,0:0:0:0:
295,163,143140,1,0,0:0:0:0:
422,93,143440,1,2,0:0:0:0:
404,189,143740,1,0,0:0:0:0:
295,163,144040,6,0,B|255:159|255:159|195:176|195:176|134:167,1,140,2|0,0:0|0:0,0:0:0:0:
157,170,145240,1,2,0:0:0:0:
411,160,145840,2,0,L|403:234,1,70,2|0,0:0|0:0,0:0:0:0:
272,142,146440,1,0,0:0:0:0:
411,160,146740,1,0,0:0:0:0:
333,220,147040,1,2,0:0:0:0:
350,82,147340,1,0,0:0:0:0:
220,77,147640,6,0,P|190:117|222:205,2,140,4|2|2,0:0|0:0|0:0,0:0:0:0:
338,52,149140,1,0,0:0:0:0:
378,141,149440,2,0,P|372:179|368:239,1,70,2|0,0:0|0:0,0:0:0:0:
458,251,150040,2,0,P|463:289|468:349,1,70
380,368,150640,1,2,0:0:0:0:
311,297,150940,1,0,0:0:0:0:
226,346,151240,6,0,B|183:360|129:355|129:355|116:324|144:295,1,140,2|2,0:0|0:0,0:0:0:0:
262,185,152440,2,0,P|274:219|278:278,1,70,2|0,0:0|0:0,0:0:0:0:
176,198,153040,2,0,P|186:137|256:97,1,140,2|2,0:0|0:0,0:0:0:0:
344,115,153940,1,0,0:0:0:0:
440,95,154240,2,0,P|439:61|434:15,1,70,2|0,0:0|0:0,0:0:0:0:
344,115,154840,6,0,P|346:178|354:258,1,140,2|0,0:0|0:0,0:0:0:0:
451,252,155740,1,0,0:0:0:0:
413,342,156040,2,0,P|382:357|326:357,1,70,2|0,0:0|0:0,0:0:0:0:
278,290,156640,2,0,P|245:276|210:275,1,70,2|0,0:0|0:0,0:0:0:0:
125,323,157240,1,0,0:0:0:0:
107,226,157540,1,0,0:0:0:0:
173,153,157840,1,2,0:0:0:0:
153,57,158140,1,0,0:0:0:0:
34,140,158440,6,0,B|124:129|78:161|202:151,1,140,2|0,0:0|0:0,0:0:0:0:
172,152,159640,1,2,0:0:0:0:
339,152,160240,2,0,B|434:161|388:129|478:140,1,140,2|0,0:0|0:0,0:0:0:0:
446,230,161140,1,0,0:0:0:0:
349,248,161440,2,0,P|314:245|263:214,1,70,2|0,0:0|0:0,0:0:0:0:
260,88,162040,6,0,P|198:77|141:135,2,140,4|2|2,0:0|0:0|0:0,0:0:0:0:
260,88,163840,2,0,P|253:130|250:171,1,70,2|0,0:0|0:0,0:0:0:0:
331,212,164440,2,0,P|325:246|322:281,1,70
257,353,165040,2,0,L|154:344,1,70,2|0,0:0|0:0,0:0:0:0:
48,272,165640,6,0,P|100:240|200:272,1,140,2|2,0:0|0:0,0:0:0:0:
370,265,166840,2,0,P|359:226|368:172,1,70,2|0,0:0|0:0,0:0:0:0:
443,144,167440,2,0,P|461:113|413:18,1,140,2|2,0:0|0:0,0:0:0:0:
333,58,168340,1,0,0:0:0:0:
239,27,168640,2,0,P|233:27|144:35,1,70,2|0,0:0|0:0,0:0:0:0:
18,68,169240,6,0,P|65:113|42:198,1,140,2|0,0:0|0:0,0:0:0:0:
10,269,170140,1,0,0:0:0:0:
107,284,170440,2,0,P|143:278|200:264,1,70,2|0,0:0|0:0,0:0:0:0:
268,237,171040,2,0,L|264:319,1,70,2|0,0:0|0:0,0:0:0:0:
354,267,171640,1,0,0:0:0:0:
438,324,171940,1,0,0:0:0:0:
490,240,172240,1,2,0:0:0:0:
409,185,172540,1,0,0:0:0:0:
354,267,172840,6,0,B|309:278|309:278|269:314|269:314|199:330,1,140,2|0,0:0|0:0,0:0:0:0:
230,323,174040,1,2,0:0:0:0:
308,143,174640,2,0,P|330:147|385:165,1,70,2|0,0:0|0:0,0:0:0:0:
217,230,175240,1,0,0:0:0:0:
199,133,175540,1,0,0:0:0:0:
325,47,175840,1,2,0:0:0:0:
308,143,176140,1,0,0:0:0:0:
207,28,176440,6,0,P|150:34|61:48,2,140,4|2|2,0:0|0:0|0:0,0:0:0:0:
289,80,177940,1,0,0:0:0:0:
241,165,178240,2,0,P|212:162|147:149,1,70,2|0,0:0|0:0,0:0:0:0:
121,67,178840,2,0,P|155:60|190:57,1,70
289,80,179440,2,0,P|321:108|337:155,1,70,2|0,0:0|0:0,0:0:0:0:
300,220,180040,6,0,L|292:369,1,140,2|2,0:0|0:0,0:0:0:0:
84,281,181240,2,0,P|82:320|87:371,1,70,2|0,0:0|0:0,0:0:0:0:
165,361,181840,2,0,P|165:315|174:195,1,140,2|2,0:0|0:0,0:0:0:0:
148,118,182740,1,0,0:0:0:0:
194,206,183040,1,2,0:0:0:0:
250,82,183340,1,0,0:0:0:0:
229,193,183640,6,0,P|302:186|372:183,1,140,2|0,0:0|0:0,0:0:0:0:
460,218,184540,1,0,0:0:0:0:
502,128,184840,2,0,P|501:89|495:34,1,70,2|0,0:0|0:0,0:0:0:0:
374,0,185440,2,0,P|371:34|370:69,1,70,2|0,0:0|0:0,0:0:0:0:
348,165,186040,1,0,0:0:0:0:
267,220,186340,1,0,0:0:0:0:
178,171,186640,1,2,0:0:0:0:
177,76,186940,1,0,0:0:0:0:
264,119,187240,6,0,P|241:117|103:109,1,140,2|0,0:0|0:0,0:0:0:0:
33,72,188140,1,0,0:0:0:0:
3,165,188440,2,0,P|5:197|17:249,1,70,2|0,0:0|0:0,0:0:0:0:
56,322,189040,2,0,P|79:320|127:283,1,70,2|0,0:0|0:0,0:0:0:0:
158,206,189640,2,0,P|181:208|229:245,1,70,2|0,0:0|0:0,0:0:0:0:
311,319,190240,2,0,P|314:287|317:222,1,70,2|0,0:0|0:0,0:0:0:0:
217,333,190840,6,0,P|156:335|105:263,1,140,6|2,0:0|0:0,0:0:0:0:
328,284,192040,2,0,P|337:326|334:385,1,70,2|0,0:0|0:0,0:0:0:0:
241,267,192640,2,0,P|240:215|250:113,1,140,2|0,0:0|0:0,0:0:0:0:
309,51,193540,1,0,0:0:0:0:
362,132,193840,2,0,P|356:179|357:233,1,70,2|0,0:0|0:0,0:0:0:0:
436,66,194440,6,0,P|375:34|309:51,1,140,2|2,0:0|0:0,0:0:0:0:
96,176,195640,2,0,P|71:171|14:147,1,70,2|0,0:0|0:0,0:0:0:0:
138,100,196240,2,0,P|134:144|129:265,1,140,2|2,0:0|0:0,0:0:0:0:
190,316,197140,1,0,0:0:0:0:
285,291,197440,1,2,0:0:0:0:
223,214,197740,1,0,0:0:0:0:
128,238,198040,6,0,P|97:281|109:374,1,140,2|0,0:0|0:0,0:0:0:0:
190,316,198940,1,0,0:0:0:0:
263,381,199240,2,0,P|302:376|363:371,1,70,2|0,0:0|0:0,0:0:0:0:
401,303,199840,2,0,L|405:215,1,70,2|0,0:0|0:0,0:0:0:0:
340,146,200440,1,0,0:0:0:0:
259,91,200740,1,0,0:0:0:0:
170,140,201040,1,2,0:0:0:0:
169,235,201340,1,0,0:0:0:0:
256,192,201640,5,4,0:0:0:0:
256,192,201790,12,0,205240,0:0:0:0:
