osu file format v14

[General]
AudioFilename: audio.mp3
AudioLeadIn: 0
PreviewTime: 53378
Countdown: 0
SampleSet: Soft
StackLeniency: 0.7
Mode: 2
LetterboxInBreaks: 0
WidescreenStoryboard: 1

[Editor]
DistanceSpacing: 1.7
BeatDivisor: 8
GridSize: 16
TimelineZoom: 3.899998

[Metadata]
Title:Amalgam
TitleUnicode:Amalgam
Artist:toby fox
ArtistUnicode:toby fox
Creator:Juansy-
Version:Rain
Source:UNDERTALE
Tags:bighzonda bigh Mniam casperisapotato "radiation" video game instrumental original soundtrack ost radiation electronic amalgamate
BeatmapID:3530063
BeatmapSetID:1727379

[Difficulty]
HPDrainRate:6
CircleSize:4.2
OverallDifficulty:8.2
ApproachRate:8.2
SliderMultiplier:1.8
SliderTickRate:2

[Events]
//Background and Video events
0,0,"amalgamam.jpg",0,0
//Break Periods
//Storyboard Layer 0 (Background)
//Storyboard Layer 1 (Fail)
//Storyboard Layer 2 (Pass)
//Storyboard Layer 3 (Foreground)
//Storyboard Layer 4 (Overlay)
//Storyboard Sound Samples

[TimingPoints]
126,333.348148806614,4,2,1,35,1,0
10459,-100,4,2,1,25,0,0
10543,-100,4,2,1,40,0,0
10626,-100,4,2,1,55,0,0
10709,-100,4,2,1,70,0,0
10793,-100,4,2,1,60,0,0
18710,-100,4,2,1,5,0,0
18793,-100,4,2,1,60,0,0
26710,-100,4,2,1,5,0,0
26793,-100,4,2,1,60,0,0
29377,-100,4,2,1,5,0,0
29460,-100,4,2,1,60,0,0
31585,-100,4,2,1,5,0,0
31627,-40,4,2,1,60,0,0
31960,-100,4,2,1,60,0,0
32127,-100,4,2,1,60,0,0
37377,-100,4,2,1,5,0,0
37460,-100,4,2,1,60,0,0
40044,-100,4,2,1,5,0,0
40127,-100,4,2,1,60,0,0
42252,-100,4,2,1,5,0,0
42294,-40,4,2,1,60,0,0
42794,-100,4,2,1,40,0,0
47628,-100,4,2,1,5,0,0
47711,-100,4,2,1,40,0,0
47878,-100,4,2,1,5,0,0
47961,-100,4,2,1,40,0,0
53461,-90.9090909090909,4,2,1,80,0,1
55628,-55.5555555555556,4,2,1,80,0,1
55961,-90.9090909090909,4,2,1,80,0,1
58795,-90.9090909090909,4,2,1,80,0,1
64128,-90.9090909090909,4,2,1,50,0,0
64753,-90.9090909090909,4,2,1,5,0,0
64795,-90.9090909090909,4,2,1,50,0,0
65420,-90.9090909090909,4,2,1,5,0,0
65462,-90.9090909090909,4,2,1,50,0,0
66087,-90.9090909090909,4,2,1,5,0,0
66128,-90.9090909090909,4,2,1,50,0,0
66753,-90.9090909090909,4,2,1,5,0,0
66795,-90.9090909090909,4,2,1,50,0,0
67420,-90.9090909090909,4,2,1,5,0,0
67462,-90.9090909090909,4,2,1,50,0,0
68087,-90.9090909090909,4,2,1,5,0,0
68129,-90.9090909090909,4,2,1,50,0,0
68754,-90.9090909090909,4,2,1,5,0,0
68795,-90.9090909090909,4,2,1,50,0,0
69462,-83.3333333333333,4,2,1,65,0,1
74795,-100,4,2,1,45,0,0
74962,-100,4,2,1,15,0,0
75129,-100,4,2,1,45,0,0
75296,-100,4,2,1,15,0,0
75462,-100,4,2,1,45,0,0
75629,-100,4,2,1,15,0,0
75796,-100,4,2,1,45,0,0
75963,-100,4,2,1,15,0,0
76129,-100,4,2,1,45,0,0
76296,-100,4,2,1,15,0,0
76462,-100,4,2,1,45,0,0
76629,-100,4,2,1,15,0,0
76796,-100,4,2,1,45,0,0
76963,-100,4,2,1,15,0,0
77129,-100,4,2,1,45,0,0
77296,-100,4,2,1,15,0,0
77462,-90.9090909090909,4,2,1,65,0,0

[Colours]
Combo1 : 103,122,143
Combo2 : 96,72,94
Combo3 : 152,78,160
Combo4 : 168,205,213

[HitObjects]
278,298,5459,6,0,P|331:278|261:217,1,180,2|0,3:0|0:0,0:0:0:0:
173,212,5959,2,0,L|174:69,1,135,2|0,0:0|0:0,0:0:0:0:
308,64,6459,2,0,L|311:137,1,45,0|0,0:0|0:0,0:0:0:0:
266,120,6626,6,0,L|167:198,2,90,2|0|0,3:0|0:0|0:0,0:0:0:0:
356,120,7126,1,0,3:0:0:0:
220,118,7292,2,0,P|167:142|226:233,1,180,2|0,0:0|0:0,0:0:0:0:
475,216,8126,6,0,L|285:215,1,180,2|0,3:0|0:0,0:0:0:0:
384,204,8626,1,2,0:0:0:0:
207,130,9293,1,0,3:0:0:0:
432,126,9459,6,0,P|488:155|424:230,1,180,2|0,0:0|3:0,0:0:0:0:
301,243,9959,2,0,L|495:229,1,180,2|0,0:0|0:0,0:0:0:0:
449,145,10459,1,0,0:0:0:0:
431,130,10501,1,0,0:0:0:0:
414,117,10543,1,0,0:0:0:0:
371,104,10626,1,0,0:0:0:0:
146,120,10793,6,0,L|30:119,2,90,6|0|8,3:2|0:0|0:0,0:0:0:0:
299,117,11293,2,0,L|303:333,1,180,2|0,3:0|3:0,0:0:0:0:
149,300,11793,1,8,0:0:0:0:
374,300,11959,6,0,P|433:277|368:209,1,180,2|0,3:0|3:0,0:0:0:0:
281,203,12459,1,8,0:0:0:0:
129,191,12626,2,0,P|149:131|277:95,1,180,2|0,3:0|3:0,0:0:0:0:
403,83,13126,2,0,L|289:82,1,90,8|0,0:0|0:0,0:0:0:0:
86,154,13459,6,0,P|84:208|207:240,1,180,2|8,3:0|0:0,0:0:0:0:
337,233,13959,2,0,P|343:174|222:134,1,180,2|0,3:0|3:0,0:0:0:0:
96,134,14459,2,0,L|197:124,1,90,8|0,0:0|3:0,0:0:0:0:
410,110,14793,6,0,L|408:317,1,180,2|8,0:0|0:0,0:0:0:0:
246,294,15293,2,0,L|243:103,1,180,2|0,3:0|3:0,0:0:0:0:
80,110,15793,1,8,0:0:0:0:
480,109,16126,6,0,L|355:107,1,90,2|0,3:0|0:0,0:0:0:0:
263,103,16460,1,8,0:0:0:0:
415,109,16626,2,0,P|464:134|397:220,1,180,2|0,3:0|3:0,0:0:0:0:
318,227,17126,1,8,0:0:0:0:
92,222,17293,6,0,L|314:208,1,180,2|0,3:0|3:0,0:0:0:0:
172,205,17793,1,8,0:0:0:0:
325,208,17960,2,0,P|388:184|307:134,1,180,2|0,3:0|3:0,0:0:0:0:
181,116,18460,2,0,B|89:120|89:120|172:114,1,135,8|0,0:0|0:0,0:0:0:0:
301,219,18793,6,0,L|429:224,2,90,2|0|8,3:0|3:0|0:0,0:0:0:0:
147,226,19293,2,0,P|183:146|301:122,1,180,2|0,3:0|3:0,0:0:0:0:
113,94,19793,2,0,L|-4:82,1,90,8|0,0:0|3:0,0:0:0:0:
251,108,20126,6,0,L|252:226,1,90,2|0,0:0|3:0,0:0:0:0:
111,234,20460,1,8,0:0:0:0:
263,233,20626,2,0,L|463:220,1,180,2|0,3:0|3:0,0:0:0:0:
301,161,21126,2,0,L|225:157,1,45,8|8,0:0|0:0,0:0:0:0:
324,133,21293,2,0,L|383:126,1,45,8|8,0:0|0:0,0:0:0:0:
210,215,21460,6,0,L|102:215,1,90,2|0,3:0|0:0,0:0:0:0:
210,215,21793,1,8,0:0:0:0:
363,213,21960,2,0,P|292:184|162:179,1,180,2|0,3:0|3:0,0:0:0:0:
297,100,22460,1,8,0:0:0:0:
72,101,22627,6,0,P|29:126|97:212,1,180,2|0,3:0|3:0,0:0:0:0:
233,221,23127,1,8,0:0:0:0:
80,236,23293,2,0,P|32:219|101:133,1,180,2|0,3:0|3:0,0:0:0:0:
223,126,23793,2,0,L|119:124,1,90,8|0,0:0|0:0,0:0:0:0:
357,242,24127,6,0,L|461:243,2,90,2|0|8,3:0|0:0|0:0,0:0:0:0:
203,240,24627,2,0,L|419:225,1,180,2|0,3:0|3:0,0:0:0:0:
232,197,25127,2,0,L|128:193,1,90,8|0,0:0|3:0,0:0:0:0:
377,74,25460,6,0,L|266:75,2,90,2|0|8,0:0|3:0|0:0,0:0:0:0:
223,74,25960,2,0,P|168:94|233:175,1,180,2|0,3:0|3:0,0:0:0:0:
363,173,26460,2,0,B|460:173|460:173|405:169,1,135,8|0,0:0|0:0,0:0:0:0:
261,181,26793,6,0,L|261:80,1,90,2|0,3:0|0:0,0:0:0:0:
405,84,27127,1,8,0:0:0:0:
251,82,27293,2,0,P|209:98|265:193,1,180,2|0,3:0|3:0,0:0:0:0:
400,213,27793,1,8,0:0:0:0:
174,235,27960,6,0,L|10:126,1,180,2|0,3:0|3:0,0:0:0:0:
150,196,28460,1,8,0:0:0:0:
298,197,28627,2,0,P|336:191|289:109,1,180,2|0,3:0|3:0,0:0:0:0:
138,108,29127,2,0,L|283:96,1,135,8|0,0:0|0:0,0:0:0:0:
123,188,29460,6,0,L|28:197,2,90,2|0|8,3:0|3:0|0:0,0:0:0:0:
276,194,29960,2,0,L|280:-4,1,180,2|0,3:0|3:0,0:0:0:0:
432,20,30460,2,0,L|327:16,1,90,8|0,0:0|3:0,0:0:0:0:
116,197,30794,6,0,L|299:189,1,180,2|8,0:0|0:0,0:0:0:0:
148,165,31294,2,0,P|93:156|153:107,1,157.5,2|0,3:0|0:0,0:0:0:0:
163,96,31627,2,0,B|394:89|394:89|346:307,1,450,0|0,3:0|0:0,0:0:0:0:
104,269,32127,6,0,L|215:261,2,90,2|0|8,3:0|0:0|0:0,0:0:0:0:
257,272,32627,2,0,L|263:88,1,180,2|0,3:0|3:0,0:0:0:0:
413,61,33127,1,8,0:0:0:0:
188,58,33294,6,0,P|138:62|188:142,1,180,2|0,3:0|3:0,0:0:0:0:
319,196,33794,1,8,0:0:0:0:
166,208,33960,2,0,P|175:138|286:120,1,180,2|0,3:0|3:0,0:0:0:0:
422,103,34460,2,0,L|328:95,1,90,8|0,0:0|0:0,0:0:0:0:
102,284,34794,5,2,3:0:0:0:
191,290,34960,2,0,L|189:194,1,90,0|8,0:0|0:0,0:0:0:0:
342,193,35294,2,0,L|346:6,1,180,2|0,3:0|3:0,0:0:0:0:
220,18,35794,2,0,L|328:18,1,90,8|0,0:0|3:0,0:0:0:0:
82,248,36127,6,0,L|85:146,1,90,2|0,0:0|3:0,0:0:0:0:
184,153,36460,1,8,0:0:0:0:
336,153,36627,2,0,L|135:157,1,180,2|0,3:0|3:0,0:0:0:0:
305,124,37127,2,0,B|397:120|397:120|352:120,1,135,8|0,0:0|0:0,0:0:0:0:
192,153,37460,6,0,L|92:157,2,90,2|0|8,3:0|0:0|0:0,0:0:0:0:
345,154,37961,2,0,P|346:212|237:268,1,180,2|0,3:0|3:0,0:0:0:0:
98,284,38461,1,8,0:0:0:0:
321,269,38627,6,0,P|407:255|412:157,1,180,2|0,3:0|3:0,0:0:0:0:
269,165,39127,1,8,0:0:0:0:
115,173,39294,2,0,P|86:109|187:65,1,180,2|0,3:0|3:0,0:0:0:0:
307,57,39794,2,0,L|159:61,1,135,8|0,0:0|0:0,0:0:0:0:
326,175,40127,6,0,L|432:176,2,90,2|0|8,3:0|3:0|0:0,0:0:0:0:
173,190,40627,2,0,B|174:56|174:56|173:117,1,180,2|0,3:0|3:0,0:0:0:0:
311,61,41127,1,8,0:0:0:0:
166,65,41294,1,0,3:0:0:0:
392,95,41461,6,0,P|445:112|382:180,1,180,2|8,0:0|0:0,0:0:0:0:
239,209,41961,2,0,L|414:193,1,157.5,2|0,0:0|0:0,0:0:0:0:
395,194,42294,2,0,L|127:200,1,225,0|2,3:0|0:0,0:0:0:0:
128,171,42544,1,2,0:0:0:0:
128,121,42627,1,2,0:0:0:0:
181,193,42711,1,2,0:0:0:0:
352,203,42794,6,0,P|397:175|343:121,1,135,2|2,0:0|0:0,0:0:0:0:
310,115,43127,1,2,0:0:0:0:
165,106,43294,1,10,0:0:0:0:
316,85,43461,2,0,L|432:80,1,90,2|2,0:0|0:0,0:0:0:0:
252,89,43794,2,0,L|224:165,2,45,10|2|2,0:0|0:0|0:0,0:0:0:0:
414,91,44127,6,0,L|254:92,1,135,2|2,0:0|0:0,0:0:0:0:
328,90,44461,1,2,0:0:0:0:
471,96,44627,1,10,0:0:0:0:
317,96,44794,2,0,L|314:216,1,90,2|2,0:0|0:0,0:0:0:0:
163,208,45128,2,0,L|130:152,2,45,10|2|2,0:0|0:0|0:0,0:0:0:0:
388,235,45461,6,0,P|384:185|296:129,1,135,2|2,0:0|0:0,0:0:0:0:
273,131,45794,1,2,0:0:0:0:
128,135,45961,1,10,0:0:0:0:
280,133,46128,2,0,L|408:126,1,90,2|2,0:0|0:0,0:0:0:0:
216,225,46461,2,0,L|266:224,1,45,10|2,0:0|0:0,0:0:0:0:
319,222,46628,1,2,0:0:0:0:
165,224,46794,6,0,P|112:224|159:168,1,135,2|2,0:0|0:0,0:0:0:0:
178,159,47128,1,2,0:0:0:0:
322,152,47294,1,10,0:0:0:0:
169,138,47461,2,0,L|-5:129,2,135,2|2|2,0:0|0:0|0:0,0:0:0:0:
393,260,48128,6,0,B|293:259|293:259|339:259,1,135,2|2,0:0|0:0,0:0:0:0:
378,260,48461,1,2,0:0:0:0:
225,270,48628,1,10,0:0:0:0:
225,270,48794,2,0,L|355:261,1,90,2|2,0:0|0:0,0:0:0:0:
162,244,49128,2,0,L|105:199,2,45,10|2|2,0:0|0:0|0:0,0:0:0:0:
316,249,49461,6,0,P|356:208|361:132,1,135,2|2,0:0|0:0,0:0:0:0:
310,36,49794,1,2,0:0:0:0:
165,35,49961,1,10,0:0:0:0:
316,155,50128,2,0,L|406:155,1,90,2|2,0:0|0:0,0:0:0:0:
251,160,50461,2,0,L|226:229,2,45,10|2|2,0:0|0:0|0:0,0:0:0:0:
477,140,50794,6,0,P|476:193|377:228,1,135,2|2,0:0|0:0,0:0:0:0:
363,241,51128,1,2,0:0:0:0:
209,237,51294,1,10,0:0:0:0:
209,237,51461,2,0,L|316:235,1,90,2|2,0:0|0:0,0:0:0:0:
145,233,51794,2,0,L|112:180,2,45,10|2|2,0:0|0:0|0:0,0:0:0:0:
298,236,52128,6,0,L|307:131,1,90,0|0,0:0|0:0,0:0:0:0:
246,141,52378,1,0,0:0:0:0:
187,139,52461,2,0,L|185:35,1,90,0|0,0:0|0:0,0:0:0:0:
244,44,52711,1,0,0:0:0:0:
302,44,52795,2,0,L|197:48,1,90,0|0,0:0|0:0,0:0:0:0:
171,90,53045,1,0,0:0:0:0:
212,47,53128,2,0,L|327:43,1,90,0|0,0:0|0:0,0:0:0:0:
304,102,53378,1,0,0:0:0:0:
134,216,53461,6,0,L|9:218,1,99.0000030212403,6|10,3:2|0:0,0:0:0:0:
193,217,53795,2,0,L|200:97,1,99.0000030212403,2|10,3:0|0:0,0:0:0:0:
426,102,54128,2,0,L|377:51,1,49.5000015106202,2|0,3:0|0:0,0:0:0:0:
332,49,54295,1,10,0:0:0:0:
173,43,54461,2,0,L|210:119,1,49.5000015106202,2|2,3:0|0:0,0:0:0:0:
256,107,54628,1,10,0:0:0:0:
485,217,54795,6,0,L|348:213,1,99.0000030212403,2|10,3:0|0:0,0:0:0:0:
336,214,55045,1,2,0:0:0:0:
386,214,55128,2,0,L|501:216,1,99.0000030212403,2|10,3:0|0:0,0:0:0:0:
255,216,55461,1,2,3:0:0:0:
228,174,55545,1,0,0:0:0:0:
255,216,55628,2,0,L|465:215,1,161.999995056153,10|2,0:0|3:0,0:0:0:0:
441,176,55878,1,2,0:0:0:0:
416,215,55961,1,10,0:0:0:0:
189,221,56128,6,0,L|44:222,1,99.0000030212403,2|10,3:0|0:0,0:0:0:0:
159,221,56378,1,2,0:0:0:0:
228,220,56461,2,0,L|90:224,1,99.0000030212403,2|10,3:0|0:0,0:0:0:0:
357,77,56795,2,0,L|474:75,1,99.0000030212403,2|10,3:0|0:0,0:0:0:0:
296,178,57128,2,0,L|381:181,1,49.5000015106202,2|2,3:0|0:0,0:0:0:0:
410,184,57295,1,10,0:0:0:0:
185,118,57461,6,0,L|51:118,1,99.0000030212403,2|10,3:0|0:0,0:0:0:0:
40,164,57711,1,2,0:0:0:0:
86,118,57795,2,0,L|191:116,1,99.0000030212403,2|10,3:0|0:0,0:0:0:0:
413,246,58128,2,0,L|254:245,2,148.50000453186,2|2|10,3:0|0:0|0:0,0:0:0:0:
181,90,58795,6,0,L|178:209,1,99.0000030212403,2|10,3:0|0:0,0:0:0:0:
248,192,59045,1,2,0:0:0:0:
317,193,59128,2,0,L|197:195,1,99.0000030212403,2|10,3:0|0:0,0:0:0:0:
449,87,59461,2,0,L|449:188,1,99.0000030212403,2|10,3:0|0:0,0:0:0:0:
293,209,59795,2,0,L|219:207,1,49.5000015106202,2|2,3:0|0:0,0:0:0:0:
183,205,59961,1,10,0:0:0:0:
411,251,60128,6,0,L|412:140,1,99.0000030212403,2|10,3:0|0:0,0:0:0:0:
342,150,60378,1,2,0:0:0:0:
272,155,60462,2,0,L|273:45,1,99.0000030212403,2|10,3:0|0:0,0:0:0:0:
34,50,60795,2,0,L|155:46,1,99.0000030212403,2|10,3:0|0:0,0:0:0:0:
281,42,61128,2,0,L|214:48,1,49.5000015106202,2|2,3:0|0:0,0:0:0:0:
167,54,61295,1,10,0:0:0:0:
390,97,61462,6,0,P|448:118|431:175,1,99.0000030212403,2|10,3:0|0:0,0:0:0:0:
436,195,61712,1,2,0:0:0:0:
356,201,61795,2,0,L|476:201,1,99.0000030212403,2|10,3:0|0:0,0:0:0:0:
230,182,62128,2,0,L|96:180,1,99.0000030212403,2|10,3:0|0:0,0:0:0:0:
289,157,62462,2,0,L|364:153,1,49.5000015106202,2|2,3:0|0:0,0:0:0:0:
397,153,62628,1,10,0:0:0:0:
171,67,62795,6,0,P|121:96|115:140,1,99.0000030212403,2|10,3:0|0:0,0:0:0:0:
131,179,63045,1,2,0:0:0:0:
211,182,63128,2,0,L|350:189,1,99.0000030212403,2|10,3:0|0:0,0:0:0:0:
72,329,63462,2,0,L|71:213,1,99.0000030212403,2|10,3:0|0:0,0:0:0:0:
229,234,63795,2,0,L|171:228,1,49.5000015106202,2|2,3:0|0:0,0:0:0:0:
116,215,63962,1,10,0:0:0:0:
359,251,64128,6,0,P|444:227|334:31,1,396.000012084961,2|0,0:0|0:0,0:0:0:0:
54,89,65462,6,0,L|485:53,1,396.000012084961,2|0,0:0|0:0,0:0:0:0:
448,56,66795,6,0,L|37:42,1,396.000012084961,2|0,0:0|0:0,0:0:0:0:
52,42,68129,6,0,L|466:59,1,396.000012084961,2|0,0:0|0:0,0:0:0:0:
56,86,69462,6,0,L|55:231,1,107.999996704102,6|8,3:2|0:0,0:0:0:0:
206,206,69795,2,0,L|205:66,1,107.999996704102,2|8,3:0|0:0,0:0:0:0:
433,86,70129,2,0,L|432:206,1,107.999996704102,2|8,3:0|0:0,0:0:0:0:
284,230,70462,2,0,L|414:228,1,107.999996704102,2|8,3:0|0:0,0:0:0:0:
168,81,70795,6,0,L|52:81,3,107.999996704102,2|8|2|8,3:0|0:0|3:0|0:0,0:0:0:0:
287,74,71462,2,0,L|286:211,1,107.999996704102,2|8,3:0|0:0,0:0:0:0:
437,192,71795,2,0,L|441:304,1,107.999996704102,2|8,3:0|0:0,0:0:0:0:
213,305,72129,6,0,L|84:306,1,107.999996704102,2|8,3:0|0:0,0:0:0:0:
252,268,72462,2,0,L|403:261,1,107.999996704102,2|8,3:0|0:0,0:0:0:0:
132,82,72795,2,0,L|15:82,3,107.999996704102,2|8|2|8,3:0|0:0|3:0|0:0,0:0:0:0:
251,89,73462,6,0,L|252:223,1,107.999996704102,2|8,3:0|0:0,0:0:0:0:
402,207,73795,2,0,L|408:342,1,107.999996704102,2|8,3:0|0:0,0:0:0:0:
179,278,74129,2,0,L|307:256,1,107.999996704102,2|8,3:0|0:0,0:0:0:0:
425,199,74462,2,0,L|288:192,1,107.999996704102,2|8,3:0|0:0,0:0:0:0:
74,115,74795,6,0,L|254:114,3,180,2|2|2|2,0:0|0:0|0:0|0:0,0:0:0:0:
239,293,76129,6,0,L|47:303,3,180,2|2|2|2,0:0|0:0|0:0|0:0,0:0:0:0:
454,88,77462,5,2,0:0:0:0:
454,88,77629,1,2,0:0:0:0:
286,94,77796,2,0,L|396:93,3,99.0000030212403,2|2|2|2,0:0|0:0|0:0|0:0,0:0:0:0:
135,89,78462,2,0,L|136:211,1,99.0000030212403,2|2,0:0|0:0,0:0:0:0:
294,189,78796,5,2,0:0:0:0:
135,189,78962,1,2,0:0:0:0:
382,103,79129,2,0,L|517:103,1,99.0000030212403,2|2,0:0|0:0,0:0:0:0:
251,134,79462,1,2,0:0:0:0:
