osu file format v14

[General]
AudioFilename: audio.mp3
AudioLeadIn: 0
PreviewTime: 5347
Countdown: 0
SampleSet: Normal
StackLeniency: 0.7
Mode: 1
LetterboxInBreaks: 0
WidescreenStoryboard: 1

[Editor]
DistanceSpacing: 0.8
BeatDivisor: 1
GridSize: 32
TimelineZoom: 3.299999

[Metadata]
Title:Amalgam
TitleUnicode:Amalgam
Artist:toby fox
ArtistUnicode:toby fox
Creator:Antti
Version:Oni
Source:UNDERTALE
Tags:video game instrumental "radiation" original soundtrack ost music vgm amalgamate true lab endogeny electronic
BeatmapID:3383133
BeatmapSetID:1657476

[Difficulty]
HPDrainRate:5
CircleSize:2
OverallDifficulty:5.5
ApproachRate:10
SliderMultiplier:1.4
SliderTickRate:1

[Events]
//Background and Video events
0,0,"amgalmalgamma.png",0,-30
//Break Periods
//Storyboard Layer 0 (Background)
//Storyboard Layer 1 (Fail)
//Storyboard Layer 2 (Pass)
//Storyboard Layer 3 (Foreground)
//Storyboard Layer 4 (Overlay)
//Storyboard Sound Samples

[TimingPoints]
35,333.333333333333,4,1,0,80,1,0
10701,-95.2380952380952,4,1,0,80,0,0
21034,-94.3396226415094,4,1,0,80,0,0
21201,-92.5925925925926,4,1,0,80,0,0
21284,-91.743119266055,4,1,0,80,0,0
21368,-90.9090909090909,4,1,0,80,0,0
42368,-93.0232558139535,4,1,0,80,0,0
42534,-95.2380952380952,4,1,0,80,0,0
48034,-95.2380952380952,4,1,0,80,0,0
48201,-94.9558502774135,4,1,0,80,0,0
48368,-94.6752732801763,4,1,0,80,0,0
48534,-94.396349504372,4,1,0,80,0,0
48701,-94.1190643812048,4,1,0,80,0,0
49034,-93.5693526685044,4,1,0,80,0,0
49118,-93.4329702528109,4,1,0,80,0,0
49201,-93.2968977848518,4,1,0,80,0,0
49368,-93.0261114992367,4,1,0,80,0,0
49534,-92.7568064944606,4,1,0,80,0,0
49701,-92.4890562324213,4,1,0,80,0,0
49868,-92.2228472881872,4,1,0,80,0,0
50034,-91.9581663909454,4,1,0,80,0,0
50368,-91.433336411589,4,1,0,80,0,0
50451,-91.3030219474204,4,1,0,80,0,0
50534,-91.1731615387842,4,1,0,80,0,0
50701,-90.9144631273666,4,1,0,80,0,0
50868,-90.6572286447832,4,1,0,80,0,0
51034,-90.4014456999196,4,1,0,80,0,0
51201,-90.1471020411107,4,1,0,80,0,0
51368,-89.8941855541842,4,1,0,80,0,0
51701,-89.3925863152465,4,1,0,80,0,0
51784,-89.2680997767405,4,1,0,80,0,0
51868,-89.143880005206,4,1,0,80,0,0
52034,-88.8966327733438,4,1,0,80,0,0
52201,-88.6506746759596,4,1,0,80,0,0
52368,-88.4060738508979,4,1,0,80,0,0
52534,-88.1628190943034,4,1,0,80,0,0
52701,-87.920899325295,4,1,0,80,0,0
53034,-87.4410210313144,4,1,0,80,0,0
53118,-87.3218307196454,4,1,0,80,0,0
53201,-87.2030409444438,4,1,0,80,0,0
53368,-86.9663527181334,4,1,0,85,0,1
63868,-86.9663527181334,4,1,0,85,0,0
64034,-86.9663527181334,4,1,0,85,0,1
64701,-86.9663527181334,4,1,0,85,0,0
65368,-86.9663527181334,4,1,0,85,0,1
66034,-86.9663527181334,4,1,0,85,0,0
66701,-86.9663527181334,4,1,0,85,0,1
67368,-86.9663527181334,4,1,0,85,0,0
68034,-86.9663527181334,4,1,0,85,0,1
68701,-86.9663527181334,4,1,0,85,0,0
69368,-86.9663527181334,4,1,0,85,0,1
70701,-90.9090909090909,4,1,0,85,0,1
72034,-95.2380952380952,4,1,0,85,0,1
73368,-100,4,1,0,85,0,1
74701,-100,4,1,0,80,0,0
75034,-98.7685536728074,4,1,0,80,0,0
75368,-97.5671627956895,4,1,0,80,0,0
75701,-96.3945544788284,4,1,0,80,0,0
76034,-95.2498880813815,4,1,0,80,0,0
76368,-94.1319994201469,4,1,0,80,0,0
76701,-93.0401328613097,4,1,0,80,0,0
77034,-91.9732210769512,4,1,0,80,0,0
77368,-90.9090909090909,4,1,0,80,0,0
77534,-89.8911148925307,4,1,0,80,0,0
77701,-88.8957634945991,4,1,0,80,0,0
78034,-86.9696049927511,4,1,0,80,0,0
78201,-86.037491697382,4,1,0,80,0,0
78368,-85.1252191974394,4,1,0,80,0,0
78701,-83.3573680411185,4,1,0,80,0,0
78868,-82.500695068356,4,1,0,80,0,0
79034,-81.6615179079626,4,1,0,80,0,0
79368,-80.0332297970117,4,1,0,80,0,0

[HitObjects]
256,192,35,5,0,0:0:0:0:
256,192,534,1,8,0:0:0:0:
256,192,1201,1,0,0:0:0:0:
256,192,1868,1,8,0:0:0:0:
256,192,2701,1,0,0:0:0:0:
256,192,3201,1,0,0:0:0:0:
256,192,4034,1,8,0:0:0:0:
256,192,4534,1,8,0:0:0:0:
256,192,5368,1,0,0:0:0:0:
256,192,5868,1,8,0:0:0:0:
256,192,6534,1,0,0:0:0:0:
256,192,7201,1,8,0:0:0:0:
256,192,8034,1,0,0:0:0:0:
256,192,8534,1,0,0:0:0:0:
256,192,9368,1,8,0:0:0:0:
256,192,9868,1,8,0:0:0:0:
256,192,10701,1,8,0:0:0:0:
256,192,10784,1,8,0:0:0:0:
256,192,10868,1,0,0:0:0:0:
256,192,11034,1,8,0:0:0:0:
256,192,11201,1,8,0:0:0:0:
256,192,11368,1,0,0:0:0:0:
256,192,11451,1,0,0:0:0:0:
256,192,11534,1,8,0:0:0:0:
256,192,11701,1,8,0:0:0:0:
256,192,11868,1,0,0:0:0:0:
256,192,12201,1,0,0:0:0:0:
256,192,12368,1,8,0:0:0:0:
256,192,12534,1,8,0:0:0:0:
256,192,12868,1,0,0:0:0:0:
256,192,13034,1,8,0:0:0:0:
256,192,13368,1,8,0:0:0:0:
256,192,13534,1,0,0:0:0:0:
256,192,13701,1,8,0:0:0:0:
256,192,13868,1,8,0:0:0:0:
256,192,14201,1,0,0:0:0:0:
256,192,14368,1,8,0:0:0:0:
256,192,14701,1,8,0:0:0:0:
256,192,14868,1,0,0:0:0:0:
256,192,15034,1,8,0:0:0:0:
256,192,15201,1,8,0:0:0:0:
256,192,15534,1,0,0:0:0:0:
256,192,15701,1,8,0:0:0:0:
256,192,15868,1,0,0:0:0:0:
256,192,15951,1,0,0:0:0:0:
256,192,16034,1,8,0:0:0:0:
256,192,16201,1,0,0:0:0:0:
256,192,16368,1,8,0:0:0:0:
256,192,16534,1,8,0:0:0:0:
256,192,16868,1,0,0:0:0:0:
256,192,17034,1,8,0:0:0:0:
256,192,17201,1,0,0:0:0:0:
256,192,17534,1,0,0:0:0:0:
256,192,17701,1,8,0:0:0:0:
256,192,17868,1,8,0:0:0:0:
256,192,18201,1,0,0:0:0:0:
256,192,18368,1,8,0:0:0:0:
256,192,18701,1,0,0:0:0:0:
256,192,18868,1,0,0:0:0:0:
256,192,19034,1,8,0:0:0:0:
256,192,19201,1,8,0:0:0:0:
256,192,19534,1,0,0:0:0:0:
256,192,19701,1,8,0:0:0:0:
256,192,20034,1,8,0:0:0:0:
256,192,20201,1,0,0:0:0:0:
256,192,20368,1,8,0:0:0:0:
256,192,20534,1,8,0:0:0:0:
256,192,20868,1,0,0:0:0:0:
256,192,21034,1,8,0:0:0:0:
256,192,21201,1,8,0:0:0:0:
256,192,21284,1,8,0:0:0:0:
256,192,21368,1,8,0:0:0:0:
256,192,21534,1,0,0:0:0:0:
256,192,21701,1,8,0:0:0:0:
256,192,21868,1,8,0:0:0:0:
256,192,22201,1,0,0:0:0:0:
256,192,22368,1,8,0:0:0:0:
256,192,22534,1,0,0:0:0:0:
256,192,22868,1,0,0:0:0:0:
256,192,23034,1,8,0:0:0:0:
256,192,23201,1,8,0:0:0:0:
256,192,23534,1,0,0:0:0:0:
256,192,23701,1,8,0:0:0:0:
256,192,24034,1,8,0:0:0:0:
256,192,24201,1,0,0:0:0:0:
256,192,24368,1,8,0:0:0:0:
256,192,24534,1,8,0:0:0:0:
256,192,24868,1,0,0:0:0:0:
256,192,25034,1,8,0:0:0:0:
256,192,25368,1,8,0:0:0:0:
256,192,25534,1,0,0:0:0:0:
256,192,25701,1,8,0:0:0:0:
256,192,25868,1,8,0:0:0:0:
256,192,26201,1,0,0:0:0:0:
256,192,26368,1,8,0:0:0:0:
256,192,26701,1,8,0:0:0:0:
256,192,26868,1,0,0:0:0:0:
256,192,27034,1,8,0:0:0:0:
256,192,27201,1,8,0:0:0:0:
256,192,27534,1,0,0:0:0:0:
256,192,27701,1,8,0:0:0:0:
256,192,27868,1,8,0:0:0:0:
256,192,28201,1,0,0:0:0:0:
256,192,28368,1,8,0:0:0:0:
256,192,28534,1,8,0:0:0:0:
256,192,28868,1,0,0:0:0:0:
256,192,29034,1,8,0:0:0:0:
256,192,29368,1,8,0:0:0:0:
256,192,29534,1,0,0:0:0:0:
256,192,29701,1,8,0:0:0:0:
256,192,29868,1,8,0:0:0:0:
256,192,30201,1,0,0:0:0:0:
256,192,30368,1,8,0:0:0:0:
256,192,30701,1,8,0:0:0:0:
256,192,30868,1,0,0:0:0:0:
256,192,31034,1,8,0:0:0:0:
256,192,31201,1,8,0:0:0:0:
256,192,31534,1,8,0:0:0:0:
256,192,32034,1,8,0:0:0:0:
256,192,32201,1,0,0:0:0:0:
256,192,32368,1,8,0:0:0:0:
256,192,32534,1,8,0:0:0:0:
256,192,32868,1,0,0:0:0:0:
256,192,33034,1,8,0:0:0:0:
256,192,33201,1,0,0:0:0:0:
256,192,33534,1,0,0:0:0:0:
256,192,33701,1,8,0:0:0:0:
256,192,33868,1,8,0:0:0:0:
256,192,34201,1,0,0:0:0:0:
256,192,34368,1,8,0:0:0:0:
256,192,34701,1,8,0:0:0:0:
256,192,34868,1,0,0:0:0:0:
256,192,35034,1,8,0:0:0:0:
256,192,35201,1,8,0:0:0:0:
256,192,35534,1,0,0:0:0:0:
256,192,35701,1,8,0:0:0:0:
256,192,36034,1,8,0:0:0:0:
256,192,36201,1,0,0:0:0:0:
256,192,36368,1,8,0:0:0:0:
256,192,36534,1,8,0:0:0:0:
256,192,36868,1,0,0:0:0:0:
256,192,37034,1,8,0:0:0:0:
256,192,37368,1,8,0:0:0:0:
256,192,37534,1,0,0:0:0:0:
256,192,37701,1,8,0:0:0:0:
256,192,37868,1,8,0:0:0:0:
256,192,38201,1,0,0:0:0:0:
256,192,38368,1,8,0:0:0:0:
256,192,38534,1,8,0:0:0:0:
256,192,38868,1,0,0:0:0:0:
256,192,39034,1,8,0:0:0:0:
256,192,39201,1,8,0:0:0:0:
256,192,39534,1,0,0:0:0:0:
256,192,39701,1,8,0:0:0:0:
256,192,40034,1,8,0:0:0:0:
256,192,40201,1,0,0:0:0:0:
256,192,40368,1,8,0:0:0:0:
256,192,40534,1,8,0:0:0:0:
256,192,40868,1,0,0:0:0:0:
256,192,41034,1,8,0:0:0:0:
256,192,41368,1,8,0:0:0:0:
256,192,41534,1,0,0:0:0:0:
256,192,41701,1,8,0:0:0:0:
256,192,41868,1,8,0:0:0:0:
256,192,42201,1,8,0:0:0:0:
256,192,42368,1,0,0:0:0:0:
256,192,42534,1,8,0:0:0:0:
256,192,42618,1,0,0:0:0:0:
256,192,42701,1,8,0:0:0:0:
256,192,42868,1,0,0:0:0:0:
256,192,43034,1,8,0:0:0:0:
256,192,43201,1,0,0:0:0:0:
256,192,43368,1,8,0:0:0:0:
256,192,43701,1,8,0:0:0:0:
256,192,43784,1,8,0:0:0:0:
256,192,43868,1,0,0:0:0:0:
256,192,44034,1,8,0:0:0:0:
256,192,44201,1,8,0:0:0:0:
256,192,44368,1,8,0:0:0:0:
256,192,44534,1,0,0:0:0:0:
256,192,44701,1,8,0:0:0:0:
256,192,45034,1,8,0:0:0:0:
256,192,45118,1,8,0:0:0:0:
256,192,45201,1,0,0:0:0:0:
256,192,45368,1,8,0:0:0:0:
256,192,45534,1,0,0:0:0:0:
256,192,45701,1,8,0:0:0:0:
256,192,45868,1,0,0:0:0:0:
256,192,46034,1,8,0:0:0:0:
256,192,46368,1,8,0:0:0:0:
256,192,46451,1,8,0:0:0:0:
256,192,46534,1,0,0:0:0:0:
256,192,46701,1,8,0:0:0:0:
256,192,46868,1,8,0:0:0:0:
256,192,47034,1,8,0:0:0:0:
256,192,47201,1,0,0:0:0:0:
256,192,47368,1,8,0:0:0:0:
256,192,47451,1,0,0:0:0:0:
256,192,47534,1,0,0:0:0:0:
256,192,47618,1,8,0:0:0:0:
256,192,47784,1,0,0:0:0:0:
256,192,47868,1,8,0:0:0:0:
256,192,48034,1,8,0:0:0:0:
256,192,48201,1,0,0:0:0:0:
256,192,48368,1,8,0:0:0:0:
256,192,48534,1,0,0:0:0:0:
256,192,48701,1,8,0:0:0:0:
256,192,49034,1,8,0:0:0:0:
256,192,49118,1,8,0:0:0:0:
256,192,49201,1,0,0:0:0:0:
256,192,49368,1,8,0:0:0:0:
256,192,49534,1,8,0:0:0:0:
256,192,49701,1,8,0:0:0:0:
256,192,49868,1,0,0:0:0:0:
256,192,50034,1,8,0:0:0:0:
256,192,50368,1,8,0:0:0:0:
256,192,50451,1,8,0:0:0:0:
256,192,50534,1,0,0:0:0:0:
256,192,50701,1,8,0:0:0:0:
256,192,50868,1,0,0:0:0:0:
256,192,51034,1,8,0:0:0:0:
256,192,51201,1,0,0:0:0:0:
256,192,51368,1,8,0:0:0:0:
256,192,51701,1,8,0:0:0:0:
256,192,51784,1,8,0:0:0:0:
256,192,51868,1,0,0:0:0:0:
256,192,52034,1,8,0:0:0:0:
256,192,52201,1,8,0:0:0:0:
256,192,52368,1,8,0:0:0:0:
256,192,52534,1,0,0:0:0:0:
256,192,52701,1,8,0:0:0:0:
256,192,53034,1,8,0:0:0:0:
256,192,53118,1,8,0:0:0:0:
256,192,53201,1,8,0:0:0:0:
256,192,53368,1,0,0:0:0:0:
256,192,53534,1,8,0:0:0:0:
256,192,53618,1,8,0:0:0:0:
256,192,53701,1,0,0:0:0:0:
256,192,53868,1,8,0:0:0:0:
256,192,53951,1,8,0:0:0:0:
256,192,54034,1,0,0:0:0:0:
256,192,54368,1,0,0:0:0:0:
256,192,54451,1,0,0:0:0:0:
256,192,54534,1,8,0:0:0:0:
256,192,54701,1,0,0:0:0:0:
256,192,54868,1,8,0:0:0:0:
256,192,54951,1,8,0:0:0:0:
256,192,55034,1,0,0:0:0:0:
256,192,55201,1,0,0:0:0:0:
256,192,55284,1,0,0:0:0:0:
256,192,55368,1,8,0:0:0:0:
256,192,55701,1,8,0:0:0:0:
256,192,55784,1,8,0:0:0:0:
256,192,55868,1,0,0:0:0:0:
256,192,56034,1,8,0:0:0:0:
256,192,56201,1,0,0:0:0:0:
256,192,56284,1,0,0:0:0:0:
256,192,56368,1,8,0:0:0:0:
256,192,56534,1,0,0:0:0:0:
256,192,56618,1,0,0:0:0:0:
256,192,56701,1,8,0:0:0:0:
256,192,57034,1,8,0:0:0:0:
256,192,57118,1,8,0:0:0:0:
256,192,57201,1,0,0:0:0:0:
256,192,57368,1,8,0:0:0:0:
256,192,57534,1,0,0:0:0:0:
256,192,57618,1,0,0:0:0:0:
256,192,57701,1,8,0:0:0:0:
256,192,57868,1,0,0:0:0:0:
256,192,57951,1,0,0:0:0:0:
256,192,58034,1,8,0:0:0:0:
256,192,58118,1,8,0:0:0:0:
256,192,58201,1,0,0:0:0:0:
256,192,58284,1,8,0:0:0:0:
256,192,58451,1,0,0:0:0:0:
256,192,58534,1,8,0:0:0:0:
256,192,58701,1,8,0:0:0:0:
256,192,58868,1,0,0:0:0:0:
256,192,58951,1,0,0:0:0:0:
256,192,59034,1,8,0:0:0:0:
256,192,59201,1,0,0:0:0:0:
256,192,59368,1,8,0:0:0:0:
256,192,59701,1,8,0:0:0:0:
256,192,59784,1,8,0:0:0:0:
256,192,59868,1,0,0:0:0:0:
256,192,60034,1,8,0:0:0:0:
256,192,60201,1,0,0:0:0:0:
256,192,60284,1,0,0:0:0:0:
256,192,60368,1,8,0:0:0:0:
256,192,60534,1,0,0:0:0:0:
256,192,60701,1,8,0:0:0:0:
256,192,61034,1,8,0:0:0:0:
256,192,61118,1,8,0:0:0:0:
256,192,61201,1,0,0:0:0:0:
256,192,61368,1,8,0:0:0:0:
256,192,61534,1,0,0:0:0:0:
256,192,61618,1,0,0:0:0:0:
256,192,61701,1,8,0:0:0:0:
256,192,61868,1,0,0:0:0:0:
256,192,62034,1,8,0:0:0:0:
256,192,62368,1,8,0:0:0:0:
256,192,62451,1,8,0:0:0:0:
256,192,62534,1,0,0:0:0:0:
256,192,62701,1,8,0:0:0:0:
256,192,62868,1,0,0:0:0:0:
256,192,62951,1,0,0:0:0:0:
256,192,63034,1,8,0:0:0:0:
256,192,63201,1,0,0:0:0:0:
256,192,63368,1,8,0:0:0:0:
256,192,63701,1,8,0:0:0:0:
256,192,63784,1,8,0:0:0:0:
256,192,63868,1,0,0:0:0:0:
0,96,64034,2,0,L|330:128,1,321.963593884087
64,64,65368,2,0,L|397:66,1,321.963593884087
96,96,66701,2,0,L|426:133,1,321.963593884087
96,96,68034,2,0,L|426:165,1,321.963593884087
96,96,69368,2,0,L|421:96,1,321.963593884087
256,192,70368,1,0,0:0:0:0:
64,96,70701,2,0,L|375:125,1,308.000009399414
256,192,71701,1,8,0:0:0:0:
60,94,72034,2,0,L|361:130,1,293.999991027832
256,192,73034,1,0,0:0:0:0:
96,96,73368,2,0,L|375:94,1,280
256,192,74368,1,8,0:0:0:0:
256,192,74701,1,0,0:0:0:0:
256,192,75034,1,0,0:0:0:0:
256,192,75368,1,0,0:0:0:0:
256,192,75701,1,0,0:0:0:0:
256,192,76034,1,0,0:0:0:0:
256,192,76368,1,0,0:0:0:0:
256,192,76701,1,0,0:0:0:0:
256,192,77034,1,0,0:0:0:0:
256,192,77368,1,8,0:0:0:0:
256,192,77534,1,8,0:0:0:0:
256,192,77701,1,8,0:0:0:0:
256,192,78034,1,8,0:0:0:0:
256,192,78201,1,8,0:0:0:0:
256,192,78368,1,8,0:0:0:0:
256,192,78701,1,8,0:0:0:0:
256,192,78868,1,8,0:0:0:0:
256,192,79034,1,8,0:0:0:0:
256,192,79368,1,8,0:0:0:0:
