osu file format v14

[General]
AudioFilename: audio.mp3
AudioLeadIn: 0
PreviewTime: 5347
Countdown: 0
SampleSet: Normal
StackLeniency: 0.7
Mode: 1
LetterboxInBreaks: 0
WidescreenStoryboard: 0

[Editor]
DistanceSpacing: 0.8
BeatDivisor: 4
GridSize: 32
TimelineZoom: 3.299999

[Metadata]
Title:Amalgam
TitleUnicode:Amalgam
Artist:toby fox
ArtistUnicode:toby fox
Creator:Antti
Version:No data available.
Source:UNDERTALE
Tags:video game instrumental "radiation" original soundtrack ost music vgm amalgamate true lab endogeny electronic
BeatmapID:3383102
BeatmapSetID:1657476

[Difficulty]
HPDrainRate:6
CircleSize:2
OverallDifficulty:6
ApproachRate:10
SliderMultiplier:1.4
SliderTickRate:1

[Events]
//Background and Video events
0,0,"amgalmalgamma.png",0,-30
//Break Periods
//Storyboard Layer 0 (Background)
//Storyboard Layer 1 (Fail)
//Storyboard Layer 2 (Pass)
//Storyboard Layer 3 (Foreground)
//Storyboard Layer 4 (Overlay)
//Storyboard Sound Samples

[TimingPoints]
35,333.333333333333,4,1,0,80,1,0
10701,-95.2380952380952,4,1,0,80,0,0
21034,-94.3396226415094,4,1,0,80,0,0
21201,-92.5925925925926,4,1,0,80,0,0
21284,-91.743119266055,4,1,0,80,0,0
21368,-90.9090909090909,4,1,0,80,0,0
42201,-95.2380952380952,4,1,0,80,0,0
42368,-100,4,1,0,80,0,0
48034,-100,4,1,0,80,0,0
48201,-98.1688563230069,4,1,0,80,0,0
48284,-97.2782517930814,4,1,0,80,0,0
48368,-96.4035684744906,4,1,0,80,0,0
48534,-94.7006465213138,4,1,0,80,0,0
48701,-93.0569294377221,4,1,0,80,0,0
48868,-91.4692151209589,4,1,0,80,0,0
49034,-89.9347703110934,4,1,0,80,0,0
49118,-89.1866533956926,4,1,0,80,0,0
49201,-88.4509583661339,4,1,0,80,0,0
49368,-100,4,1,0,80,0,0
49534,-98.159509202454,4,1,0,80,0,0
49618,-97.2644376899696,4,1,0,80,0,0
49701,-96.3855421686747,4,1,0,80,0,0
49868,-94.6745562130178,4,1,0,80,0,0
50034,-93.0232558139535,4,1,0,80,0,0
50201,-91.4285714285714,4,1,0,80,0,0
50368,-89.8876404494382,4,1,0,80,0,0
50451,-89.1364902506964,4,1,0,80,0,0
50534,-88.3977900552486,4,1,0,80,0,0
50701,-100,4,1,0,80,0,0
50868,-98.159509202454,4,1,0,80,0,0
50951,-97.2644376899696,4,1,0,80,0,0
51034,-96.3855421686747,4,1,0,80,0,0
51201,-94.6745562130178,4,1,0,80,0,0
51368,-93.0232558139535,4,1,0,80,0,0
51534,-91.4285714285714,4,1,0,80,0,0
51701,-89.8876404494382,4,1,0,80,0,0
51784,-89.1364902506964,4,1,0,80,0,0
51868,-88.3977900552486,4,1,0,80,0,0
52034,-87.719298245614,4,1,0,80,0,0
52201,-88.1057268722467,4,1,0,80,0,0
52284,-88.3002207505519,4,1,0,80,0,0
52368,-88.4955752212389,4,1,0,80,0,0
52534,-89.2857142857143,4,1,0,80,0,0
52701,-90.4977375565611,4,1,0,80,0,0
52868,-91.743119266055,4,1,0,80,0,0
53034,-93.8967136150235,4,1,0,80,0,0
53118,-95.1248513674197,4,1,0,80,0,0
53201,-96.1538461538461,4,1,0,80,0,0
53368,-86.9565217391304,4,1,0,85,0,1
58701,-86.9565217391304,4,1,0,85,0,1
58868,-85.5614973262032,4,1,0,85,0,1
58951,-84.8806366047745,4,1,0,85,0,1
59034,-84.2105263157895,4,1,0,85,0,1
59118,-83.5509138381201,4,1,0,85,0,1
59201,-82.9015544041451,4,1,0,85,0,1
59368,-81.6326530612245,4,1,0,85,0,1
59534,-80.4020100502513,4,1,0,85,0,1
59701,-79.2079207920792,4,1,0,85,0,1
59784,-78.6240786240786,4,1,0,85,0,1
59868,-78.0487804878049,4,1,0,85,0,1
60034,-86.9565217391304,4,1,0,85,0,1
60201,-85.5685990623393,4,1,0,85,0,1
60284,-84.8911568033046,4,1,0,85,0,1
60368,-84.224285904392,4,1,0,85,0,1
60451,-83.5678805179872,4,1,0,85,0,1
60534,-82.9215586931231,4,1,0,85,0,1
60701,-81.6585838278441,4,1,0,85,0,1
60868,-80.4334397199629,4,1,0,85,0,1
61034,-79.2445144965953,4,1,0,85,0,1
61118,-78.6631048012813,4,1,0,85,0,1
61201,-78.0902254464809,4,1,0,85,0,1
61368,-86.9565217391304,4,1,0,85,0,1
61534,-85.5614973262032,4,1,0,85,0,1
61618,-84.8806366047745,4,1,0,85,0,1
61701,-84.2105263157895,4,1,0,85,0,1
61784,-83.5509138381201,4,1,0,85,0,1
61868,-82.9015544041451,4,1,0,85,0,1
62034,-81.6326530612245,4,1,0,85,0,1
62201,-80.4020100502513,4,1,0,85,0,1
62368,-79.2079207920792,4,1,0,85,0,1
62451,-78.6240786240786,4,1,0,85,0,1
62534,-78.0487804878049,4,1,0,85,0,1
62701,-86.9565217391304,4,1,0,85,0,1
62868,-85.5614973262032,4,1,0,85,0,1
62951,-84.8806366047745,4,1,0,85,0,1
63034,-84.2105263157895,4,1,0,85,0,1
63118,-83.5509138381201,4,1,0,85,0,1
63201,-82.9015544041451,4,1,0,85,0,1
63368,-81.6326530612245,4,1,0,85,0,1
63534,-80.4020100502513,4,1,0,85,0,1
63701,-79.2079207920792,4,1,0,85,0,1
63784,-78.6240786240786,4,1,0,85,0,1
63868,-78.0487804878049,4,1,0,85,0,0
64034,-76.9230769230769,4,1,0,85,0,1
64035,-68.9655172413793,4,1,0,85,0,1
64701,-100,4,1,0,85,0,0
65368,-86.9565217391304,4,1,0,85,0,1
65369,-68.9655172413793,4,1,0,85,0,1
66034,-100,4,1,0,85,0,0
66701,-100,4,1,0,85,0,1
66702,-68.9655172413793,4,1,0,85,0,1
67368,-100,4,1,0,85,0,0
68034,-117.647058823529,4,1,0,85,0,1
68035,-68.9655172413793,4,1,0,85,0,1
68701,-100,4,1,0,85,0,0
69368,-68.9655172413793,4,1,0,85,0,1
70701,-76.9230769230769,4,1,0,85,0,1
72034,-86.9565217391304,4,1,0,85,0,1
73368,-100,4,1,0,85,0,1
74701,-100,4,1,0,80,0,0
75034,-97.5671627956895,4,1,0,80,0,0
75368,-95.2498880813815,4,1,0,80,0,0
75701,-93.0401328613097,4,1,0,80,0,0
76034,-90.9305835924855,4,1,0,80,0,0
76368,-88.9145753217596,4,1,0,80,0,0
76701,-86.9860213463696,4,1,0,80,0,0
77034,-85.1393518341145,4,1,0,80,0,0
77368,-83.3333333333333,4,1,0,80,0,0
77534,-82.1956766717984,4,1,0,80,0,0
77701,-81.0886639669548,4,1,0,80,0,0
77868,-80.0110735325769,4,1,0,80,0,0
78034,-78.9617477709099,4,1,0,80,0,0
78201,-77.9395890245471,4,1,0,80,0,0
78368,-76.9435557463756,4,1,0,80,0,0
78534,-75.9726589594937,4,1,0,80,0,0
78701,-75.0259589818077,4,1,0,80,0,0
78868,-74.102562392505,4,1,0,80,0,0
79034,-73.2016192198171,4,1,0,80,0,0
79201,-72.3223203314677,4,1,0,80,0,0
79368,-71.4638950109626,4,1,0,80,0,0

[HitObjects]
256,192,35,5,0,0:0:0:0:
256,192,534,1,8,0:0:0:0:
256,192,1201,1,0,0:0:0:0:
256,192,1868,1,8,0:0:0:0:
256,192,2701,1,0,0:0:0:0:
256,192,3201,1,0,0:0:0:0:
256,192,4034,1,8,0:0:0:0:
256,192,4534,1,8,0:0:0:0:
256,192,5368,1,0,0:0:0:0:
256,192,5868,1,8,0:0:0:0:
256,192,6534,1,0,0:0:0:0:
256,192,7201,1,8,0:0:0:0:
256,192,8034,1,0,0:0:0:0:
256,192,8534,1,0,0:0:0:0:
256,192,9368,1,8,0:0:0:0:
256,192,9868,1,8,0:0:0:0:
256,192,10701,1,8,0:0:0:0:
256,192,10784,1,8,0:0:0:0:
256,192,10868,1,0,0:0:0:0:
256,192,10951,1,0,0:0:0:0:
256,192,11034,1,8,0:0:0:0:
256,192,11201,1,8,0:0:0:0:
256,192,11368,1,0,0:0:0:0:
256,192,11451,1,0,0:0:0:0:
256,192,11534,1,8,0:0:0:0:
256,192,11701,1,8,0:0:0:0:
256,192,11868,1,0,0:0:0:0:
256,192,12201,1,0,0:0:0:0:
256,192,12368,1,8,0:0:0:0:
256,192,12534,1,8,0:0:0:0:
256,192,12868,1,0,0:0:0:0:
256,192,13034,1,8,0:0:0:0:
256,192,13201,1,0,0:0:0:0:
256,192,13368,1,8,0:0:0:0:
256,192,13534,1,0,0:0:0:0:
256,192,13701,1,8,0:0:0:0:
256,192,13868,1,8,0:0:0:0:
256,192,14201,1,0,0:0:0:0:
256,192,14368,1,8,0:0:0:0:
256,192,14534,1,0,0:0:0:0:
256,192,14701,1,8,0:0:0:0:
256,192,14868,1,0,0:0:0:0:
256,192,15034,1,8,0:0:0:0:
256,192,15201,1,8,0:0:0:0:
256,192,15534,1,0,0:0:0:0:
256,192,15701,1,8,0:0:0:0:
256,192,15868,1,0,0:0:0:0:
256,192,15951,1,0,0:0:0:0:
256,192,16034,1,8,0:0:0:0:
256,192,16201,1,0,0:0:0:0:
256,192,16368,1,8,0:0:0:0:
256,192,16534,1,8,0:0:0:0:
256,192,16868,1,0,0:0:0:0:
256,192,17034,1,8,0:0:0:0:
256,192,17201,1,0,0:0:0:0:
256,192,17534,1,0,0:0:0:0:
256,192,17701,1,8,0:0:0:0:
256,192,17868,1,8,0:0:0:0:
256,192,18201,1,0,0:0:0:0:
256,192,18368,1,8,0:0:0:0:
256,192,18701,1,0,0:0:0:0:
256,192,18868,1,0,0:0:0:0:
256,192,19034,1,8,0:0:0:0:
256,192,19201,1,8,0:0:0:0:
256,192,19534,1,0,0:0:0:0:
256,192,19701,1,8,0:0:0:0:
256,192,19868,1,0,0:0:0:0:
256,192,20034,1,8,0:0:0:0:
256,192,20201,1,0,0:0:0:0:
256,192,20368,1,8,0:0:0:0:
256,192,20534,1,8,0:0:0:0:
256,192,20868,1,0,0:0:0:0:
256,192,21034,1,8,0:0:0:0:
256,192,21201,1,8,0:0:0:0:
256,192,21284,1,8,0:0:0:0:
256,192,21368,1,8,0:0:0:0:
256,192,21534,1,0,0:0:0:0:
256,192,21701,1,8,0:0:0:0:
256,192,21868,1,8,0:0:0:0:
256,192,22201,1,0,0:0:0:0:
256,192,22368,1,8,0:0:0:0:
256,192,22534,1,0,0:0:0:0:
256,192,22868,1,0,0:0:0:0:
256,192,23034,1,8,0:0:0:0:
256,192,23201,1,8,0:0:0:0:
256,192,23534,1,0,0:0:0:0:
256,192,23701,1,8,0:0:0:0:
256,192,23868,1,0,0:0:0:0:
256,192,24034,1,8,0:0:0:0:
256,192,24201,1,0,0:0:0:0:
256,192,24368,1,8,0:0:0:0:
256,192,24534,1,8,0:0:0:0:
256,192,24868,1,0,0:0:0:0:
256,192,25034,1,8,0:0:0:0:
256,192,25201,1,0,0:0:0:0:
256,192,25368,1,8,0:0:0:0:
256,192,25534,1,0,0:0:0:0:
256,192,25701,1,8,0:0:0:0:
256,192,25868,1,8,0:0:0:0:
256,192,26201,1,0,0:0:0:0:
256,192,26368,1,8,0:0:0:0:
256,192,26701,1,8,0:0:0:0:
256,192,26868,1,0,0:0:0:0:
256,192,27034,1,8,0:0:0:0:
256,192,27201,1,8,0:0:0:0:
256,192,27534,1,0,0:0:0:0:
256,192,27701,1,8,0:0:0:0:
256,192,27868,1,8,0:0:0:0:
256,192,28201,1,0,0:0:0:0:
256,192,28368,1,8,0:0:0:0:
256,192,28534,1,8,0:0:0:0:
256,192,28868,1,0,0:0:0:0:
256,192,29034,1,8,0:0:0:0:
256,192,29368,1,8,0:0:0:0:
256,192,29534,1,0,0:0:0:0:
256,192,29701,1,8,0:0:0:0:
256,192,29868,1,8,0:0:0:0:
256,192,30201,1,0,0:0:0:0:
256,192,30368,1,8,0:0:0:0:
256,192,30534,1,0,0:0:0:0:
256,192,30701,1,8,0:0:0:0:
256,192,30868,1,0,0:0:0:0:
256,192,31034,1,8,0:0:0:0:
256,192,31201,1,8,0:0:0:0:
256,192,31534,1,8,0:0:0:0:
256,192,32034,1,8,0:0:0:0:
256,192,32201,1,0,0:0:0:0:
256,192,32368,1,8,0:0:0:0:
256,192,32534,1,8,0:0:0:0:
256,192,32868,1,0,0:0:0:0:
256,192,33034,1,8,0:0:0:0:
256,192,33201,1,0,0:0:0:0:
256,192,33534,1,0,0:0:0:0:
256,192,33701,1,8,0:0:0:0:
256,192,33868,1,8,0:0:0:0:
256,192,34201,1,0,0:0:0:0:
256,192,34368,1,8,0:0:0:0:
256,192,34534,1,0,0:0:0:0:
256,192,34701,1,8,0:0:0:0:
256,192,34868,1,0,0:0:0:0:
256,192,35034,1,8,0:0:0:0:
256,192,35201,1,8,0:0:0:0:
256,192,35534,1,0,0:0:0:0:
256,192,35701,1,8,0:0:0:0:
256,192,35868,1,0,0:0:0:0:
256,192,36034,1,8,0:0:0:0:
256,192,36201,1,0,0:0:0:0:
256,192,36368,1,8,0:0:0:0:
256,192,36534,1,8,0:0:0:0:
256,192,36868,1,0,0:0:0:0:
256,192,37034,1,8,0:0:0:0:
256,192,37368,1,8,0:0:0:0:
256,192,37534,1,0,0:0:0:0:
256,192,37701,1,8,0:0:0:0:
256,192,37868,1,8,0:0:0:0:
256,192,38201,1,0,0:0:0:0:
256,192,38368,1,8,0:0:0:0:
256,192,38534,1,8,0:0:0:0:
256,192,38868,1,0,0:0:0:0:
256,192,39034,1,8,0:0:0:0:
256,192,39201,1,8,0:0:0:0:
256,192,39534,1,0,0:0:0:0:
256,192,39701,1,8,0:0:0:0:
256,192,40034,1,8,0:0:0:0:
256,192,40201,1,0,0:0:0:0:
256,192,40368,1,8,0:0:0:0:
256,192,40534,1,8,0:0:0:0:
256,192,40868,1,0,0:0:0:0:
256,192,41034,1,8,0:0:0:0:
256,192,41201,1,0,0:0:0:0:
256,192,41368,1,8,0:0:0:0:
256,192,41534,1,0,0:0:0:0:
256,192,41701,1,8,0:0:0:0:
256,192,41868,1,8,0:0:0:0:
256,192,42201,1,8,0:0:0:0:
256,192,42368,1,0,0:0:0:0:
256,192,42451,1,8,0:0:0:0:
256,192,42534,1,8,0:0:0:0:
256,192,42618,1,0,0:0:0:0:
256,192,42701,1,8,0:0:0:0:
256,192,42868,1,0,0:0:0:0:
256,192,42951,1,8,0:0:0:0:
256,192,43034,1,8,0:0:0:0:
256,192,43201,1,0,0:0:0:0:
256,192,43368,1,8,0:0:0:0:
256,192,43534,1,0,0:0:0:0:
256,192,43701,1,8,0:0:0:0:
256,192,43784,1,8,0:0:0:0:
256,192,43868,1,0,0:0:0:0:
256,192,44034,1,8,0:0:0:0:
256,192,44201,1,0,0:0:0:0:
256,192,44284,1,8,0:0:0:0:
256,192,44368,1,8,0:0:0:0:
256,192,44534,1,0,0:0:0:0:
256,192,44701,1,8,0:0:0:0:
256,192,44868,1,0,0:0:0:0:
256,192,45034,1,8,0:0:0:0:
256,192,45118,1,8,0:0:0:0:
256,192,45201,1,0,0:0:0:0:
256,192,45368,1,8,0:0:0:0:
256,192,45534,1,0,0:0:0:0:
256,192,45618,1,8,0:0:0:0:
256,192,45701,1,8,0:0:0:0:
256,192,45868,1,0,0:0:0:0:
256,192,46034,1,8,0:0:0:0:
256,192,46201,1,0,0:0:0:0:
256,192,46368,1,8,0:0:0:0:
256,192,46451,1,8,0:0:0:0:
256,192,46534,1,0,0:0:0:0:
256,192,46701,1,8,0:0:0:0:
256,192,46868,1,0,0:0:0:0:
256,192,46951,1,8,0:0:0:0:
256,192,47034,1,8,0:0:0:0:
256,192,47201,1,0,0:0:0:0:
256,192,47368,1,8,0:0:0:0:
256,192,47451,1,8,0:0:0:0:
256,192,47534,1,0,0:0:0:0:
256,192,47618,1,8,0:0:0:0:
256,192,47701,1,8,0:0:0:0:
256,192,47784,1,0,0:0:0:0:
256,192,47868,1,8,0:0:0:0:
256,192,48034,1,8,0:0:0:0:
256,192,48201,1,0,0:0:0:0:
256,192,48284,1,8,0:0:0:0:
256,192,48368,1,8,0:0:0:0:
256,192,48534,1,0,0:0:0:0:
256,192,48701,1,8,0:0:0:0:
256,192,48868,1,0,0:0:0:0:
256,192,49034,1,8,0:0:0:0:
256,192,49118,1,8,0:0:0:0:
256,192,49201,1,0,0:0:0:0:
256,192,49368,1,8,0:0:0:0:
256,192,49534,1,0,0:0:0:0:
256,192,49618,1,8,0:0:0:0:
256,192,49701,1,8,0:0:0:0:
256,192,49868,1,0,0:0:0:0:
256,192,50034,1,8,0:0:0:0:
256,192,50201,1,0,0:0:0:0:
256,192,50368,1,8,0:0:0:0:
256,192,50451,1,8,0:0:0:0:
256,192,50534,1,0,0:0:0:0:
256,192,50701,1,8,0:0:0:0:
256,192,50868,1,0,0:0:0:0:
256,192,50951,1,8,0:0:0:0:
256,192,51034,1,8,0:0:0:0:
256,192,51201,1,0,0:0:0:0:
256,192,51368,1,8,0:0:0:0:
256,192,51534,1,0,0:0:0:0:
256,192,51701,1,8,0:0:0:0:
256,192,51784,1,8,0:0:0:0:
256,192,51868,1,0,0:0:0:0:
256,192,52034,1,8,0:0:0:0:
256,192,52201,1,0,0:0:0:0:
256,192,52284,1,8,0:0:0:0:
256,192,52368,1,8,0:0:0:0:
256,192,52534,1,0,0:0:0:0:
256,192,52701,1,8,0:0:0:0:
256,192,52868,1,0,0:0:0:0:
256,192,53034,1,8,0:0:0:0:
256,192,53118,1,8,0:0:0:0:
256,192,53201,1,0,0:0:0:0:
256,192,53368,1,0,0:0:0:0:
256,192,53451,1,0,0:0:0:0:
256,192,53534,1,8,0:0:0:0:
256,192,53618,1,8,0:0:0:0:
256,192,53701,1,0,0:0:0:0:
256,192,53868,1,8,0:0:0:0:
256,192,53951,1,8,0:0:0:0:
256,192,54034,1,0,0:0:0:0:
256,192,54201,1,8,0:0:0:0:
256,192,54368,1,0,0:0:0:0:
256,192,54451,1,0,0:0:0:0:
256,192,54534,1,8,0:0:0:0:
256,192,54701,1,0,0:0:0:0:
256,192,54868,1,8,0:0:0:0:
256,192,54951,1,8,0:0:0:0:
256,192,55034,1,0,0:0:0:0:
256,192,55201,1,0,0:0:0:0:
256,192,55284,1,0,0:0:0:0:
256,192,55368,1,8,0:0:0:0:
256,192,55451,1,8,0:0:0:0:
256,192,55534,1,0,0:0:0:0:
256,192,55701,1,8,0:0:0:0:
256,192,55784,1,8,0:0:0:0:
256,192,55868,1,0,0:0:0:0:
256,192,56034,1,8,0:0:0:0:
256,192,56201,1,0,0:0:0:0:
256,192,56284,1,0,0:0:0:0:
256,192,56368,1,8,0:0:0:0:
256,192,56534,1,0,0:0:0:0:
256,192,56618,1,0,0:0:0:0:
256,192,56701,1,8,0:0:0:0:
256,192,56868,1,0,0:0:0:0:
256,192,57034,1,8,0:0:0:0:
256,192,57118,1,8,0:0:0:0:
256,192,57201,1,0,0:0:0:0:
256,192,57368,1,8,0:0:0:0:
256,192,57534,1,0,0:0:0:0:
256,192,57618,1,0,0:0:0:0:
256,192,57701,1,8,0:0:0:0:
256,192,57868,1,0,0:0:0:0:
256,192,57951,1,0,0:0:0:0:
256,192,58034,1,8,0:0:0:0:
256,192,58118,1,8,0:0:0:0:
256,192,58201,1,0,0:0:0:0:
256,192,58284,1,8,0:0:0:0:
256,192,58368,1,8,0:0:0:0:
256,192,58451,1,0,0:0:0:0:
256,192,58534,1,8,0:0:0:0:
256,192,58701,1,8,0:0:0:0:
256,192,58868,1,0,0:0:0:0:
256,192,58951,1,0,0:0:0:0:
256,192,59034,1,8,0:0:0:0:
256,192,59118,1,8,0:0:0:0:
256,192,59201,1,0,0:0:0:0:
256,192,59368,1,8,0:0:0:0:
256,192,59534,1,0,0:0:0:0:
256,192,59701,1,8,0:0:0:0:
256,192,59784,1,8,0:0:0:0:
256,192,59868,1,0,0:0:0:0:
256,192,60034,1,8,0:0:0:0:
256,192,60201,1,0,0:0:0:0:
256,192,60284,1,0,0:0:0:0:
256,192,60368,1,8,0:0:0:0:
256,192,60451,1,8,0:0:0:0:
256,192,60534,1,0,0:0:0:0:
256,192,60701,1,8,0:0:0:0:
256,192,60868,1,0,0:0:0:0:
256,192,61034,1,8,0:0:0:0:
256,192,61118,1,8,0:0:0:0:
256,192,61201,1,0,0:0:0:0:
256,192,61368,1,8,0:0:0:0:
256,192,61534,1,0,0:0:0:0:
256,192,61618,1,0,0:0:0:0:
256,192,61701,1,8,0:0:0:0:
256,192,61784,1,8,0:0:0:0:
256,192,61868,1,0,0:0:0:0:
256,192,62034,1,8,0:0:0:0:
256,192,62201,1,0,0:0:0:0:
256,192,62368,1,8,0:0:0:0:
256,192,62451,1,8,0:0:0:0:
256,192,62534,1,0,0:0:0:0:
256,192,62701,1,8,0:0:0:0:
256,192,62868,1,0,0:0:0:0:
256,192,62951,1,0,0:0:0:0:
256,192,63034,1,8,0:0:0:0:
256,192,63118,1,8,0:0:0:0:
256,192,63201,1,0,0:0:0:0:
256,192,63368,1,8,0:0:0:0:
256,192,63534,1,0,0:0:0:0:
256,192,63701,1,8,0:0:0:0:
256,192,63784,1,8,0:0:0:0:
256,192,63868,1,0,0:0:0:0:
31,100,64035,2,0,L|442:98,1,406.000022390137
51,290,65369,2,0,L|427:94,1,406.000022390137
5,69,66702,2,0,L|426:68,1,406.000022390137
0,65,68035,2,0,L|411:244,1,406.000022390137
106,82,69368,2,0,L|461:316,1,406.000012390137
256,192,70201,1,8,0:0:0:0:
256,192,70368,1,0,0:0:0:0:
256,192,70534,1,8,0:0:0:0:
97,83,70701,2,0,L|486:58,1,363.999983337403
256,192,71534,1,8,0:0:0:0:
256,192,71701,1,0,0:0:0:0:
256,192,71868,1,8,0:0:0:0:
89,91,72034,2,0,L|408:220,1,322.000006141663
256,192,72868,1,8,0:0:0:0:
256,192,73034,1,0,0:0:0:0:
256,192,73201,1,8,0:0:0:0:
80,71,73368,2,0,L|345:214,1,280
256,192,74201,1,8,0:0:0:0:
256,192,74368,1,0,0:0:0:0:
256,192,74534,1,8,0:0:0:0:
256,192,74701,1,0,0:0:0:0:
256,192,75034,1,0,0:0:0:0:
256,192,75368,1,0,0:0:0:0:
256,192,75701,1,0,0:0:0:0:
256,192,76034,1,0,0:0:0:0:
256,192,76368,1,0,0:0:0:0:
256,192,76701,1,0,0:0:0:0:
256,192,77034,1,0,0:0:0:0:
256,192,77368,1,8,0:0:0:0:
256,192,77534,1,8,0:0:0:0:
256,192,77701,1,8,0:0:0:0:
256,192,77868,1,8,0:0:0:0:
256,192,78034,1,8,0:0:0:0:
256,192,78201,1,8,0:0:0:0:
256,192,78368,1,8,0:0:0:0:
256,192,78534,1,8,0:0:0:0:
256,192,78701,1,8,0:0:0:0:
256,192,78868,1,8,0:0:0:0:
256,192,79034,1,8,0:0:0:0:
256,192,79201,1,8,0:0:0:0:
256,192,79368,1,8,0:0:0:0:
