osu file format v14

[General]
AudioFilename: audio.mp3
AudioLeadIn: 0
PreviewTime: 5347
Countdown: 0
SampleSet: Normal
StackLeniency: 0.7
Mode: 1
LetterboxInBreaks: 0
WidescreenStoryboard: 1

[Editor]
DistanceSpacing: 0.8
BeatDivisor: 2
GridSize: 32
TimelineZoom: 3.299999

[Metadata]
Title:Amalgam
TitleUnicode:Amalgam
Artist:toby fox
ArtistUnicode:toby fox
Creator:Antti
Version:Kantan
Source:UNDERTALE
Tags:video game instrumental "radiation" original soundtrack ost music vgm amalgamate true lab endogeny electronic
BeatmapID:3383190
BeatmapSetID:1657476

[Difficulty]
HPDrainRate:8
CircleSize:2
OverallDifficulty:3
ApproachRate:10
SliderMultiplier:1.4
SliderTickRate:1

[Events]
//Background and Video events
0,0,"amgalmalgamma.png",0,-30
//Break Periods
//Storyboard Layer 0 (Background)
//Storyboard Layer 1 (Fail)
//Storyboard Layer 2 (Pass)
//Storyboard Layer 3 (Foreground)
//Storyboard Layer 4 (Overlay)
//Storyboard Sound Samples

[TimingPoints]
35,333.333333333333,4,1,0,80,1,0
53368,-100,4,1,0,80,0,1
62701,-100,4,1,0,80,0,0
64034,-100,4,1,0,85,0,1
64701,-100,4,1,0,85,0,0
65368,-100,4,1,0,85,0,1
66034,-100,4,1,0,85,0,0
66701,-100,4,1,0,85,0,1
67368,-100,4,1,0,85,0,0
68034,-100,4,1,0,85,0,1
68701,-100,4,1,0,85,0,0
69368,-100,4,1,0,85,0,1
74701,-100,4,1,0,80,0,0

[HitObjects]
256,192,35,5,0,0:0:0:0:
256,192,534,1,8,0:0:0:0:
256,192,1201,1,0,0:0:0:0:
256,192,1868,1,8,0:0:0:0:
256,192,2701,1,0,0:0:0:0:
256,192,3201,1,0,0:0:0:0:
256,192,4034,1,8,0:0:0:0:
256,192,4534,1,8,0:0:0:0:
256,192,5368,1,0,0:0:0:0:
256,192,5868,1,8,0:0:0:0:
256,192,6534,1,0,0:0:0:0:
256,192,7201,1,8,0:0:0:0:
256,192,8034,1,0,0:0:0:0:
256,192,8534,1,0,0:0:0:0:
256,192,9368,1,8,0:0:0:0:
256,192,9868,1,8,0:0:0:0:
256,192,10701,1,0,0:0:0:0:
256,192,11201,1,8,0:0:0:0:
256,192,11868,1,0,0:0:0:0:
256,192,12534,1,8,0:0:0:0:
256,192,13034,1,8,0:0:0:0:
256,192,13368,1,0,0:0:0:0:
256,192,13868,1,0,0:0:0:0:
256,192,14701,1,8,0:0:0:0:
256,192,15201,1,8,0:0:0:0:
256,192,16034,1,0,0:0:0:0:
256,192,16534,1,8,0:0:0:0:
256,192,17201,1,0,0:0:0:0:
256,192,17868,1,8,0:0:0:0:
256,192,18368,1,8,0:0:0:0:
256,192,18701,1,0,0:0:0:0:
256,192,19201,1,0,0:0:0:0:
256,192,19701,1,8,0:0:0:0:
256,192,20034,1,8,0:0:0:0:
256,192,20534,1,8,0:0:0:0:
256,192,21368,1,0,0:0:0:0:
256,192,21868,1,8,0:0:0:0:
256,192,22534,1,0,0:0:0:0:
256,192,23201,1,8,0:0:0:0:
256,192,23701,1,8,0:0:0:0:
256,192,24034,1,0,0:0:0:0:
256,192,24534,1,0,0:0:0:0:
256,192,25034,1,8,0:0:0:0:
256,192,25368,1,8,0:0:0:0:
256,192,25868,1,8,0:0:0:0:
256,192,26701,1,0,0:0:0:0:
256,192,27201,1,8,0:0:0:0:
256,192,27868,1,0,0:0:0:0:
256,192,28534,1,8,0:0:0:0:
256,192,29034,1,8,0:0:0:0:
256,192,29368,1,0,0:0:0:0:
256,192,29868,1,0,0:0:0:0:
256,192,30368,1,8,0:0:0:0:
256,192,30701,1,8,0:0:0:0:
256,192,31201,1,8,0:0:0:0:
256,192,32034,1,0,0:0:0:0:
256,192,32534,1,8,0:0:0:0:
256,192,33201,1,0,0:0:0:0:
256,192,33868,1,8,0:0:0:0:
256,192,34368,1,8,0:0:0:0:
256,192,34701,1,0,0:0:0:0:
256,192,35201,1,0,0:0:0:0:
256,192,35701,1,8,0:0:0:0:
256,192,36034,1,8,0:0:0:0:
256,192,36534,1,8,0:0:0:0:
256,192,37368,1,0,0:0:0:0:
256,192,37868,1,8,0:0:0:0:
256,192,38534,1,0,0:0:0:0:
256,192,39201,1,8,0:0:0:0:
256,192,39701,1,8,0:0:0:0:
256,192,40034,1,0,0:0:0:0:
256,192,40534,1,0,0:0:0:0:
256,192,41034,1,8,0:0:0:0:
256,192,41368,1,8,0:0:0:0:
256,192,41868,1,8,0:0:0:0:
256,192,42701,1,8,0:0:0:0:
256,192,43034,1,8,0:0:0:0:
256,192,43368,1,8,0:0:0:0:
256,192,44034,1,8,0:0:0:0:
256,192,44368,1,0,0:0:0:0:
256,192,44701,1,8,0:0:0:0:
256,192,45368,1,8,0:0:0:0:
256,192,45701,1,8,0:0:0:0:
256,192,46034,1,8,0:0:0:0:
256,192,46368,1,8,0:0:0:0:
256,192,46701,1,0,0:0:0:0:
256,192,48034,1,8,0:0:0:0:
256,192,48368,1,8,0:0:0:0:
256,192,48701,1,8,0:0:0:0:
256,192,49368,1,8,0:0:0:0:
256,192,49701,1,0,0:0:0:0:
256,192,50034,1,8,0:0:0:0:
256,192,50701,1,8,0:0:0:0:
256,192,51034,1,8,0:0:0:0:
256,192,51368,1,8,0:0:0:0:
256,192,51701,1,8,0:0:0:0:
256,192,52034,1,0,0:0:0:0:
256,192,53368,1,0,0:0:0:0:
256,192,53701,1,8,0:0:0:0:
256,192,54034,1,0,0:0:0:0:
256,192,54701,1,0,0:0:0:0:
256,192,55034,1,8,0:0:0:0:
256,192,55368,1,8,0:0:0:0:
256,192,56034,1,8,0:0:0:0:
256,192,56368,1,0,0:0:0:0:
256,192,56701,1,8,0:0:0:0:
256,192,57034,1,8,0:0:0:0:
256,192,57368,1,0,0:0:0:0:
256,192,58701,1,8,0:0:0:0:
256,192,59034,1,0,0:0:0:0:
256,192,59368,1,8,0:0:0:0:
256,192,60034,1,8,0:0:0:0:
256,192,60368,1,8,0:0:0:0:
256,192,60701,1,8,0:0:0:0:
256,192,61368,1,8,0:0:0:0:
256,192,61701,1,0,0:0:0:0:
256,192,62034,1,8,0:0:0:0:
256,192,62368,1,8,0:0:0:0:
256,192,62701,1,8,0:0:0:0:
0,96,64034,2,0,L|292:115,1,280
64,64,65368,2,0,L|366:67,1,280
96,96,66701,2,0,L|385:130,1,280
96,96,68034,2,0,L|389:155,1,280
94,95,69368,2,0,L|394:99,1,280
64,96,70701,2,0,L|352:115,1,280
60,94,72034,2,0,L|337:130,1,280
96,96,73368,2,0,L|384:103,1,280
256,192,74701,1,0,0:0:0:0:
256,192,76034,1,0,0:0:0:0:
256,192,77368,1,8,0:0:0:0:
256,192,78034,1,8,0:0:0:0:
256,192,78701,1,8,0:0:0:0:
256,192,79368,1,8,0:0:0:0:
