osu file format v14

[General]
AudioFilename: audio 1.100x (pitch raised).mp3
AudioLeadIn: 0
PreviewTime: 63980
Countdown: 0
SampleSet: None
StackLeniency: 0.7
Mode: 3
LetterboxInBreaks: 0
SpecialStyle: 0
WidescreenStoryboard: 0

[Editor]
DistanceSpacing: 0.8
BeatDivisor: 4
GridSize: 16
TimelineZoom: 1.8

[Metadata]
Title:ASGORE
TitleUnicode:ASGORE
Artist:toby fox
ArtistUnicode:toby fox
Creator:Wh1teh
Version:!! 1.1x
Source:UNDERTALE
Tags:Electronic Video Game Instrumental OST Original Soundtrack 8BIT-8048 Boss Fight Theme tobyfox Fennec Fantasy
BeatmapID:1726743
BeatmapSetID:824051

[Difficulty]
HPDrainRate:8.5
CircleSize:4
OverallDifficulty:8.5
ApproachRate:5.7
SliderMultiplier:1.4
SliderTickRate:1

[Events]
//Background and Video events
0,0,"Basgore.jpg",0,0
//Break Periods
//Storyboard Layer 0 (Background)
//Storyboard Layer 1 (Fail)
//Storyboard Layer 2 (Pass)
//Storyboard Layer 3 (Foreground)
//Storyboard Layer 4 (Overlay)
//Storyboard Sound Samples

[TimingPoints]
216,482.703137272727,4,2,0,25,1,0
216,-49.1304348129058,4,2,0,25,0,0
19041,266.075388181818,4,2,0,25,1,0
19041,-89.1304347306159,4,2,0,25,0,0
19308,237.463885454545,4,2,0,25,1,0
19308,-99.8695653209227,4,2,0,25,0,0
118805,246.032722727273,4,2,0,25,1,0
118805,-96.3913042008294,4,2,0,25,0,0
119050,237.463885454545,4,2,0,25,1,0
119050,-99.8695653209227,4,2,0,25,0,0
126412,232.405004545455,4,2,0,25,1,0
126412,-102.043478220903,4,2,0,25,0,0
126644,237.463885454545,4,2,0,25,1,0
126644,-99.8695653209227,4,2,0,25,0,0
131869,236.434566363636,4,2,0,25,1,0
131869,-100.304347983063,4,2,0,25,0,0
132105,237.463885454545,4,2,0,25,1,0
132105,-99.8695653209227,4,2,0,25,0,0
134005,236.434566363636,4,2,0,25,1,0
134005,-100.304347983063,4,2,0,25,0,0
134241,237.463885454545,4,2,0,25,1,0
134241,-99.8695653209227,4,2,0,25,0,0

[HitObjects]
64,192,216,5,0,0:0:0:0:
320,192,216,1,0,0:0:0:0:
64,192,457,1,0,0:0:0:0:
448,192,698,1,0,0:0:0:0:
192,192,698,1,0,0:0:0:0:
448,192,940,1,0,0:0:0:0:
320,192,1181,128,0,2026:0:0:0:0:
192,192,1181,128,0,2026:0:0:0:0:
320,192,2146,1,0,0:0:0:0:
64,192,2146,1,0,0:0:0:0:
320,192,2388,1,0,0:0:0:0:
448,192,2629,1,0,0:0:0:0:
64,192,2629,1,0,0:0:0:0:
448,192,2870,1,0,0:0:0:0:
192,192,3112,128,0,3956:0:0:0:0:
64,192,3112,128,0,3956:0:0:0:0:
320,192,4077,1,0,0:0:0:0:
64,192,4077,1,0,0:0:0:0:
64,192,4318,1,0,0:0:0:0:
448,192,4560,1,0,0:0:0:0:
320,192,4560,1,0,0:0:0:0:
320,192,4801,1,0,0:0:0:0:
448,192,5043,128,0,5767:0:0:0:0:
192,192,5043,1,0,0:0:0:0:
320,192,5284,1,0,0:0:0:0:
192,192,5284,1,0,0:0:0:0:
320,192,5525,1,0,0:0:0:0:
64,192,5525,1,0,0:0:0:0:
192,192,5767,1,0,0:0:0:0:
64,192,5767,1,0,0:0:0:0:
448,192,6008,1,0,0:0:0:0:
192,192,6008,1,0,0:0:0:0:
448,192,6249,1,0,0:0:0:0:
320,192,6491,1,0,0:0:0:0:
192,192,6491,1,0,0:0:0:0:
448,192,6732,1,0,0:0:0:0:
320,192,6973,128,0,7758:0:0:0:0:
64,192,6973,128,0,7758:0:0:0:0:
320,192,7939,1,0,0:0:0:0:
64,192,7939,1,0,0:0:0:0:
64,192,8180,1,0,0:0:0:0:
320,192,8421,1,0,0:0:0:0:
192,192,8421,1,0,0:0:0:0:
320,192,8663,1,0,0:0:0:0:
448,192,8904,128,0,9749:0:0:0:0:
192,192,8904,128,0,9749:0:0:0:0:
448,192,9870,1,0,0:0:0:0:
320,192,9870,1,0,0:0:0:0:
320,192,10111,1,0,0:0:0:0:
192,192,10352,1,0,0:0:0:0:
64,192,10352,1,0,0:0:0:0:
192,192,10594,1,0,0:0:0:0:
448,192,10835,128,0,11619:0:0:0:0:
64,192,10835,128,0,11619:0:0:0:0:
320,192,11318,128,0,11800:0:0:0:0:
448,192,11800,1,0,0:0:0:0:
192,192,11800,1,0,0:0:0:0:
320,192,12042,1,0,0:0:0:0:
64,192,12042,1,0,0:0:0:0:
320,192,12283,1,0,0:0:0:0:
192,192,12283,1,0,0:0:0:0:
448,192,12524,1,0,0:0:0:0:
192,192,12524,1,0,0:0:0:0:
320,192,12766,128,0,13731:0:0:0:0:
64,192,12766,128,0,13248:0:0:0:0:
448,192,13248,1,0,0:0:0:0:
192,192,13248,1,0,0:0:0:0:
448,192,13490,1,0,0:0:0:0:
192,192,13731,1,0,0:0:0:0:
64,192,13731,1,0,0:0:0:0:
320,192,13852,1,0,0:0:0:0:
192,192,13912,1,0,0:0:0:0:
448,192,13973,1,0,0:0:0:0:
64,192,13973,1,0,0:0:0:0:
320,192,14214,1,0,0:0:0:0:
192,192,14214,1,0,0:0:0:0:
448,192,14455,1,0,0:0:0:0:
192,192,14455,1,0,0:0:0:0:
448,192,14697,128,0,15662:0:0:0:0:
320,192,14697,128,0,15662:0:0:0:0:
448,192,19308,1,0,0:0:0:0:
192,192,19308,1,0,0:0:0:0:
64,192,19308,1,0,0:0:0:0:
64,192,19545,1,0,0:0:0:0:
448,192,19782,1,0,0:0:0:0:
320,192,19782,1,0,0:0:0:0:
192,192,19782,1,0,0:0:0:0:
448,192,20020,1,0,0:0:0:0:
320,192,20257,1,0,0:0:0:0:
192,192,20257,1,0,0:0:0:0:
64,192,20257,1,0,0:0:0:0:
192,192,20376,1,0,0:0:0:0:
320,192,20495,1,0,0:0:0:0:
64,192,20495,1,0,0:0:0:0:
320,192,20614,1,0,0:0:0:0:
192,192,20732,1,0,0:0:0:0:
64,192,20732,1,0,0:0:0:0:
320,192,20851,1,0,0:0:0:0:
448,192,20970,1,0,0:0:0:0:
192,192,20970,1,0,0:0:0:0:
64,192,20970,1,0,0:0:0:0:
64,192,21088,1,0,0:0:0:0:
448,192,21207,1,0,0:0:0:0:
320,192,21207,1,0,0:0:0:0:
192,192,21207,1,0,0:0:0:0:
320,192,21326,1,0,0:0:0:0:
448,192,21445,1,0,0:0:0:0:
192,192,21445,1,0,0:0:0:0:
448,192,21563,1,0,0:0:0:0:
320,192,21563,1,0,0:0:0:0:
64,192,21563,1,0,0:0:0:0:
192,192,21682,1,0,0:0:0:0:
64,192,21682,1,0,0:0:0:0:
320,192,21801,1,0,0:0:0:0:
320,192,21920,1,0,0:0:0:0:
192,192,21920,1,0,0:0:0:0:
64,192,21920,1,0,0:0:0:0:
64,192,22038,1,0,0:0:0:0:
448,192,22157,1,0,0:0:0:0:
320,192,22157,1,0,0:0:0:0:
192,192,22157,1,0,0:0:0:0:
448,192,22276,1,0,0:0:0:0:
320,192,22395,1,0,0:0:0:0:
192,192,22395,1,0,0:0:0:0:
192,192,22513,1,0,0:0:0:0:
448,192,22632,1,0,0:0:0:0:
320,192,22632,1,0,0:0:0:0:
320,192,22751,1,0,0:0:0:0:
448,192,22869,1,0,0:0:0:0:
192,192,22869,1,0,0:0:0:0:
448,192,22988,1,0,0:0:0:0:
320,192,23107,1,0,0:0:0:0:
192,192,23107,1,0,0:0:0:0:
64,192,23107,1,0,0:0:0:0:
64,192,23226,1,0,0:0:0:0:
448,192,23344,1,0,0:0:0:0:
192,192,23344,1,0,0:0:0:0:
192,192,23463,1,0,0:0:0:0:
448,192,23582,1,0,0:0:0:0:
320,192,23582,1,0,0:0:0:0:
64,192,23582,1,0,0:0:0:0:
64,192,23701,1,0,0:0:0:0:
320,192,23819,1,0,0:0:0:0:
192,192,23819,1,0,0:0:0:0:
320,192,23938,1,0,0:0:0:0:
448,192,24057,1,0,0:0:0:0:
192,192,24057,1,0,0:0:0:0:
64,192,24057,1,0,0:0:0:0:
192,192,24176,1,0,0:0:0:0:
320,192,24294,1,0,0:0:0:0:
64,192,24294,1,0,0:0:0:0:
320,192,24413,1,0,0:0:0:0:
192,192,24532,1,0,0:0:0:0:
64,192,24532,1,0,0:0:0:0:
448,192,24650,1,0,0:0:0:0:
320,192,24650,1,0,0:0:0:0:
64,192,24650,1,0,0:0:0:0:
448,192,24769,1,0,0:0:0:0:
320,192,24769,1,0,0:0:0:0:
192,192,24769,1,0,0:0:0:0:
320,192,24888,1,0,0:0:0:0:
448,192,25007,1,0,0:0:0:0:
192,192,25007,1,0,0:0:0:0:
64,192,25007,1,0,0:0:0:0:
64,192,25125,1,0,0:0:0:0:
448,192,25244,1,0,0:0:0:0:
192,192,25244,1,0,0:0:0:0:
320,192,25363,1,0,0:0:0:0:
192,192,25363,1,0,0:0:0:0:
64,192,25363,1,0,0:0:0:0:
448,192,25482,1,0,0:0:0:0:
320,192,25482,1,0,0:0:0:0:
192,192,25600,1,0,0:0:0:0:
448,192,25719,1,0,0:0:0:0:
320,192,25719,1,0,0:0:0:0:
192,192,25719,1,0,0:0:0:0:
64,192,25838,1,0,0:0:0:0:
448,192,25956,1,0,0:0:0:0:
320,192,25956,1,0,0:0:0:0:
64,192,25956,1,0,0:0:0:0:
320,192,26075,1,0,0:0:0:0:
448,192,26194,1,0,0:0:0:0:
192,192,26194,1,0,0:0:0:0:
448,192,26313,1,0,0:0:0:0:
192,192,26431,1,0,0:0:0:0:
64,192,26431,1,0,0:0:0:0:
192,192,26550,1,0,0:0:0:0:
448,192,26669,1,0,0:0:0:0:
64,192,26669,1,0,0:0:0:0:
448,192,26788,1,0,0:0:0:0:
320,192,26906,1,0,0:0:0:0:
192,192,26906,1,0,0:0:0:0:
64,192,26906,1,0,0:0:0:0:
320,192,27144,1,0,0:0:0:0:
448,192,27381,1,0,0:0:0:0:
192,192,27381,1,0,0:0:0:0:
64,192,27381,1,0,0:0:0:0:
192,192,27619,1,0,0:0:0:0:
448,192,27856,1,0,0:0:0:0:
320,192,27856,1,0,0:0:0:0:
64,192,27856,1,0,0:0:0:0:
448,192,27975,1,0,0:0:0:0:
320,192,27975,1,0,0:0:0:0:
64,192,27975,1,0,0:0:0:0:
448,192,28094,1,0,0:0:0:0:
320,192,28094,1,0,0:0:0:0:
64,192,28094,1,0,0:0:0:0:
448,192,28212,1,0,0:0:0:0:
320,192,28212,1,0,0:0:0:0:
64,192,28212,1,0,0:0:0:0:
448,192,28331,1,0,0:0:0:0:
320,192,28331,1,0,0:0:0:0:
64,192,28331,1,0,0:0:0:0:
448,192,28450,1,0,0:0:0:0:
320,192,28450,1,0,0:0:0:0:
64,192,28450,1,0,0:0:0:0:
448,192,28569,1,0,0:0:0:0:
320,192,28569,1,0,0:0:0:0:
192,192,28569,1,0,0:0:0:0:
192,192,28687,1,0,0:0:0:0:
320,192,28806,1,0,0:0:0:0:
192,192,28806,1,0,0:0:0:0:
64,192,28806,1,0,0:0:0:0:
320,192,28925,1,0,0:0:0:0:
320,192,29044,1,0,0:0:0:0:
448,192,29162,1,0,0:0:0:0:
192,192,29162,1,0,0:0:0:0:
64,192,29162,1,0,0:0:0:0:
192,192,29281,1,0,0:0:0:0:
192,192,29400,1,0,0:0:0:0:
448,192,29518,1,0,0:0:0:0:
320,192,29518,1,0,0:0:0:0:
64,192,29518,1,0,0:0:0:0:
320,192,29637,1,0,0:0:0:0:
448,192,29756,1,0,0:0:0:0:
192,192,29756,1,0,0:0:0:0:
64,192,29756,1,0,0:0:0:0:
448,192,29875,1,0,0:0:0:0:
192,192,29875,1,0,0:0:0:0:
64,192,29875,1,0,0:0:0:0:
448,192,29993,1,0,0:0:0:0:
192,192,29993,1,0,0:0:0:0:
64,192,29993,1,0,0:0:0:0:
448,192,30112,1,0,0:0:0:0:
192,192,30112,1,0,0:0:0:0:
64,192,30112,1,0,0:0:0:0:
448,192,30231,1,0,0:0:0:0:
192,192,30231,1,0,0:0:0:0:
64,192,30231,1,0,0:0:0:0:
448,192,30350,1,0,0:0:0:0:
192,192,30350,1,0,0:0:0:0:
64,192,30350,1,0,0:0:0:0:
448,192,30468,1,0,0:0:0:0:
320,192,30468,1,0,0:0:0:0:
192,192,30468,1,0,0:0:0:0:
320,192,30587,1,0,0:0:0:0:
448,192,30706,1,0,0:0:0:0:
192,192,30706,1,0,0:0:0:0:
64,192,30706,1,0,0:0:0:0:
64,192,30824,1,0,0:0:0:0:
64,192,30943,1,0,0:0:0:0:
448,192,31062,1,0,0:0:0:0:
320,192,31062,1,0,0:0:0:0:
192,192,31062,1,0,0:0:0:0:
320,192,31181,1,0,0:0:0:0:
320,192,31299,1,0,0:0:0:0:
448,192,31418,1,0,0:0:0:0:
192,192,31418,1,0,0:0:0:0:
64,192,31418,1,0,0:0:0:0:
448,192,31537,1,0,0:0:0:0:
320,192,31656,1,0,0:0:0:0:
192,192,31656,1,0,0:0:0:0:
64,192,31656,1,0,0:0:0:0:
320,192,31774,1,0,0:0:0:0:
192,192,31774,1,0,0:0:0:0:
64,192,31774,1,0,0:0:0:0:
320,192,31893,1,0,0:0:0:0:
192,192,31893,1,0,0:0:0:0:
64,192,31893,1,0,0:0:0:0:
320,192,32012,1,0,0:0:0:0:
192,192,32012,1,0,0:0:0:0:
64,192,32012,1,0,0:0:0:0:
320,192,32131,1,0,0:0:0:0:
192,192,32131,1,0,0:0:0:0:
64,192,32131,1,0,0:0:0:0:
320,192,32249,1,0,0:0:0:0:
192,192,32249,1,0,0:0:0:0:
64,192,32249,1,0,0:0:0:0:
448,192,32368,1,0,0:0:0:0:
320,192,32368,1,0,0:0:0:0:
192,192,32487,1,0,0:0:0:0:
448,192,32605,1,0,0:0:0:0:
192,192,32605,1,0,0:0:0:0:
64,192,32724,1,0,0:0:0:0:
320,192,32843,1,0,0:0:0:0:
64,192,32843,1,0,0:0:0:0:
448,192,32962,1,0,0:0:0:0:
448,192,33080,1,0,0:0:0:0:
320,192,33080,1,0,0:0:0:0:
192,192,33199,1,0,0:0:0:0:
448,192,33318,1,0,0:0:0:0:
320,192,33318,1,0,0:0:0:0:
192,192,33318,1,0,0:0:0:0:
448,192,33437,1,0,0:0:0:0:
320,192,33437,1,0,0:0:0:0:
64,192,33437,1,0,0:0:0:0:
448,192,33555,1,0,0:0:0:0:
192,192,33555,1,0,0:0:0:0:
64,192,33555,1,0,0:0:0:0:
320,192,33674,1,0,0:0:0:0:
320,192,33793,1,0,0:0:0:0:
64,192,33793,1,0,0:0:0:0:
192,192,33912,1,0,0:0:0:0:
192,192,34030,1,0,0:0:0:0:
64,192,34030,1,0,0:0:0:0:
448,192,34149,1,0,0:0:0:0:
448,192,34268,1,0,0:0:0:0:
192,192,34268,1,0,0:0:0:0:
320,192,34386,1,0,0:0:0:0:
448,192,34505,1,0,0:0:0:0:
320,192,34505,1,0,0:0:0:0:
64,192,34505,1,0,0:0:0:0:
64,192,34743,1,0,0:0:0:0:
448,192,34980,1,0,0:0:0:0:
320,192,34980,1,0,0:0:0:0:
192,192,34980,1,0,0:0:0:0:
320,192,35218,1,0,0:0:0:0:
448,192,35455,1,0,0:0:0:0:
192,192,35455,1,0,0:0:0:0:
64,192,35455,1,0,0:0:0:0:
64,192,35574,1,0,0:0:0:0:
448,192,35693,1,0,0:0:0:0:
192,192,35693,1,0,0:0:0:0:
192,192,35811,1,0,0:0:0:0:
448,192,35930,1,0,0:0:0:0:
320,192,35930,1,0,0:0:0:0:
192,192,36049,1,0,0:0:0:0:
448,192,36167,1,0,0:0:0:0:
320,192,36167,1,0,0:0:0:0:
64,192,36167,1,0,0:0:0:0:
448,192,36286,1,0,0:0:0:0:
320,192,36405,1,0,0:0:0:0:
192,192,36405,1,0,0:0:0:0:
64,192,36405,1,0,0:0:0:0:
192,192,36524,1,0,0:0:0:0:
320,192,36642,1,0,0:0:0:0:
64,192,36642,1,0,0:0:0:0:
448,192,36761,1,0,0:0:0:0:
192,192,36761,1,0,0:0:0:0:
64,192,36761,1,0,0:0:0:0:
448,192,36880,1,0,0:0:0:0:
320,192,36880,1,0,0:0:0:0:
192,192,36999,1,0,0:0:0:0:
448,192,37117,1,0,0:0:0:0:
320,192,37117,1,0,0:0:0:0:
192,192,37117,1,0,0:0:0:0:
448,192,37236,1,0,0:0:0:0:
320,192,37355,1,0,0:0:0:0:
192,192,37355,1,0,0:0:0:0:
64,192,37355,1,0,0:0:0:0:
64,192,37473,1,0,0:0:0:0:
320,192,37592,1,0,0:0:0:0:
192,192,37592,1,0,0:0:0:0:
320,192,37711,1,0,0:0:0:0:
192,192,37830,1,0,0:0:0:0:
64,192,37830,1,0,0:0:0:0:
192,192,37948,1,0,0:0:0:0:
320,192,38067,1,0,0:0:0:0:
64,192,38067,1,0,0:0:0:0:
64,192,38186,1,0,0:0:0:0:
448,192,38305,1,0,0:0:0:0:
320,192,38305,1,0,0:0:0:0:
192,192,38305,1,0,0:0:0:0:
448,192,38423,1,0,0:0:0:0:
320,192,38542,1,0,0:0:0:0:
64,192,38542,1,0,0:0:0:0:
320,192,38661,1,0,0:0:0:0:
448,192,38780,1,0,0:0:0:0:
192,192,38780,1,0,0:0:0:0:
64,192,38780,1,0,0:0:0:0:
448,192,38898,1,0,0:0:0:0:
320,192,39017,1,0,0:0:0:0:
192,192,39017,1,0,0:0:0:0:
192,192,39136,1,0,0:0:0:0:
448,192,39254,1,0,0:0:0:0:
320,192,39254,1,0,0:0:0:0:
64,192,39254,1,0,0:0:0:0:
320,192,39373,1,0,0:0:0:0:
448,192,39492,1,0,0:0:0:0:
192,192,39492,1,0,0:0:0:0:
192,192,39611,1,0,0:0:0:0:
448,192,39729,1,0,0:0:0:0:
320,192,39729,1,0,0:0:0:0:
448,192,39848,1,0,0:0:0:0:
192,192,39848,1,0,0:0:0:0:
64,192,39848,1,0,0:0:0:0:
320,192,39967,1,0,0:0:0:0:
192,192,39967,1,0,0:0:0:0:
64,192,39967,1,0,0:0:0:0:
192,192,40086,1,0,0:0:0:0:
448,192,40204,1,0,0:0:0:0:
320,192,40204,1,0,0:0:0:0:
64,192,40204,1,0,0:0:0:0:
448,192,40323,1,0,0:0:0:0:
320,192,40442,1,0,0:0:0:0:
64,192,40442,1,0,0:0:0:0:
448,192,40561,1,0,0:0:0:0:
320,192,40561,1,0,0:0:0:0:
192,192,40561,1,0,0:0:0:0:
192,192,40679,1,0,0:0:0:0:
64,192,40679,1,0,0:0:0:0:
320,192,40798,1,0,0:0:0:0:
320,192,40917,1,0,0:0:0:0:
192,192,40917,1,0,0:0:0:0:
64,192,40917,1,0,0:0:0:0:
448,192,41035,1,0,0:0:0:0:
448,192,41154,1,0,0:0:0:0:
192,192,41154,1,0,0:0:0:0:
64,192,41154,1,0,0:0:0:0:
192,192,41273,1,0,0:0:0:0:
320,192,41392,1,0,0:0:0:0:
64,192,41392,1,0,0:0:0:0:
64,192,41510,1,0,0:0:0:0:
448,192,41629,1,0,0:0:0:0:
320,192,41629,1,0,0:0:0:0:
320,192,41748,1,0,0:0:0:0:
448,192,41867,1,0,0:0:0:0:
64,192,41867,1,0,0:0:0:0:
64,192,41985,1,0,0:0:0:0:
448,192,42104,1,0,0:0:0:0:
320,192,42104,1,0,0:0:0:0:
192,192,42104,1,0,0:0:0:0:
192,192,42341,1,0,0:0:0:0:
448,192,42579,1,0,0:0:0:0:
320,192,42579,1,0,0:0:0:0:
64,192,42579,1,0,0:0:0:0:
320,192,42816,1,0,0:0:0:0:
448,192,43054,1,0,0:0:0:0:
192,192,43054,1,0,0:0:0:0:
64,192,43054,1,0,0:0:0:0:
448,192,43173,1,0,0:0:0:0:
192,192,43173,1,0,0:0:0:0:
64,192,43173,1,0,0:0:0:0:
448,192,43291,1,0,0:0:0:0:
192,192,43291,1,0,0:0:0:0:
64,192,43291,1,0,0:0:0:0:
448,192,43410,1,0,0:0:0:0:
192,192,43410,1,0,0:0:0:0:
64,192,43410,1,0,0:0:0:0:
448,192,43529,1,0,0:0:0:0:
192,192,43529,1,0,0:0:0:0:
64,192,43529,1,0,0:0:0:0:
448,192,43648,1,0,0:0:0:0:
192,192,43648,1,0,0:0:0:0:
64,192,43648,1,0,0:0:0:0:
320,192,43766,1,0,0:0:0:0:
192,192,43766,1,0,0:0:0:0:
64,192,43766,1,0,0:0:0:0:
320,192,43885,1,0,0:0:0:0:
448,192,44004,1,0,0:0:0:0:
320,192,44004,1,0,0:0:0:0:
192,192,44004,1,0,0:0:0:0:
192,192,44122,1,0,0:0:0:0:
192,192,44241,1,0,0:0:0:0:
448,192,44360,1,0,0:0:0:0:
320,192,44360,1,0,0:0:0:0:
64,192,44360,1,0,0:0:0:0:
320,192,44479,1,0,0:0:0:0:
320,192,44597,1,0,0:0:0:0:
448,192,44716,1,0,0:0:0:0:
192,192,44716,1,0,0:0:0:0:
64,192,44716,1,0,0:0:0:0:
192,192,44835,1,0,0:0:0:0:
448,192,44954,1,0,0:0:0:0:
320,192,44954,1,0,0:0:0:0:
64,192,44954,1,0,0:0:0:0:
448,192,45072,1,0,0:0:0:0:
320,192,45072,1,0,0:0:0:0:
64,192,45072,1,0,0:0:0:0:
448,192,45191,1,0,0:0:0:0:
320,192,45191,1,0,0:0:0:0:
64,192,45191,1,0,0:0:0:0:
448,192,45310,1,0,0:0:0:0:
320,192,45310,1,0,0:0:0:0:
64,192,45310,1,0,0:0:0:0:
448,192,45429,1,0,0:0:0:0:
320,192,45429,1,0,0:0:0:0:
64,192,45429,1,0,0:0:0:0:
448,192,45547,1,0,0:0:0:0:
320,192,45547,1,0,0:0:0:0:
64,192,45547,1,0,0:0:0:0:
320,192,45666,1,0,0:0:0:0:
192,192,45666,1,0,0:0:0:0:
64,192,45666,1,0,0:0:0:0:
192,192,45785,1,0,0:0:0:0:
448,192,45903,1,0,0:0:0:0:
320,192,45903,1,0,0:0:0:0:
64,192,45903,1,0,0:0:0:0:
448,192,46022,1,0,0:0:0:0:
448,192,46141,1,0,0:0:0:0:
320,192,46260,1,0,0:0:0:0:
192,192,46260,1,0,0:0:0:0:
64,192,46260,1,0,0:0:0:0:
192,192,46378,1,0,0:0:0:0:
192,192,46497,1,0,0:0:0:0:
448,192,46616,1,0,0:0:0:0:
320,192,46616,1,0,0:0:0:0:
64,192,46616,1,0,0:0:0:0:
64,192,46735,1,0,0:0:0:0:
448,192,46853,1,0,0:0:0:0:
320,192,46853,1,0,0:0:0:0:
192,192,46853,1,0,0:0:0:0:
448,192,46972,1,0,0:0:0:0:
320,192,46972,1,0,0:0:0:0:
192,192,46972,1,0,0:0:0:0:
448,192,47091,1,0,0:0:0:0:
320,192,47091,1,0,0:0:0:0:
192,192,47091,1,0,0:0:0:0:
448,192,47210,1,0,0:0:0:0:
320,192,47210,1,0,0:0:0:0:
192,192,47210,1,0,0:0:0:0:
448,192,47328,1,0,0:0:0:0:
320,192,47328,1,0,0:0:0:0:
192,192,47328,1,0,0:0:0:0:
448,192,47447,1,0,0:0:0:0:
320,192,47447,1,0,0:0:0:0:
192,192,47447,1,0,0:0:0:0:
192,192,47566,1,0,0:0:0:0:
64,192,47566,1,0,0:0:0:0:
320,192,47684,1,0,0:0:0:0:
320,192,47803,1,0,0:0:0:0:
64,192,47803,1,0,0:0:0:0:
448,192,47922,1,0,0:0:0:0:
448,192,48041,1,0,0:0:0:0:
192,192,48041,1,0,0:0:0:0:
64,192,48159,1,0,0:0:0:0:
192,192,48278,1,0,0:0:0:0:
64,192,48278,1,0,0:0:0:0:
320,192,48397,1,0,0:0:0:0:
320,192,48516,1,0,0:0:0:0:
192,192,48516,1,0,0:0:0:0:
64,192,48516,1,0,0:0:0:0:
448,192,48634,1,0,0:0:0:0:
192,192,48634,1,0,0:0:0:0:
64,192,48634,1,0,0:0:0:0:
448,192,48753,1,0,0:0:0:0:
320,192,48753,128,0,49287:0:0:0:0:
64,192,48753,1,0,0:0:0:0:
448,192,49703,1,0,0:0:0:0:
192,192,49703,1,0,0:0:0:0:
64,192,49703,1,0,0:0:0:0:
448,192,49940,1,0,0:0:0:0:
320,192,50178,1,0,0:0:0:0:
192,192,50178,1,0,0:0:0:0:
64,192,50178,1,0,0:0:0:0:
320,192,50297,1,0,0:0:0:0:
192,192,50356,1,0,0:0:0:0:
320,192,50415,1,0,0:0:0:0:
192,192,50475,1,0,0:0:0:0:
320,192,50534,1,0,0:0:0:0:
192,192,50593,1,0,0:0:0:0:
448,192,50653,1,0,0:0:0:0:
320,192,50653,1,0,0:0:0:0:
448,192,50771,1,0,0:0:0:0:
192,192,50771,1,0,0:0:0:0:
320,192,50890,1,0,0:0:0:0:
192,192,50890,1,0,0:0:0:0:
64,192,50890,1,0,0:0:0:0:
448,192,51009,1,0,0:0:0:0:
192,192,51009,1,0,0:0:0:0:
320,192,51128,1,0,0:0:0:0:
64,192,51128,1,0,0:0:0:0:
448,192,51246,1,0,0:0:0:0:
192,192,51306,1,0,0:0:0:0:
448,192,51365,1,0,0:0:0:0:
192,192,51424,1,0,0:0:0:0:
448,192,51484,1,0,0:0:0:0:
320,192,51484,1,0,0:0:0:0:
192,192,51721,1,0,0:0:0:0:
64,192,51721,1,0,0:0:0:0:
448,192,51840,1,0,0:0:0:0:
320,192,51840,1,0,0:0:0:0:
64,192,51840,1,0,0:0:0:0:
448,192,51959,1,0,0:0:0:0:
192,192,51959,1,0,0:0:0:0:
320,192,52078,1,0,0:0:0:0:
64,192,52078,1,0,0:0:0:0:
448,192,52315,1,0,0:0:0:0:
320,192,52315,1,0,0:0:0:0:
192,192,52552,1,0,0:0:0:0:
64,192,52552,1,0,0:0:0:0:
448,192,52671,1,0,0:0:0:0:
192,192,52671,1,0,0:0:0:0:
448,192,52790,1,0,0:0:0:0:
320,192,52790,1,0,0:0:0:0:
64,192,52790,1,0,0:0:0:0:
448,192,52909,1,0,0:0:0:0:
192,192,52909,1,0,0:0:0:0:
192,192,53027,1,0,0:0:0:0:
64,192,53027,1,0,0:0:0:0:
448,192,53146,1,0,0:0:0:0:
448,192,53265,1,0,0:0:0:0:
320,192,53265,1,0,0:0:0:0:
192,192,53384,1,0,0:0:0:0:
64,192,53384,1,0,0:0:0:0:
320,192,53621,1,0,0:0:0:0:
64,192,53621,1,0,0:0:0:0:
448,192,53740,1,0,0:0:0:0:
192,192,53740,1,0,0:0:0:0:
64,192,53740,1,0,0:0:0:0:
320,192,53858,1,0,0:0:0:0:
192,192,53858,1,0,0:0:0:0:
448,192,53977,1,0,0:0:0:0:
192,192,53977,1,0,0:0:0:0:
64,192,54215,1,0,0:0:0:0:
320,192,54274,1,0,0:0:0:0:
64,192,54333,1,0,0:0:0:0:
320,192,54393,1,0,0:0:0:0:
192,192,54452,1,0,0:0:0:0:
64,192,54452,1,0,0:0:0:0:
448,192,54571,1,0,0:0:0:0:
192,192,54571,1,0,0:0:0:0:
448,192,54690,1,0,0:0:0:0:
320,192,54690,1,0,0:0:0:0:
64,192,54690,1,0,0:0:0:0:
320,192,54808,1,0,0:0:0:0:
64,192,54808,1,0,0:0:0:0:
448,192,54927,1,0,0:0:0:0:
192,192,54927,1,0,0:0:0:0:
64,192,55046,1,0,0:0:0:0:
192,192,55165,1,0,0:0:0:0:
64,192,55165,1,0,0:0:0:0:
448,192,55283,1,0,0:0:0:0:
320,192,55283,1,0,0:0:0:0:
320,192,55521,1,0,0:0:0:0:
64,192,55521,1,0,0:0:0:0:
448,192,55639,1,0,0:0:0:0:
192,192,55639,1,0,0:0:0:0:
64,192,55639,1,0,0:0:0:0:
320,192,55758,1,0,0:0:0:0:
192,192,55758,1,0,0:0:0:0:
448,192,55877,1,0,0:0:0:0:
320,192,55877,1,0,0:0:0:0:
192,192,56114,1,0,0:0:0:0:
320,192,56174,1,0,0:0:0:0:
192,192,56233,1,0,0:0:0:0:
320,192,56293,1,0,0:0:0:0:
192,192,56352,1,0,0:0:0:0:
64,192,56352,128,0,56708:0:0:0:0:
448,192,56471,1,0,0:0:0:0:
448,192,56589,1,0,0:0:0:0:
320,192,56589,1,0,0:0:0:0:
320,192,56708,128,0,57064:0:0:0:0:
64,192,56946,1,0,0:0:0:0:
448,192,57064,1,0,0:0:0:0:
64,192,57064,1,0,0:0:0:0:
192,192,57124,1,0,0:0:0:0:
320,192,57183,1,0,0:0:0:0:
448,192,57242,1,0,0:0:0:0:
320,192,57302,1,0,0:0:0:0:
192,192,57302,1,0,0:0:0:0:
192,192,57420,1,0,0:0:0:0:
64,192,57420,1,0,0:0:0:0:
448,192,57539,1,0,0:0:0:0:
320,192,57599,1,0,0:0:0:0:
192,192,57658,128,0,58014:0:0:0:0:
64,192,57895,1,0,0:0:0:0:
320,192,57955,1,0,0:0:0:0:
448,192,58014,128,0,58252:0:0:0:0:
192,192,58252,1,0,0:0:0:0:
64,192,58252,128,0,58311:0:0:0:0:
320,192,58370,1,0,0:0:0:0:
64,192,58370,1,0,0:0:0:0:
448,192,58489,1,0,0:0:0:0:
320,192,58489,1,0,0:0:0:0:
192,192,58489,1,0,0:0:0:0:
320,192,58608,128,0,58667:0:0:0:0:
64,192,58608,1,0,0:0:0:0:
448,192,58727,1,0,0:0:0:0:
192,192,58727,1,0,0:0:0:0:
64,192,58845,1,0,0:0:0:0:
320,192,58905,1,0,0:0:0:0:
64,192,58964,1,0,0:0:0:0:
320,192,59023,1,0,0:0:0:0:
192,192,59083,128,0,59142:0:0:0:0:
64,192,59083,1,0,0:0:0:0:
448,192,59320,1,0,0:0:0:0:
320,192,59320,1,0,0:0:0:0:
448,192,59439,128,0,59498:0:0:0:0:
192,192,59439,1,0,0:0:0:0:
64,192,59439,1,0,0:0:0:0:
320,192,59558,1,0,0:0:0:0:
64,192,59558,1,0,0:0:0:0:
448,192,59676,128,0,59736:0:0:0:0:
192,192,59676,1,0,0:0:0:0:
192,192,59914,128,0,60151:0:0:0:0:
64,192,59914,1,0,0:0:0:0:
448,192,60151,128,0,60211:0:0:0:0:
320,192,60151,1,0,0:0:0:0:
320,192,60270,1,0,0:0:0:0:
64,192,60270,1,0,0:0:0:0:
448,192,60389,1,0,0:0:0:0:
192,192,60389,1,0,0:0:0:0:
64,192,60389,1,0,0:0:0:0:
320,192,60507,128,0,60567:0:0:0:0:
64,192,60507,1,0,0:0:0:0:
448,192,60626,1,0,0:0:0:0:
320,192,60626,1,0,0:0:0:0:
64,192,60745,1,0,0:0:0:0:
192,192,60864,1,0,0:0:0:0:
64,192,60864,1,0,0:0:0:0:
448,192,60982,1,0,0:0:0:0:
320,192,60982,128,0,61042:0:0:0:0:
448,192,61220,1,0,0:0:0:0:
192,192,61220,1,0,0:0:0:0:
448,192,61339,128,0,61398:0:0:0:0:
320,192,61339,1,0,0:0:0:0:
64,192,61339,1,0,0:0:0:0:
320,192,61457,1,0,0:0:0:0:
192,192,61457,1,0,0:0:0:0:
320,192,61576,128,0,61635:0:0:0:0:
64,192,61576,1,0,0:0:0:0:
448,192,61814,1,0,0:0:0:0:
64,192,61814,128,0,62051:0:0:0:0:
192,192,61873,1,0,0:0:0:0:
448,192,61932,1,0,0:0:0:0:
192,192,61992,1,0,0:0:0:0:
448,192,62051,128,0,62110:0:0:0:0:
320,192,62051,1,0,0:0:0:0:
320,192,62170,1,0,0:0:0:0:
64,192,62170,1,0,0:0:0:0:
448,192,62288,1,0,0:0:0:0:
192,192,62288,1,0,0:0:0:0:
64,192,62288,1,0,0:0:0:0:
448,192,62407,1,0,0:0:0:0:
192,192,62407,128,0,62467:0:0:0:0:
320,192,62526,1,0,0:0:0:0:
64,192,62526,1,0,0:0:0:0:
448,192,62645,1,0,0:0:0:0:
448,192,62763,1,0,0:0:0:0:
320,192,62763,1,0,0:0:0:0:
192,192,62882,128,0,62941:0:0:0:0:
64,192,62882,1,0,0:0:0:0:
448,192,63120,1,0,0:0:0:0:
192,192,63120,1,0,0:0:0:0:
448,192,63238,128,0,63298:0:0:0:0:
320,192,63238,1,0,0:0:0:0:
64,192,63238,1,0,0:0:0:0:
320,192,63357,1,0,0:0:0:0:
192,192,63357,1,0,0:0:0:0:
192,192,63476,1,0,0:0:0:0:
64,192,63476,128,0,63535:0:0:0:0:
448,192,63713,128,0,63951:0:0:0:0:
320,192,63713,1,0,0:0:0:0:
192,192,63773,1,0,0:0:0:0:
320,192,63832,1,0,0:0:0:0:
192,192,63891,1,0,0:0:0:0:
64,192,63951,128,0,64307:0:0:0:0:
320,192,64307,128,0,64663:0:0:0:0:
448,192,64663,128,0,64782:0:0:0:0:
320,192,64881,1,0,0:0:0:0:
192,192,64901,1,0,0:0:0:0:
64,192,65019,1,0,0:0:0:0:
192,192,65257,128,0,65554:0:0:0:0:
320,192,65554,1,0,0:0:0:0:
448,192,65613,128,0,65732:0:0:0:0:
320,192,65850,1,0,0:0:0:0:
192,192,65850,1,0,0:0:0:0:
64,192,65850,1,0,0:0:0:0:
448,192,65969,1,0,0:0:0:0:
320,192,65969,1,0,0:0:0:0:
64,192,65969,1,0,0:0:0:0:
448,192,66088,1,0,0:0:0:0:
192,192,66088,1,0,0:0:0:0:
64,192,66088,1,0,0:0:0:0:
448,192,66207,1,0,0:0:0:0:
320,192,66207,1,0,0:0:0:0:
192,192,66207,1,0,0:0:0:0:
320,192,66325,1,0,0:0:0:0:
192,192,66325,1,0,0:0:0:0:
64,192,66325,1,0,0:0:0:0:
448,192,66444,1,0,0:0:0:0:
192,192,66563,1,0,0:0:0:0:
64,192,66563,1,0,0:0:0:0:
320,192,66682,1,0,0:0:0:0:
192,192,66682,1,0,0:0:0:0:
64,192,66682,1,0,0:0:0:0:
320,192,66800,1,0,0:0:0:0:
448,192,66919,1,0,0:0:0:0:
192,192,66919,1,0,0:0:0:0:
64,192,66919,1,0,0:0:0:0:
448,192,67038,1,0,0:0:0:0:
320,192,67038,1,0,0:0:0:0:
64,192,67038,1,0,0:0:0:0:
448,192,67156,1,0,0:0:0:0:
320,192,67156,1,0,0:0:0:0:
192,192,67156,1,0,0:0:0:0:
320,192,67275,1,0,0:0:0:0:
192,192,67275,1,0,0:0:0:0:
64,192,67275,1,0,0:0:0:0:
448,192,67394,1,0,0:0:0:0:
448,192,67513,1,0,0:0:0:0:
192,192,67513,1,0,0:0:0:0:
192,192,67631,1,0,0:0:0:0:
448,192,67750,1,0,0:0:0:0:
320,192,67750,1,0,0:0:0:0:
64,192,67750,1,0,0:0:0:0:
448,192,67869,1,0,0:0:0:0:
192,192,67869,1,0,0:0:0:0:
64,192,67869,1,0,0:0:0:0:
320,192,67988,1,0,0:0:0:0:
192,192,67988,1,0,0:0:0:0:
64,192,67988,1,0,0:0:0:0:
448,192,68106,1,0,0:0:0:0:
320,192,68106,1,0,0:0:0:0:
192,192,68106,1,0,0:0:0:0:
448,192,68225,1,0,0:0:0:0:
320,192,68225,1,0,0:0:0:0:
64,192,68225,1,0,0:0:0:0:
192,192,68344,1,0,0:0:0:0:
448,192,68463,1,0,0:0:0:0:
320,192,68463,1,0,0:0:0:0:
448,192,68581,1,0,0:0:0:0:
192,192,68581,1,0,0:0:0:0:
64,192,68581,1,0,0:0:0:0:
192,192,68700,1,0,0:0:0:0:
448,192,68819,1,0,0:0:0:0:
320,192,68819,1,0,0:0:0:0:
64,192,68819,1,0,0:0:0:0:
320,192,68937,1,0,0:0:0:0:
192,192,68937,1,0,0:0:0:0:
64,192,68937,1,0,0:0:0:0:
448,192,69056,1,0,0:0:0:0:
320,192,69056,1,0,0:0:0:0:
192,192,69056,1,0,0:0:0:0:
448,192,69175,1,0,0:0:0:0:
192,192,69175,1,0,0:0:0:0:
64,192,69175,1,0,0:0:0:0:
320,192,69294,1,0,0:0:0:0:
320,192,69412,1,0,0:0:0:0:
64,192,69412,1,0,0:0:0:0:
64,192,69531,1,0,0:0:0:0:
448,192,69650,1,0,0:0:0:0:
320,192,69650,1,0,0:0:0:0:
192,192,69650,1,0,0:0:0:0:
448,192,69769,1,0,0:0:0:0:
320,192,69769,1,0,0:0:0:0:
64,192,69769,1,0,0:0:0:0:
448,192,69887,1,0,0:0:0:0:
192,192,69887,1,0,0:0:0:0:
64,192,69887,1,0,0:0:0:0:
320,192,70006,1,0,0:0:0:0:
192,192,70006,1,0,0:0:0:0:
64,192,70006,1,0,0:0:0:0:
448,192,70125,1,0,0:0:0:0:
320,192,70125,1,0,0:0:0:0:
192,192,70125,1,0,0:0:0:0:
64,192,70244,1,0,0:0:0:0:
448,192,70362,1,0,0:0:0:0:
320,192,70362,1,0,0:0:0:0:
448,192,70481,1,0,0:0:0:0:
192,192,70481,1,0,0:0:0:0:
64,192,70481,1,0,0:0:0:0:
320,192,70600,1,0,0:0:0:0:
320,192,70718,1,0,0:0:0:0:
192,192,70718,1,0,0:0:0:0:
64,192,70718,1,0,0:0:0:0:
448,192,70837,1,0,0:0:0:0:
192,192,70837,1,0,0:0:0:0:
64,192,70837,1,0,0:0:0:0:
448,192,70956,1,0,0:0:0:0:
320,192,70956,1,0,0:0:0:0:
64,192,70956,1,0,0:0:0:0:
448,192,71075,1,0,0:0:0:0:
320,192,71075,1,0,0:0:0:0:
192,192,71075,1,0,0:0:0:0:
64,192,71193,1,0,0:0:0:0:
448,192,71312,1,0,0:0:0:0:
192,192,71312,1,0,0:0:0:0:
448,192,71431,1,0,0:0:0:0:
64,192,71550,128,0,71906:0:0:0:0:
448,192,71787,1,0,0:0:0:0:
320,192,71787,1,0,0:0:0:0:
320,192,71906,128,0,72262:0:0:0:0:
448,192,72262,128,0,72381:0:0:0:0:
192,192,72262,1,0,0:0:0:0:
64,192,72262,1,0,0:0:0:0:
320,192,72499,1,0,0:0:0:0:
192,192,72499,1,0,0:0:0:0:
192,192,72618,1,0,0:0:0:0:
64,192,72618,1,0,0:0:0:0:
448,192,72737,1,0,0:0:0:0:
320,192,72737,1,0,0:0:0:0:
192,192,72856,128,0,73212:0:0:0:0:
448,192,73212,128,0,73331:0:0:0:0:
320,192,73212,1,0,0:0:0:0:
64,192,73212,1,0,0:0:0:0:
448,192,73449,1,0,0:0:0:0:
320,192,73449,1,0,0:0:0:0:
192,192,73449,1,0,0:0:0:0:
448,192,73568,1,0,0:0:0:0:
192,192,73568,1,0,0:0:0:0:
64,192,73568,1,0,0:0:0:0:
448,192,73687,1,0,0:0:0:0:
320,192,73687,1,0,0:0:0:0:
64,192,73687,1,0,0:0:0:0:
320,192,73805,1,0,0:0:0:0:
192,192,73805,1,0,0:0:0:0:
64,192,73805,1,0,0:0:0:0:
448,192,73924,1,0,0:0:0:0:
320,192,73924,1,0,0:0:0:0:
192,192,73924,1,0,0:0:0:0:
64,192,74043,1,0,0:0:0:0:
448,192,74162,1,0,0:0:0:0:
320,192,74162,1,0,0:0:0:0:
448,192,74280,1,0,0:0:0:0:
320,192,74280,1,0,0:0:0:0:
192,192,74280,1,0,0:0:0:0:
192,192,74399,1,0,0:0:0:0:
448,192,74518,1,0,0:0:0:0:
320,192,74518,1,0,0:0:0:0:
64,192,74518,1,0,0:0:0:0:
448,192,74637,1,0,0:0:0:0:
192,192,74637,1,0,0:0:0:0:
64,192,74637,1,0,0:0:0:0:
320,192,74755,1,0,0:0:0:0:
192,192,74755,1,0,0:0:0:0:
64,192,74755,1,0,0:0:0:0:
448,192,74874,1,0,0:0:0:0:
320,192,74874,1,0,0:0:0:0:
192,192,74874,1,0,0:0:0:0:
64,192,74993,1,0,0:0:0:0:
320,192,75112,1,0,0:0:0:0:
192,192,75112,1,0,0:0:0:0:
320,192,75230,1,0,0:0:0:0:
448,192,75349,1,0,0:0:0:0:
192,192,75349,1,0,0:0:0:0:
64,192,75349,1,0,0:0:0:0:
448,192,75468,1,0,0:0:0:0:
320,192,75468,1,0,0:0:0:0:
64,192,75468,1,0,0:0:0:0:
448,192,75586,1,0,0:0:0:0:
320,192,75586,1,0,0:0:0:0:
192,192,75586,1,0,0:0:0:0:
320,192,75705,1,0,0:0:0:0:
192,192,75705,1,0,0:0:0:0:
64,192,75705,1,0,0:0:0:0:
448,192,75824,1,0,0:0:0:0:
192,192,75824,1,0,0:0:0:0:
64,192,75824,1,0,0:0:0:0:
320,192,75943,1,0,0:0:0:0:
192,192,76061,1,0,0:0:0:0:
64,192,76061,1,0,0:0:0:0:
448,192,76180,1,0,0:0:0:0:
320,192,76180,1,0,0:0:0:0:
64,192,76180,1,0,0:0:0:0:
320,192,76299,1,0,0:0:0:0:
448,192,76418,1,0,0:0:0:0:
192,192,76418,1,0,0:0:0:0:
64,192,76418,1,0,0:0:0:0:
448,192,76536,1,0,0:0:0:0:
320,192,76536,1,0,0:0:0:0:
192,192,76536,1,0,0:0:0:0:
320,192,76655,1,0,0:0:0:0:
192,192,76655,1,0,0:0:0:0:
64,192,76655,1,0,0:0:0:0:
448,192,76774,1,0,0:0:0:0:
320,192,76774,1,0,0:0:0:0:
64,192,76774,1,0,0:0:0:0:
192,192,76892,1,0,0:0:0:0:
448,192,77011,1,0,0:0:0:0:
320,192,77011,1,0,0:0:0:0:
448,192,77130,1,0,0:0:0:0:
320,192,77249,1,0,0:0:0:0:
192,192,77249,1,0,0:0:0:0:
64,192,77249,1,0,0:0:0:0:
448,192,77367,1,0,0:0:0:0:
192,192,77367,1,0,0:0:0:0:
64,192,77367,1,0,0:0:0:0:
448,192,77486,1,0,0:0:0:0:
320,192,77486,1,0,0:0:0:0:
64,192,77486,1,0,0:0:0:0:
448,192,77605,1,0,0:0:0:0:
320,192,77605,1,0,0:0:0:0:
192,192,77605,1,0,0:0:0:0:
320,192,77724,1,0,0:0:0:0:
192,192,77724,1,0,0:0:0:0:
64,192,77724,1,0,0:0:0:0:
448,192,77842,1,0,0:0:0:0:
192,192,77961,1,0,0:0:0:0:
64,192,77961,1,0,0:0:0:0:
448,192,78080,1,0,0:0:0:0:
320,192,78080,1,0,0:0:0:0:
64,192,78080,1,0,0:0:0:0:
192,192,78199,1,0,0:0:0:0:
448,192,78317,1,0,0:0:0:0:
320,192,78317,1,0,0:0:0:0:
192,192,78317,1,0,0:0:0:0:
448,192,78436,1,0,0:0:0:0:
320,192,78436,1,0,0:0:0:0:
64,192,78436,1,0,0:0:0:0:
448,192,78555,1,0,0:0:0:0:
192,192,78555,1,0,0:0:0:0:
64,192,78555,1,0,0:0:0:0:
320,192,78673,1,0,0:0:0:0:
192,192,78673,1,0,0:0:0:0:
64,192,78673,1,0,0:0:0:0:
448,192,78792,1,0,0:0:0:0:
320,192,78911,1,0,0:0:0:0:
64,192,78911,1,0,0:0:0:0:
64,192,79030,1,0,0:0:0:0:
192,192,79148,128,0,79505:0:0:0:0:
448,192,79386,1,0,0:0:0:0:
320,192,79386,1,0,0:0:0:0:
448,192,79505,128,0,79861:0:0:0:0:
320,192,79861,1,0,0:0:0:0:
192,192,79861,128,0,79980:0:0:0:0:
64,192,79861,1,0,0:0:0:0:
448,192,80098,1,0,0:0:0:0:
320,192,80098,1,0,0:0:0:0:
320,192,80217,1,0,0:0:0:0:
64,192,80217,1,0,0:0:0:0:
448,192,80336,1,0,0:0:0:0:
192,192,80336,1,0,0:0:0:0:
64,192,80454,128,0,80811:0:0:0:0:
448,192,80811,128,0,80929:0:0:0:0:
320,192,80811,1,0,0:0:0:0:
192,192,80811,1,0,0:0:0:0:
320,192,81048,1,0,0:0:0:0:
192,192,81048,1,0,0:0:0:0:
64,192,81048,1,0,0:0:0:0:
448,192,81167,1,0,0:0:0:0:
320,192,81167,1,0,0:0:0:0:
64,192,81167,1,0,0:0:0:0:
448,192,81286,1,0,0:0:0:0:
192,192,81286,1,0,0:0:0:0:
64,192,81286,1,0,0:0:0:0:
448,192,81404,1,0,0:0:0:0:
320,192,81404,1,0,0:0:0:0:
192,192,81404,1,0,0:0:0:0:
320,192,81523,1,0,0:0:0:0:
192,192,81523,1,0,0:0:0:0:
64,192,81523,1,0,0:0:0:0:
448,192,81642,1,0,0:0:0:0:
192,192,81761,1,0,0:0:0:0:
64,192,81761,1,0,0:0:0:0:
320,192,81879,1,0,0:0:0:0:
192,192,81879,1,0,0:0:0:0:
64,192,81879,1,0,0:0:0:0:
320,192,81998,1,0,0:0:0:0:
448,192,82117,1,0,0:0:0:0:
192,192,82117,1,0,0:0:0:0:
64,192,82117,1,0,0:0:0:0:
448,192,82235,1,0,0:0:0:0:
320,192,82235,1,0,0:0:0:0:
64,192,82235,1,0,0:0:0:0:
448,192,82354,1,0,0:0:0:0:
320,192,82354,1,0,0:0:0:0:
192,192,82354,1,0,0:0:0:0:
320,192,82473,1,0,0:0:0:0:
192,192,82473,1,0,0:0:0:0:
64,192,82473,1,0,0:0:0:0:
448,192,82592,1,0,0:0:0:0:
320,192,82710,1,0,0:0:0:0:
192,192,82710,1,0,0:0:0:0:
192,192,82829,1,0,0:0:0:0:
448,192,82948,1,0,0:0:0:0:
320,192,82948,1,0,0:0:0:0:
64,192,82948,1,0,0:0:0:0:
448,192,83067,1,0,0:0:0:0:
192,192,83067,1,0,0:0:0:0:
64,192,83067,1,0,0:0:0:0:
320,192,83185,1,0,0:0:0:0:
192,192,83185,1,0,0:0:0:0:
64,192,83185,1,0,0:0:0:0:
448,192,83304,1,0,0:0:0:0:
320,192,83304,1,0,0:0:0:0:
192,192,83304,1,0,0:0:0:0:
448,192,83423,1,0,0:0:0:0:
320,192,83423,1,0,0:0:0:0:
64,192,83423,1,0,0:0:0:0:
192,192,83541,1,0,0:0:0:0:
448,192,83660,1,0,0:0:0:0:
320,192,83660,1,0,0:0:0:0:
448,192,83779,1,0,0:0:0:0:
192,192,83779,1,0,0:0:0:0:
64,192,83779,1,0,0:0:0:0:
192,192,83898,1,0,0:0:0:0:
448,192,84016,1,0,0:0:0:0:
320,192,84016,1,0,0:0:0:0:
64,192,84016,1,0,0:0:0:0:
320,192,84135,1,0,0:0:0:0:
192,192,84135,1,0,0:0:0:0:
64,192,84135,1,0,0:0:0:0:
448,192,84254,1,0,0:0:0:0:
320,192,84254,1,0,0:0:0:0:
192,192,84254,1,0,0:0:0:0:
448,192,84373,1,0,0:0:0:0:
192,192,84373,1,0,0:0:0:0:
64,192,84373,1,0,0:0:0:0:
320,192,84491,1,0,0:0:0:0:
192,192,84610,1,0,0:0:0:0:
64,192,84610,1,0,0:0:0:0:
64,192,84729,1,0,0:0:0:0:
448,192,84848,1,0,0:0:0:0:
320,192,84848,1,0,0:0:0:0:
192,192,84848,1,0,0:0:0:0:
448,192,84966,1,0,0:0:0:0:
320,192,84966,1,0,0:0:0:0:
64,192,84966,1,0,0:0:0:0:
448,192,85085,1,0,0:0:0:0:
192,192,85085,1,0,0:0:0:0:
64,192,85085,1,0,0:0:0:0:
320,192,85204,1,0,0:0:0:0:
192,192,85204,1,0,0:0:0:0:
64,192,85204,1,0,0:0:0:0:
448,192,85322,1,0,0:0:0:0:
320,192,85322,1,0,0:0:0:0:
192,192,85322,1,0,0:0:0:0:
64,192,85441,1,0,0:0:0:0:
448,192,85560,1,0,0:0:0:0:
320,192,85560,1,0,0:0:0:0:
448,192,85679,1,0,0:0:0:0:
192,192,85679,1,0,0:0:0:0:
64,192,85679,1,0,0:0:0:0:
320,192,85797,1,0,0:0:0:0:
320,192,85916,1,0,0:0:0:0:
192,192,85916,1,0,0:0:0:0:
64,192,85916,1,0,0:0:0:0:
448,192,86035,1,0,0:0:0:0:
192,192,86035,1,0,0:0:0:0:
64,192,86035,1,0,0:0:0:0:
448,192,86154,1,0,0:0:0:0:
320,192,86154,1,0,0:0:0:0:
64,192,86154,1,0,0:0:0:0:
448,192,86272,1,0,0:0:0:0:
320,192,86272,1,0,0:0:0:0:
192,192,86272,1,0,0:0:0:0:
64,192,86391,1,0,0:0:0:0:
448,192,86510,1,0,0:0:0:0:
192,192,86510,1,0,0:0:0:0:
448,192,86629,1,0,0:0:0:0:
320,192,86747,128,0,87103:0:0:0:0:
192,192,86985,1,0,0:0:0:0:
64,192,86985,1,0,0:0:0:0:
64,192,87103,128,0,87460:0:0:0:0:
448,192,87460,1,0,0:0:0:0:
320,192,87460,128,0,87578:0:0:0:0:
192,192,87460,1,0,0:0:0:0:
192,192,87697,1,0,0:0:0:0:
64,192,87697,1,0,0:0:0:0:
448,192,87816,1,0,0:0:0:0:
192,192,87816,1,0,0:0:0:0:
320,192,87935,1,0,0:0:0:0:
64,192,87935,1,0,0:0:0:0:
448,192,88053,128,0,88409:0:0:0:0:
320,192,88409,1,0,0:0:0:0:
192,192,88409,1,0,0:0:0:0:
64,192,88409,128,0,88528:0:0:0:0:
320,192,88647,1,0,0:0:0:0:
192,192,88647,1,0,0:0:0:0:
64,192,88647,1,0,0:0:0:0:
448,192,88766,1,0,0:0:0:0:
320,192,88766,1,0,0:0:0:0:
64,192,88766,1,0,0:0:0:0:
448,192,88884,1,0,0:0:0:0:
192,192,88884,1,0,0:0:0:0:
64,192,88884,1,0,0:0:0:0:
448,192,89003,1,0,0:0:0:0:
320,192,89003,1,0,0:0:0:0:
192,192,89003,1,0,0:0:0:0:
320,192,89122,1,0,0:0:0:0:
192,192,89122,1,0,0:0:0:0:
64,192,89122,1,0,0:0:0:0:
448,192,89241,1,0,0:0:0:0:
192,192,89359,1,0,0:0:0:0:
64,192,89359,1,0,0:0:0:0:
320,192,89478,1,0,0:0:0:0:
192,192,89478,1,0,0:0:0:0:
64,192,89478,1,0,0:0:0:0:
320,192,89597,1,0,0:0:0:0:
448,192,89716,1,0,0:0:0:0:
192,192,89716,1,0,0:0:0:0:
64,192,89716,1,0,0:0:0:0:
448,192,89834,1,0,0:0:0:0:
320,192,89834,1,0,0:0:0:0:
64,192,89834,1,0,0:0:0:0:
448,192,89953,1,0,0:0:0:0:
320,192,89953,1,0,0:0:0:0:
192,192,89953,1,0,0:0:0:0:
320,192,90072,1,0,0:0:0:0:
192,192,90072,1,0,0:0:0:0:
64,192,90072,1,0,0:0:0:0:
448,192,90190,1,0,0:0:0:0:
448,192,90309,1,0,0:0:0:0:
192,192,90309,1,0,0:0:0:0:
192,192,90428,1,0,0:0:0:0:
448,192,90547,1,0,0:0:0:0:
320,192,90547,1,0,0:0:0:0:
64,192,90547,1,0,0:0:0:0:
448,192,90665,1,0,0:0:0:0:
192,192,90665,1,0,0:0:0:0:
64,192,90665,1,0,0:0:0:0:
320,192,90784,1,0,0:0:0:0:
192,192,90784,1,0,0:0:0:0:
64,192,90784,1,0,0:0:0:0:
448,192,90903,1,0,0:0:0:0:
320,192,90903,1,0,0:0:0:0:
192,192,90903,1,0,0:0:0:0:
448,192,91022,1,0,0:0:0:0:
320,192,91022,1,0,0:0:0:0:
64,192,91022,1,0,0:0:0:0:
192,192,91140,1,0,0:0:0:0:
448,192,91259,1,0,0:0:0:0:
320,192,91259,1,0,0:0:0:0:
448,192,91378,1,0,0:0:0:0:
192,192,91378,1,0,0:0:0:0:
64,192,91378,1,0,0:0:0:0:
192,192,91497,1,0,0:0:0:0:
448,192,91615,1,0,0:0:0:0:
320,192,91615,1,0,0:0:0:0:
64,192,91615,1,0,0:0:0:0:
320,192,91734,1,0,0:0:0:0:
192,192,91734,1,0,0:0:0:0:
64,192,91734,1,0,0:0:0:0:
448,192,91853,1,0,0:0:0:0:
320,192,91853,1,0,0:0:0:0:
192,192,91853,1,0,0:0:0:0:
448,192,91971,1,0,0:0:0:0:
192,192,91971,1,0,0:0:0:0:
64,192,91971,1,0,0:0:0:0:
320,192,92090,1,0,0:0:0:0:
320,192,92209,1,0,0:0:0:0:
64,192,92209,1,0,0:0:0:0:
64,192,92328,1,0,0:0:0:0:
448,192,92446,1,0,0:0:0:0:
320,192,92446,1,0,0:0:0:0:
192,192,92446,1,0,0:0:0:0:
448,192,92565,1,0,0:0:0:0:
320,192,92565,1,0,0:0:0:0:
64,192,92565,1,0,0:0:0:0:
448,192,92684,1,0,0:0:0:0:
192,192,92684,1,0,0:0:0:0:
64,192,92684,1,0,0:0:0:0:
320,192,92803,1,0,0:0:0:0:
192,192,92803,1,0,0:0:0:0:
64,192,92803,1,0,0:0:0:0:
448,192,92921,1,0,0:0:0:0:
320,192,92921,1,0,0:0:0:0:
192,192,92921,1,0,0:0:0:0:
64,192,93040,1,0,0:0:0:0:
448,192,93159,1,0,0:0:0:0:
320,192,93159,1,0,0:0:0:0:
448,192,93278,1,0,0:0:0:0:
192,192,93278,1,0,0:0:0:0:
64,192,93278,1,0,0:0:0:0:
320,192,93396,1,0,0:0:0:0:
320,192,93515,1,0,0:0:0:0:
192,192,93515,1,0,0:0:0:0:
64,192,93515,1,0,0:0:0:0:
448,192,93634,1,0,0:0:0:0:
192,192,93634,1,0,0:0:0:0:
64,192,93634,1,0,0:0:0:0:
448,192,93752,1,0,0:0:0:0:
320,192,93752,1,0,0:0:0:0:
64,192,93752,1,0,0:0:0:0:
448,192,93871,1,0,0:0:0:0:
320,192,93871,1,0,0:0:0:0:
192,192,93871,1,0,0:0:0:0:
64,192,93990,1,0,0:0:0:0:
448,192,94109,1,0,0:0:0:0:
192,192,94109,1,0,0:0:0:0:
448,192,94227,1,0,0:0:0:0:
448,192,94346,128,0,94702:0:0:0:0:
192,192,94584,1,0,0:0:0:0:
64,192,94584,1,0,0:0:0:0:
192,192,94702,128,0,95058:0:0:0:0:
448,192,95058,1,0,0:0:0:0:
320,192,95058,1,0,0:0:0:0:
64,192,95058,128,0,95177:0:0:0:0:
320,192,95296,1,0,0:0:0:0:
192,192,95296,1,0,0:0:0:0:
448,192,95415,1,0,0:0:0:0:
320,192,95415,1,0,0:0:0:0:
192,192,95533,1,0,0:0:0:0:
64,192,95533,1,0,0:0:0:0:
320,192,95652,128,0,96008:0:0:0:0:
448,192,96008,1,0,0:0:0:0:
192,192,96008,1,0,0:0:0:0:
64,192,96008,128,0,96127:0:0:0:0:
320,192,96246,128,0,97671:0:0:0:0:
64,192,97671,128,0,97789:0:0:0:0:
192,192,97908,128,0,98027:0:0:0:0:
320,192,98146,128,0,98858:0:0:0:0:
448,192,98858,128,0,99095:0:0:0:0:
192,192,99095,128,0,99214:0:0:0:0:
320,192,99214,128,0,99333:0:0:0:0:
64,192,99452,128,0,99808:0:0:0:0:
448,192,99808,128,0,100045:0:0:0:0:
320,192,100045,128,0,100758:0:0:0:0:
192,192,100995,128,0,101114:0:0:0:0:
192,192,101233,1,0,0:0:0:0:
320,192,101351,128,0,101470:0:0:0:0:
320,192,101589,1,0,0:0:0:0:
192,192,101688,1,0,0:0:0:0:
448,192,101707,128,0,101826:0:0:0:0:
64,192,101945,128,0,102657:0:0:0:0:
192,192,102895,128,0,103251:0:0:0:0:
64,192,102895,128,0,103607:0:0:0:0:
320,192,103251,128,0,103845:0:0:0:0:
448,192,103607,128,0,103845:0:0:0:0:
192,192,103845,1,0,0:0:0:0:
64,192,103845,1,0,0:0:0:0:
320,192,103963,1,0,0:0:0:0:
64,192,103963,1,0,0:0:0:0:
320,192,104082,1,0,0:0:0:0:
192,192,104082,1,0,0:0:0:0:
448,192,104201,1,0,0:0:0:0:
192,192,104201,1,0,0:0:0:0:
448,192,104320,1,0,0:0:0:0:
320,192,104320,1,0,0:0:0:0:
192,192,104438,1,0,0:0:0:0:
192,192,104557,1,0,0:0:0:0:
64,192,104557,1,0,0:0:0:0:
448,192,104676,1,0,0:0:0:0:
320,192,104676,1,0,0:0:0:0:
320,192,104794,1,0,0:0:0:0:
448,192,104913,1,0,0:0:0:0:
192,192,104913,1,0,0:0:0:0:
320,192,105032,1,0,0:0:0:0:
192,192,105032,1,0,0:0:0:0:
320,192,105151,1,0,0:0:0:0:
64,192,105151,1,0,0:0:0:0:
448,192,105269,1,0,0:0:0:0:
192,192,105269,1,0,0:0:0:0:
64,192,105269,1,0,0:0:0:0:
192,192,105388,1,0,0:0:0:0:
448,192,105507,1,0,0:0:0:0:
320,192,105507,1,0,0:0:0:0:
64,192,105507,1,0,0:0:0:0:
64,192,105626,1,0,0:0:0:0:
448,192,105744,1,0,0:0:0:0:
320,192,105744,1,0,0:0:0:0:
192,192,105744,1,0,0:0:0:0:
448,192,105863,1,0,0:0:0:0:
320,192,105863,1,0,0:0:0:0:
448,192,105982,1,0,0:0:0:0:
192,192,105982,1,0,0:0:0:0:
320,192,106101,1,0,0:0:0:0:
192,192,106101,1,0,0:0:0:0:
320,192,106219,1,0,0:0:0:0:
64,192,106219,1,0,0:0:0:0:
192,192,106338,1,0,0:0:0:0:
448,192,106457,1,0,0:0:0:0:
192,192,106457,1,0,0:0:0:0:
64,192,106457,1,0,0:0:0:0:
448,192,106575,1,0,0:0:0:0:
320,192,106694,1,0,0:0:0:0:
192,192,106694,1,0,0:0:0:0:
64,192,106694,1,0,0:0:0:0:
64,192,106813,1,0,0:0:0:0:
448,192,106932,1,0,0:0:0:0:
320,192,106932,1,0,0:0:0:0:
192,192,106932,1,0,0:0:0:0:
320,192,107050,1,0,0:0:0:0:
64,192,107050,1,0,0:0:0:0:
448,192,107169,1,0,0:0:0:0:
448,192,107288,1,0,0:0:0:0:
320,192,107407,1,0,0:0:0:0:
192,192,107407,1,0,0:0:0:0:
64,192,107407,1,0,0:0:0:0:
192,192,107525,1,0,0:0:0:0:
448,192,107644,1,0,0:0:0:0:
320,192,107644,1,0,0:0:0:0:
64,192,107644,1,0,0:0:0:0:
192,192,107763,1,0,0:0:0:0:
64,192,107763,1,0,0:0:0:0:
320,192,107882,1,0,0:0:0:0:
192,192,107882,1,0,0:0:0:0:
448,192,108000,1,0,0:0:0:0:
192,192,108000,1,0,0:0:0:0:
448,192,108119,1,0,0:0:0:0:
320,192,108119,1,0,0:0:0:0:
64,192,108238,1,0,0:0:0:0:
192,192,108356,1,0,0:0:0:0:
64,192,108356,1,0,0:0:0:0:
448,192,108475,1,0,0:0:0:0:
320,192,108475,1,0,0:0:0:0:
320,192,108594,1,0,0:0:0:0:
448,192,108713,1,0,0:0:0:0:
192,192,108713,1,0,0:0:0:0:
320,192,108831,1,0,0:0:0:0:
192,192,108831,1,0,0:0:0:0:
320,192,108950,1,0,0:0:0:0:
64,192,108950,1,0,0:0:0:0:
448,192,109069,1,0,0:0:0:0:
192,192,109069,1,0,0:0:0:0:
64,192,109069,1,0,0:0:0:0:
192,192,109188,1,0,0:0:0:0:
448,192,109306,1,0,0:0:0:0:
320,192,109306,1,0,0:0:0:0:
64,192,109306,1,0,0:0:0:0:
64,192,109425,1,0,0:0:0:0:
448,192,109544,1,0,0:0:0:0:
320,192,109544,1,0,0:0:0:0:
192,192,109544,1,0,0:0:0:0:
448,192,109663,1,0,0:0:0:0:
320,192,109781,1,0,0:0:0:0:
192,192,109781,1,0,0:0:0:0:
192,192,109900,1,0,0:0:0:0:
320,192,110019,1,0,0:0:0:0:
64,192,110019,1,0,0:0:0:0:
320,192,110137,1,0,0:0:0:0:
448,192,110256,1,0,0:0:0:0:
192,192,110256,1,0,0:0:0:0:
64,192,110256,1,0,0:0:0:0:
448,192,110375,1,0,0:0:0:0:
320,192,110494,1,0,0:0:0:0:
192,192,110494,1,0,0:0:0:0:
64,192,110494,1,0,0:0:0:0:
192,192,110612,1,0,0:0:0:0:
448,192,110731,1,0,0:0:0:0:
320,192,110731,1,0,0:0:0:0:
64,192,110731,1,0,0:0:0:0:
448,192,110850,1,0,0:0:0:0:
192,192,110850,1,0,0:0:0:0:
64,192,110969,1,0,0:0:0:0:
64,192,111087,1,0,0:0:0:0:
448,192,111206,1,0,0:0:0:0:
320,192,111206,1,0,0:0:0:0:
192,192,111206,1,0,0:0:0:0:
320,192,111325,1,0,0:0:0:0:
448,192,111443,1,0,0:0:0:0:
192,192,111443,1,0,0:0:0:0:
64,192,111443,1,0,0:0:0:0:
320,192,111562,1,0,0:0:0:0:
64,192,111562,1,0,0:0:0:0:
320,192,111681,1,0,0:0:0:0:
192,192,111681,1,0,0:0:0:0:
448,192,111800,1,0,0:0:0:0:
192,192,111800,1,0,0:0:0:0:
448,192,111918,1,0,0:0:0:0:
320,192,111918,1,0,0:0:0:0:
64,192,112037,1,0,0:0:0:0:
320,192,112156,1,0,0:0:0:0:
64,192,112156,1,0,0:0:0:0:
448,192,112275,1,0,0:0:0:0:
192,192,112275,1,0,0:0:0:0:
192,192,112393,1,0,0:0:0:0:
448,192,112512,1,0,0:0:0:0:
320,192,112512,1,0,0:0:0:0:
448,192,112631,1,0,0:0:0:0:
192,192,112631,1,0,0:0:0:0:
320,192,112750,1,0,0:0:0:0:
192,192,112750,1,0,0:0:0:0:
320,192,112868,1,0,0:0:0:0:
192,192,112868,1,0,0:0:0:0:
64,192,112868,1,0,0:0:0:0:
64,192,112987,1,0,0:0:0:0:
448,192,113106,1,0,0:0:0:0:
320,192,113106,1,0,0:0:0:0:
192,192,113106,1,0,0:0:0:0:
320,192,113224,1,0,0:0:0:0:
448,192,113343,1,0,0:0:0:0:
192,192,113343,1,0,0:0:0:0:
64,192,113343,1,0,0:0:0:0:
320,192,113462,1,0,0:0:0:0:
64,192,113462,1,0,0:0:0:0:
320,192,113581,1,0,0:0:0:0:
192,192,113581,1,0,0:0:0:0:
448,192,113699,1,0,0:0:0:0:
192,192,113699,1,0,0:0:0:0:
448,192,113818,1,0,0:0:0:0:
320,192,113818,1,0,0:0:0:0:
320,192,113937,1,0,0:0:0:0:
448,192,114056,1,0,0:0:0:0:
192,192,114056,1,0,0:0:0:0:
64,192,114056,1,0,0:0:0:0:
448,192,114174,1,0,0:0:0:0:
320,192,114293,1,0,0:0:0:0:
192,192,114293,1,0,0:0:0:0:
64,192,114293,1,0,0:0:0:0:
320,192,114412,1,0,0:0:0:0:
448,192,114531,1,0,0:0:0:0:
192,192,114531,1,0,0:0:0:0:
64,192,114531,1,0,0:0:0:0:
320,192,114649,1,0,0:0:0:0:
64,192,114649,1,0,0:0:0:0:
448,192,114768,1,0,0:0:0:0:
448,192,114887,1,0,0:0:0:0:
320,192,115005,1,0,0:0:0:0:
192,192,115005,1,0,0:0:0:0:
64,192,115005,1,0,0:0:0:0:
320,192,115124,1,0,0:0:0:0:
448,192,115243,1,0,0:0:0:0:
192,192,115243,1,0,0:0:0:0:
64,192,115243,1,0,0:0:0:0:
448,192,115362,1,0,0:0:0:0:
320,192,115362,1,0,0:0:0:0:
320,192,115480,1,0,0:0:0:0:
192,192,115480,1,0,0:0:0:0:
320,192,115599,1,0,0:0:0:0:
64,192,115599,1,0,0:0:0:0:
192,192,115718,1,0,0:0:0:0:
64,192,115718,1,0,0:0:0:0:
448,192,115837,1,0,0:0:0:0:
448,192,115955,1,0,0:0:0:0:
320,192,115955,1,0,0:0:0:0:
192,192,116074,1,0,0:0:0:0:
64,192,116074,1,0,0:0:0:0:
192,192,116193,1,0,0:0:0:0:
320,192,116311,1,0,0:0:0:0:
64,192,116311,1,0,0:0:0:0:
320,192,116430,1,0,0:0:0:0:
192,192,116430,1,0,0:0:0:0:
448,192,116549,1,0,0:0:0:0:
192,192,116549,1,0,0:0:0:0:
448,192,116668,1,0,0:0:0:0:
320,192,116668,1,0,0:0:0:0:
320,192,116786,1,0,0:0:0:0:
448,192,116905,1,0,0:0:0:0:
192,192,116905,1,0,0:0:0:0:
192,192,117024,1,0,0:0:0:0:
320,192,117083,1,0,0:0:0:0:
448,192,117143,1,0,0:0:0:0:
64,192,117143,1,0,0:0:0:0:
192,192,117261,1,0,0:0:0:0:
320,192,117380,1,0,0:0:0:0:
192,192,117499,1,0,0:0:0:0:
320,192,117736,1,0,0:0:0:0:
448,192,117855,1,0,0:0:0:0:
320,192,118073,1,0,0:0:0:0:
448,192,118092,1,0,0:0:0:0:
192,192,118211,1,0,0:0:0:0:
64,192,118449,1,0,0:0:0:0:
64,192,118746,1,0,0:0:0:0:
192,192,118785,1,0,0:0:0:0:
320,192,118805,1,0,0:0:0:0:
448,192,119050,1,0,0:0:0:0:
320,192,119168,1,0,0:0:0:0:
64,192,119287,1,0,0:0:0:0:
192,192,119406,1,0,0:0:0:0:
448,192,119524,1,0,0:0:0:0:
64,192,119762,1,0,0:0:0:0:
320,192,119999,1,0,0:0:0:0:
192,192,120356,1,0,0:0:0:0:
64,192,120712,1,0,0:0:0:0:
192,192,120830,1,0,0:0:0:0:
320,192,120949,1,0,0:0:0:0:
448,192,121305,1,0,0:0:0:0:
192,192,121543,1,0,0:0:0:0:
320,192,121662,1,0,0:0:0:0:
64,192,121899,1,0,0:0:0:0:
448,192,122849,1,0,0:0:0:0:
192,192,122968,1,0,0:0:0:0:
320,192,123086,1,0,0:0:0:0:
64,192,123205,1,0,0:0:0:0:
448,192,123324,1,0,0:0:0:0:
192,192,123561,1,0,0:0:0:0:
320,192,123799,1,0,0:0:0:0:
64,192,124155,1,0,0:0:0:0:
192,192,124511,1,0,0:0:0:0:
320,192,124630,1,0,0:0:0:0:
448,192,124749,1,0,0:0:0:0:
320,192,125105,1,0,0:0:0:0:
64,192,125342,1,0,0:0:0:0:
320,192,125461,1,0,0:0:0:0:
192,192,125698,1,0,0:0:0:0:
448,192,126644,128,0,126762:0:0:0:0:
320,192,126762,128,0,126881:0:0:0:0:
64,192,126881,128,0,127000:0:0:0:0:
192,192,127000,128,0,127118:0:0:0:0:
448,192,127118,128,0,127356:0:0:0:0:
64,192,127356,128,0,127593:0:0:0:0:
320,192,127593,128,0,127950:0:0:0:0:
192,192,127950,128,0,128068:0:0:0:0:
64,192,128306,128,0,128424:0:0:0:0:
192,192,128424,128,0,128543:0:0:0:0:
320,192,128543,128,0,128899:0:0:0:0:
448,192,128899,128,0,129137:0:0:0:0:
192,192,129137,128,0,129256:0:0:0:0:
320,192,129256,128,0,129493:0:0:0:0:
64,192,129493,128,0,130443:0:0:0:0:
448,192,130443,128,0,130562:0:0:0:0:
192,192,130562,128,0,130680:0:0:0:0:
320,192,130680,128,0,130799:0:0:0:0:
64,192,130799,128,0,130918:0:0:0:0:
448,192,130918,128,0,131155:0:0:0:0:
192,192,131155,128,0,131393:0:0:0:0:
320,192,131393,128,0,131749:0:0:0:0:
64,192,131749,128,0,131868:0:0:0:0:
192,192,132105,128,0,132223:0:0:0:0:
320,192,132223,128,0,132342:0:0:0:0:
448,192,132342,128,0,132698:0:0:0:0:
320,192,132698,128,0,132936:0:0:0:0:
64,192,132936,128,0,133054:0:0:0:0:
320,192,133054,128,0,133292:0:0:0:0:
192,192,133292,128,0,134241:0:0:0:0:
448,192,134241,1,0,0:0:0:0:
320,192,134241,1,0,0:0:0:0:
64,192,134241,1,0,0:0:0:0:
448,192,134359,1,0,0:0:0:0:
320,192,134359,1,0,0:0:0:0:
448,192,134478,1,0,0:0:0:0:
192,192,134478,1,0,0:0:0:0:
64,192,134478,1,0,0:0:0:0:
320,192,134597,1,0,0:0:0:0:
64,192,134597,1,0,0:0:0:0:
448,192,134715,1,0,0:0:0:0:
320,192,134715,1,0,0:0:0:0:
192,192,134715,1,0,0:0:0:0:
192,192,134834,1,0,0:0:0:0:
64,192,134834,1,0,0:0:0:0:
448,192,134953,1,0,0:0:0:0:
320,192,134953,1,0,0:0:0:0:
64,192,134953,1,0,0:0:0:0:
448,192,135072,1,0,0:0:0:0:
192,192,135072,1,0,0:0:0:0:
320,192,135190,1,0,0:0:0:0:
192,192,135190,1,0,0:0:0:0:
64,192,135190,1,0,0:0:0:0:
448,192,135309,1,0,0:0:0:0:
448,192,135428,1,0,0:0:0:0:
320,192,135428,1,0,0:0:0:0:
320,192,135547,1,0,0:0:0:0:
64,192,135547,1,0,0:0:0:0:
192,192,135665,1,0,0:0:0:0:
64,192,135665,1,0,0:0:0:0:
192,192,135784,1,0,0:0:0:0:
448,192,135903,1,0,0:0:0:0:
320,192,135903,1,0,0:0:0:0:
64,192,135903,1,0,0:0:0:0:
320,192,136021,1,0,0:0:0:0:
192,192,136021,1,0,0:0:0:0:
448,192,136140,1,0,0:0:0:0:
192,192,136140,1,0,0:0:0:0:
64,192,136140,1,0,0:0:0:0:
448,192,136259,1,0,0:0:0:0:
320,192,136259,1,0,0:0:0:0:
320,192,136378,1,0,0:0:0:0:
192,192,136378,1,0,0:0:0:0:
64,192,136378,1,0,0:0:0:0:
448,192,136496,1,0,0:0:0:0:
192,192,136496,1,0,0:0:0:0:
448,192,136615,1,0,0:0:0:0:
320,192,136615,1,0,0:0:0:0:
64,192,136615,1,0,0:0:0:0:
192,192,136734,1,0,0:0:0:0:
64,192,136734,1,0,0:0:0:0:
448,192,136853,1,0,0:0:0:0:
320,192,136853,1,0,0:0:0:0:
192,192,136853,1,0,0:0:0:0:
448,192,136971,1,0,0:0:0:0:
320,192,136971,1,0,0:0:0:0:
448,192,137090,1,0,0:0:0:0:
192,192,137090,1,0,0:0:0:0:
64,192,137090,1,0,0:0:0:0:
64,192,137209,1,0,0:0:0:0:
448,192,137328,1,0,0:0:0:0:
320,192,137328,1,0,0:0:0:0:
192,192,137328,1,0,0:0:0:0:
192,192,137446,1,0,0:0:0:0:
448,192,137565,1,0,0:0:0:0:
320,192,137565,1,0,0:0:0:0:
64,192,137565,1,0,0:0:0:0:
320,192,137684,1,0,0:0:0:0:
448,192,137802,1,0,0:0:0:0:
192,192,137802,1,0,0:0:0:0:
64,192,137802,1,0,0:0:0:0:
448,192,137921,1,0,0:0:0:0:
320,192,137921,1,0,0:0:0:0:
320,192,138040,1,0,0:0:0:0:
192,192,138040,1,0,0:0:0:0:
64,192,138040,1,0,0:0:0:0:
448,192,138159,1,0,0:0:0:0:
64,192,138159,1,0,0:0:0:0:
448,192,138277,1,0,0:0:0:0:
320,192,138277,1,0,0:0:0:0:
192,192,138277,1,0,0:0:0:0:
192,192,138396,1,0,0:0:0:0:
64,192,138396,1,0,0:0:0:0:
448,192,138515,1,0,0:0:0:0:
320,192,138515,1,0,0:0:0:0:
64,192,138515,1,0,0:0:0:0:
320,192,138634,1,0,0:0:0:0:
192,192,138634,1,0,0:0:0:0:
448,192,138752,1,0,0:0:0:0:
192,192,138752,1,0,0:0:0:0:
64,192,138752,1,0,0:0:0:0:
448,192,138871,1,0,0:0:0:0:
320,192,138871,1,0,0:0:0:0:
320,192,138990,1,0,0:0:0:0:
192,192,138990,1,0,0:0:0:0:
64,192,138990,1,0,0:0:0:0:
192,192,139109,1,0,0:0:0:0:
320,192,139227,1,0,0:0:0:0:
64,192,139227,1,0,0:0:0:0:
448,192,139346,1,0,0:0:0:0:
320,192,139346,1,0,0:0:0:0:
192,192,139465,1,0,0:0:0:0:
64,192,139465,1,0,0:0:0:0:
64,192,139583,1,0,0:0:0:0:
448,192,139702,1,0,0:0:0:0:
320,192,139702,1,0,0:0:0:0:
192,192,139702,1,0,0:0:0:0:
448,192,139821,1,0,0:0:0:0:
320,192,139821,1,0,0:0:0:0:
448,192,139940,1,0,0:0:0:0:
192,192,139940,1,0,0:0:0:0:
64,192,139940,1,0,0:0:0:0:
192,192,140058,1,0,0:0:0:0:
448,192,140177,1,0,0:0:0:0:
320,192,140177,1,0,0:0:0:0:
448,192,140296,1,0,0:0:0:0:
192,192,140296,1,0,0:0:0:0:
192,192,140415,1,0,0:0:0:0:
64,192,140415,1,0,0:0:0:0:
64,192,140533,1,0,0:0:0:0:
448,192,140652,1,0,0:0:0:0:
320,192,140652,1,0,0:0:0:0:
192,192,140652,1,0,0:0:0:0:
448,192,140771,1,0,0:0:0:0:
320,192,140889,1,0,0:0:0:0:
192,192,140889,1,0,0:0:0:0:
64,192,140889,1,0,0:0:0:0:
320,192,141008,1,0,0:0:0:0:
448,192,141127,1,0,0:0:0:0:
192,192,141127,1,0,0:0:0:0:
64,192,141127,1,0,0:0:0:0:
192,192,141246,1,0,0:0:0:0:
448,192,141364,1,0,0:0:0:0:
320,192,141364,1,0,0:0:0:0:
64,192,141364,1,0,0:0:0:0:
64,192,141483,1,0,0:0:0:0:
448,192,141602,1,0,0:0:0:0:
320,192,141602,1,0,0:0:0:0:
192,192,141602,1,0,0:0:0:0:
320,192,141721,1,0,0:0:0:0:
448,192,141839,1,0,0:0:0:0:
192,192,141839,1,0,0:0:0:0:
64,192,141839,1,0,0:0:0:0:
192,192,141958,1,0,0:0:0:0:
64,192,141958,1,0,0:0:0:0:
448,192,142077,1,0,0:0:0:0:
320,192,142077,1,0,0:0:0:0:
64,192,142077,1,0,0:0:0:0:
448,192,142196,1,0,0:0:0:0:
192,192,142196,1,0,0:0:0:0:
320,192,142314,1,0,0:0:0:0:
192,192,142314,1,0,0:0:0:0:
64,192,142314,1,0,0:0:0:0:
448,192,142433,1,0,0:0:0:0:
320,192,142433,1,0,0:0:0:0:
448,192,142552,1,0,0:0:0:0:
192,192,142552,1,0,0:0:0:0:
64,192,142552,1,0,0:0:0:0:
320,192,142670,1,0,0:0:0:0:
64,192,142670,1,0,0:0:0:0:
448,192,142789,1,0,0:0:0:0:
320,192,142789,1,0,0:0:0:0:
192,192,142789,1,0,0:0:0:0:
64,192,142908,1,0,0:0:0:0:
192,192,143027,1,0,0:0:0:0:
64,192,143027,1,0,0:0:0:0:
448,192,143145,1,0,0:0:0:0:
192,192,143145,1,0,0:0:0:0:
448,192,143264,1,0,0:0:0:0:
320,192,143264,1,0,0:0:0:0:
320,192,143383,1,0,0:0:0:0:
448,192,143502,1,0,0:0:0:0:
192,192,143502,1,0,0:0:0:0:
64,192,143502,1,0,0:0:0:0:
320,192,143620,1,0,0:0:0:0:
192,192,143620,1,0,0:0:0:0:
448,192,143739,1,0,0:0:0:0:
320,192,143739,1,0,0:0:0:0:
64,192,143739,1,0,0:0:0:0:
192,192,143858,1,0,0:0:0:0:
64,192,143858,1,0,0:0:0:0:
448,192,143977,1,0,0:0:0:0:
320,192,143977,1,0,0:0:0:0:
192,192,143977,1,0,0:0:0:0:
320,192,144095,1,0,0:0:0:0:
64,192,144095,1,0,0:0:0:0:
448,192,144214,1,0,0:0:0:0:
192,192,144214,1,0,0:0:0:0:
64,192,144214,1,0,0:0:0:0:
448,192,144333,1,0,0:0:0:0:
320,192,144333,1,0,0:0:0:0:
320,192,144451,1,0,0:0:0:0:
192,192,144451,1,0,0:0:0:0:
64,192,144451,1,0,0:0:0:0:
192,192,144570,1,0,0:0:0:0:
64,192,144570,1,0,0:0:0:0:
448,192,144689,1,0,0:0:0:0:
320,192,144689,1,0,0:0:0:0:
64,192,144689,1,0,0:0:0:0:
448,192,144808,1,0,0:0:0:0:
320,192,144926,1,0,0:0:0:0:
192,192,144926,1,0,0:0:0:0:
64,192,144926,1,0,0:0:0:0:
320,192,145045,1,0,0:0:0:0:
448,192,145164,1,0,0:0:0:0:
192,192,145164,1,0,0:0:0:0:
64,192,145164,1,0,0:0:0:0:
192,192,145283,1,0,0:0:0:0:
448,192,145401,1,0,0:0:0:0:
320,192,145401,1,0,0:0:0:0:
64,192,145401,1,0,0:0:0:0:
192,192,145520,1,0,0:0:0:0:
64,192,145520,1,0,0:0:0:0:
448,192,145639,1,0,0:0:0:0:
320,192,145639,1,0,0:0:0:0:
192,192,145639,1,0,0:0:0:0:
448,192,145757,1,0,0:0:0:0:
64,192,145757,1,0,0:0:0:0:
320,192,145876,1,0,0:0:0:0:
192,192,145876,1,0,0:0:0:0:
64,192,145876,1,0,0:0:0:0:
448,192,145995,1,0,0:0:0:0:
320,192,145995,1,0,0:0:0:0:
448,192,146114,1,0,0:0:0:0:
192,192,146114,1,0,0:0:0:0:
64,192,146114,1,0,0:0:0:0:
320,192,146232,1,0,0:0:0:0:
192,192,146232,1,0,0:0:0:0:
448,192,146351,1,0,0:0:0:0:
320,192,146351,1,0,0:0:0:0:
64,192,146351,1,0,0:0:0:0:
192,192,146470,1,0,0:0:0:0:
64,192,146470,1,0,0:0:0:0:
448,192,146589,1,0,0:0:0:0:
320,192,146589,1,0,0:0:0:0:
192,192,146589,1,0,0:0:0:0:
320,192,146707,1,0,0:0:0:0:
448,192,146826,1,0,0:0:0:0:
192,192,146826,1,0,0:0:0:0:
192,192,146945,1,0,0:0:0:0:
64,192,146945,1,0,0:0:0:0:
448,192,147064,1,0,0:0:0:0:
320,192,147064,1,0,0:0:0:0:
448,192,147182,1,0,0:0:0:0:
320,192,147301,1,0,0:0:0:0:
192,192,147301,1,0,0:0:0:0:
64,192,147301,1,0,0:0:0:0:
192,192,147420,1,0,0:0:0:0:
64,192,147420,1,0,0:0:0:0:
448,192,147538,1,0,0:0:0:0:
320,192,147538,1,0,0:0:0:0:
64,192,147538,1,0,0:0:0:0:
320,192,147657,1,0,0:0:0:0:
192,192,147776,1,0,0:0:0:0:
64,192,147776,1,0,0:0:0:0:
320,192,147895,1,0,0:0:0:0:
64,192,147895,1,0,0:0:0:0:
448,192,148013,1,0,0:0:0:0:
320,192,148013,1,0,0:0:0:0:
448,192,148132,1,0,0:0:0:0:
320,192,148251,1,0,0:0:0:0:
192,192,148251,1,0,0:0:0:0:
64,192,148251,1,0,0:0:0:0:
64,192,148370,1,0,0:0:0:0:
448,192,148488,1,0,0:0:0:0:
320,192,148488,1,0,0:0:0:0:
192,192,148488,1,0,0:0:0:0:
192,192,148607,1,0,0:0:0:0:
448,192,148726,1,0,0:0:0:0:
64,192,148726,1,0,0:0:0:0:
448,192,148845,1,0,0:0:0:0:
192,192,148963,1,0,0:0:0:0:
64,192,148963,1,0,0:0:0:0:
192,192,149082,1,0,0:0:0:0:
448,192,149201,1,0,0:0:0:0:
320,192,149201,1,0,0:0:0:0:
64,192,149201,1,0,0:0:0:0:
320,192,149319,1,0,0:0:0:0:
192,192,149319,1,0,0:0:0:0:
448,192,149438,1,0,0:0:0:0:
192,192,149438,1,0,0:0:0:0:
64,192,149438,1,0,0:0:0:0:
64,192,149557,1,0,0:0:0:0:
448,192,149676,1,0,0:0:0:0:
320,192,149676,1,0,0:0:0:0:
448,192,149794,1,0,0:0:0:0:
192,192,149794,1,0,0:0:0:0:
192,192,149913,1,0,0:0:0:0:
64,192,149913,1,0,0:0:0:0:
64,192,150032,1,0,0:0:0:0:
448,192,150151,1,0,0:0:0:0:
320,192,150151,1,0,0:0:0:0:
192,192,150151,1,0,0:0:0:0:
448,192,150269,1,0,0:0:0:0:
320,192,150388,1,0,0:0:0:0:
192,192,150388,1,0,0:0:0:0:
64,192,150388,1,0,0:0:0:0:
320,192,150507,1,0,0:0:0:0:
448,192,150626,1,0,0:0:0:0:
64,192,150626,1,0,0:0:0:0:
64,192,150744,1,0,0:0:0:0:
448,192,150863,1,0,0:0:0:0:
320,192,150863,1,0,0:0:0:0:
320,192,150982,1,0,0:0:0:0:
448,192,151100,1,0,0:0:0:0:
192,192,151100,1,0,0:0:0:0:
64,192,151100,1,0,0:0:0:0:
320,192,151219,1,0,0:0:0:0:
192,192,151219,1,0,0:0:0:0:
448,192,151338,1,0,0:0:0:0:
320,192,151338,1,0,0:0:0:0:
64,192,151338,1,0,0:0:0:0:
448,192,151457,1,0,0:0:0:0:
192,192,151575,1,0,0:0:0:0:
64,192,151575,1,0,0:0:0:0:
320,192,151694,1,0,0:0:0:0:
64,192,151694,1,0,0:0:0:0:
448,192,151813,1,0,0:0:0:0:
320,192,151813,1,0,0:0:0:0:
448,192,151932,1,0,0:0:0:0:
320,192,152050,1,0,0:0:0:0:
192,192,152050,1,0,0:0:0:0:
64,192,152050,1,0,0:0:0:0:
64,192,152169,1,0,0:0:0:0:
448,192,152288,1,0,0:0:0:0:
320,192,152288,1,0,0:0:0:0:
192,192,152288,1,0,0:0:0:0:
192,192,152406,1,0,0:0:0:0:
448,192,152525,1,0,0:0:0:0:
64,192,152525,1,0,0:0:0:0:
448,192,152644,1,0,0:0:0:0:
192,192,152763,1,0,0:0:0:0:
64,192,152763,1,0,0:0:0:0:
192,192,152881,1,0,0:0:0:0:
448,192,153000,1,0,0:0:0:0:
320,192,153000,1,0,0:0:0:0:
64,192,153000,1,0,0:0:0:0:
448,192,153119,1,0,0:0:0:0:
192,192,153119,1,0,0:0:0:0:
320,192,153238,1,0,0:0:0:0:
192,192,153238,1,0,0:0:0:0:
64,192,153238,1,0,0:0:0:0:
320,192,153356,1,0,0:0:0:0:
192,192,153475,1,0,0:0:0:0:
64,192,153475,1,0,0:0:0:0:
320,192,153594,1,0,0:0:0:0:
64,192,153594,1,0,0:0:0:0:
448,192,153713,1,0,0:0:0:0:
320,192,153713,1,0,0:0:0:0:
448,192,153831,1,0,0:0:0:0:
320,192,153950,1,0,0:0:0:0:
192,192,153950,1,0,0:0:0:0:
64,192,153950,1,0,0:0:0:0:
64,192,154069,1,0,0:0:0:0:
448,192,154187,1,0,0:0:0:0:
320,192,154187,1,0,0:0:0:0:
192,192,154187,1,0,0:0:0:0:
192,192,154306,1,0,0:0:0:0:
448,192,154425,1,0,0:0:0:0:
320,192,154425,1,0,0:0:0:0:
320,192,154544,1,0,0:0:0:0:
448,192,154662,1,0,0:0:0:0:
192,192,154662,1,0,0:0:0:0:
448,192,154781,1,0,0:0:0:0:
320,192,154900,1,0,0:0:0:0:
192,192,154900,1,0,0:0:0:0:
64,192,154900,1,0,0:0:0:0:
448,192,155019,1,0,0:0:0:0:
320,192,155019,1,0,0:0:0:0:
320,192,155137,1,0,0:0:0:0:
448,192,155137,1,0,0:0:0:0:
64,192,155137,1,0,0:0:0:0:
192,192,155137,1,0,0:0:0:0:
448,192,155256,1,0,0:0:0:0:
192,192,155256,1,0,0:0:0:0:
64,192,155375,1,0,0:0:0:0:
192,192,155375,1,0,0:0:0:0:
320,192,155494,1,0,0:0:0:0:
448,192,155494,1,0,0:0:0:0:
64,192,155494,1,0,0:0:0:0:
192,192,155494,1,0,0:0:0:0:
320,192,155612,1,0,0:0:0:0:
448,192,155612,1,0,0:0:0:0:
64,192,155731,1,0,0:0:0:0:
320,192,155731,1,0,0:0:0:0:
320,192,155850,1,0,0:0:0:0:
448,192,155850,1,0,0:0:0:0:
64,192,155850,1,0,0:0:0:0:
192,192,155850,1,0,0:0:0:0:
192,192,155968,1,0,0:0:0:0:
320,192,155968,1,0,0:0:0:0:
320,192,156087,1,0,0:0:0:0:
448,192,156087,1,0,0:0:0:0:
64,192,156087,1,0,0:0:0:0:
192,192,156087,1,0,0:0:0:0:
448,192,156206,1,0,0:0:0:0:
64,192,156206,1,0,0:0:0:0:
320,192,156325,1,0,0:0:0:0:
448,192,156325,1,0,0:0:0:0:
320,192,156443,1,0,0:0:0:0:
448,192,156443,1,0,0:0:0:0:
64,192,156443,1,0,0:0:0:0:
192,192,156443,1,0,0:0:0:0:
64,192,156562,1,0,0:0:0:0:
192,192,156562,1,0,0:0:0:0:
448,192,156681,1,0,0:0:0:0:
64,192,156681,1,0,0:0:0:0:
320,192,156800,1,0,0:0:0:0:
448,192,156800,1,0,0:0:0:0:
64,192,156800,1,0,0:0:0:0:
192,192,156800,1,0,0:0:0:0:
448,192,156918,1,0,0:0:0:0:
192,192,156918,1,0,0:0:0:0:
320,192,157037,1,0,0:0:0:0:
448,192,157037,1,0,0:0:0:0:
64,192,157037,1,0,0:0:0:0:
192,192,157037,1,0,0:0:0:0:
320,192,157156,1,0,0:0:0:0:
64,192,157156,1,0,0:0:0:0:
448,192,157274,1,0,0:0:0:0:
192,192,157274,1,0,0:0:0:0:
320,192,157393,1,0,0:0:0:0:
448,192,157393,1,0,0:0:0:0:
64,192,157393,1,0,0:0:0:0:
192,192,157393,1,0,0:0:0:0:
192,192,157512,1,0,0:0:0:0:
64,192,157512,1,0,0:0:0:0:
448,192,157631,1,0,0:0:0:0:
320,192,157631,1,0,0:0:0:0:
320,192,157749,1,0,0:0:0:0:
448,192,157749,1,0,0:0:0:0:
64,192,157749,1,0,0:0:0:0:
192,192,157749,1,0,0:0:0:0:
448,192,157868,1,0,0:0:0:0:
64,192,157868,1,0,0:0:0:0:
320,192,157987,1,0,0:0:0:0:
448,192,157987,1,0,0:0:0:0:
64,192,157987,1,0,0:0:0:0:
192,192,157987,1,0,0:0:0:0:
320,192,158106,1,0,0:0:0:0:
192,192,158106,1,0,0:0:0:0:
192,192,158224,1,0,0:0:0:0:
64,192,158224,1,0,0:0:0:0:
320,192,158343,1,0,0:0:0:0:
448,192,158343,1,0,0:0:0:0:
64,192,158343,1,0,0:0:0:0:
192,192,158343,1,0,0:0:0:0:
448,192,158462,1,0,0:0:0:0:
320,192,158462,1,0,0:0:0:0:
320,192,158581,1,0,0:0:0:0:
192,192,158581,1,0,0:0:0:0:
320,192,158699,1,0,0:0:0:0:
448,192,158699,1,0,0:0:0:0:
64,192,158699,1,0,0:0:0:0:
192,192,158699,1,0,0:0:0:0:
448,192,158818,1,0,0:0:0:0:
64,192,158818,1,0,0:0:0:0:
320,192,158937,1,0,0:0:0:0:
448,192,158937,1,0,0:0:0:0:
64,192,158937,1,0,0:0:0:0:
192,192,158937,1,0,0:0:0:0:
