osu file format v14

[General]
AudioFilename: asgore.mp3
AudioLeadIn: 2000
PreviewTime: 8358
Countdown: 0
SampleSet: Soft
StackLeniency: 0.7
Mode: 0
LetterboxInBreaks: 0
WidescreenStoryboard: 1

[Editor]
Bookmarks: 84624,92982,155471
DistanceSpacing: 1.3
BeatDivisor: 4
GridSize: 4
TimelineZoom: 3.099999

[Metadata]
Title:ASGORE
TitleUnicode:ASGORE
Artist:toby fox
ArtistUnicode:toby fox
Creator:SkyDevil
Version:Insane
Source:UNDERTALE
Tags:bergentrückung
BeatmapID:840349
BeatmapSetID:378418

[Difficulty]
HPDrainRate:6
CircleSize:4
OverallDifficulty:6
ApproachRate:8.8
SliderMultiplier:1.6
SliderTickRate:2

[Events]
//Background and Video events
0,0,"bg.png",0,0
//Break Periods
//Storyboard Layer 0 (Background)
//Storyboard Layer 1 (Fail)
//Storyboard Layer 2 (Pass)
//Storyboard Layer 3 (Foreground)
//Storyboard Sound Samples

[TimingPoints]
0,261.187532648442,4,2,0,25,1,0
1044,-100,4,2,0,40,0,0
8358,-200,4,2,0,45,0,0
8423,-200,4,2,0,10,0,0
8880,-200,4,2,0,45,0,0
8945,-200,4,2,0,10,0,0
9402,-100,4,1,1,45,0,1
16716,-100,4,2,0,50,0,0
25074,-200,4,2,0,45,0,0
25139,-200,4,2,0,10,0,0
25596,-200,4,2,0,45,0,0
25661,-200,4,2,0,10,0,0
26118,-100,4,1,1,45,0,1
33432,-200,4,2,0,50,0,0
33497,-200,4,2,0,10,0,0
33954,-200,4,2,0,50,0,0
34019,-200,4,2,0,10,0,0
34476,-133.333333333333,4,2,0,50,0,0
51192,-100,4,1,1,45,0,1
84624,-100,4,2,0,50,0,0
107609,-133.333333333333,4,2,0,50,0,0

[Colours]
Combo1 : 255,255,0
Combo2 : 255,0,0
Combo3 : 255,55,65
Combo4 : 244,165,77

[HitObjects]
256,76,0,5,0,1:0:0:0:
256,312,522,1,0,1:0:0:0:
180,108,1044,6,0,B|160:136|116:120|116:120|72:104|40:152,1,160,4|0,0:0|1:0,0:0:0:0:
72,232,1436,1,0,0:0:0:0:
36,308,1567,2,0,L|124:328,1,80
200,312,1828,2,0,L|288:332,1,80,0|0,1:0|0:0,0:0:0:0:
360,296,2089,6,0,P|324:224|360:160,1,160,0|0,0:0|1:0,0:0:0:0:
448,112,2481,2,0,L|268:96,1,160
204,132,2873,1,0,1:0:0:0:
128,88,3003,1,0,0:0:0:0:
68,144,3134,6,0,L|80:232,1,80
128,296,3395,1,0,1:0:0:0:
212,272,3526,1,0,0:0:0:0:
300,272,3656,1,0,0:0:0:0:
384,296,3787,1,0,0:0:0:0:
433,223,3917,2,0,L|444:144,1,80,0|0,1:0|0:0,0:0:0:0:
416,60,4179,6,0,B|376:24|340:48|340:48|308:76|256:48,1,160,0|0,0:0|1:0,0:0:0:0:
60,172,4701,2,0,B|100:208|136:184|136:184|168:156|220:184,1,160,0|0,0:0|1:0,0:0:0:0:
412,304,5223,6,0,L|316:320,1,80
276,220,5484,2,0,L|372:204,1,80,0|0,1:0|0:0,0:0:0:0:
368,96,5746,2,0,L|280:108,1,80
204,140,6007,1,0,1:0:0:0:
120,112,6137,1,0,0:0:0:0:
48,152,6268,6,0,P|24:228|80:288,1,160,0|0,0:0|1:0,0:0:0:0:
180,232,6660,2,0,B|220:216|256:232|256:232|300:252|336:228,1,160
440,284,7052,2,0,P|488:224|464:152,1,160,0|0,1:0|0:0,0:0:0:0:
408,84,7443,5,0,0:0:0:0:
328,48,7574,2,0,L|240:48,1,80,0|0,1:0|0:0,0:0:0:0:
164,72,7835,1,0,0:0:0:0:
100,132,7966,1,0,0:0:0:0:
80,216,8096,1,0,1:0:0:0:
88,304,8227,1,0,0:0:0:0:
156,360,8358,6,0,L|252:360,1,80,0|0,1:0|0:0,0:0:0:0:
388,208,8880,6,0,L|292:208,1,80,0|0,1:0|0:0,0:0:0:0:
160,356,9402,6,0,L|332:356,1,160,4|8,0:2|0:0,0:0:0:0:
404,328,9794,1,0,0:0:0:0:
468,260,9925,2,0,L|456:156,1,80
344,116,10186,2,0,L|352:208,1,80,8|0,0:0|0:0,0:0:0:0:
432,92,10447,6,0,P|376:32|292:40,1,160,0|8,0:0|0:0,0:0:0:0:
204,72,10839,2,0,B|164:92|132:80|132:80|88:56|48:88,1,160
100,160,11231,1,8,0:0:0:0:
112,244,11361,1,0,0:0:0:0:
56,312,11492,6,0,L|216:336,1,160,0|8,0:0|0:0,0:0:0:0:
300,336,11884,1,0,0:0:0:0:
380,300,12014,1,0,0:0:0:0:
428,228,12145,1,0,0:0:0:0:
432,140,12275,2,0,P|416:92|392:64,1,80,8|0,0:0|0:0,0:0:0:0:
320,28,12537,6,0,B|276:12|244:28|244:28|200:52|168:28,1,160,0|8,0:0|0:0,0:0:0:0:
128,108,12928,2,0,P|188:132|280:108,1,160
340,176,13320,1,8,0:0:0:0:
312,260,13451,1,0,0:0:0:0:
256,328,13581,6,0,L|176:336,1,80
116,224,13842,2,0,L|196:216,1,80,8|0,0:0|0:0,0:0:0:0:
256,56,14104,2,0,L|336:48,1,80
396,160,14365,2,0,L|316:168,1,80,8|0,0:0|0:0,0:0:0:0:
232,144,14626,5,0,0:0:0:0:
156,128,14757,1,0,0:0:0:0:
80,152,14887,1,8,0:0:0:0:
36,220,15018,1,0,0:0:0:0:
28,304,15148,2,0,P|68:340|116:344,1,80
176,312,15410,2,0,P|212:300|264:300,1,80,8|0,0:0|0:0,0:0:0:0:
328,340,15671,6,0,L|432:328,1,80
472,268,15932,1,8,0:0:0:0:
424,192,16063,1,0,0:0:0:0:
452,108,16193,2,0,L|372:80,1,80
296,116,16454,1,8,0:0:0:0:
256,196,16585,1,0,0:0:0:0:
216,116,16716,5,0,1:0:0:0:
44,184,17238,1,2,0:0:0:0:
192,44,17760,6,0,L|180:208,1,160,6|0,0:0|1:0,0:0:0:0:
256,252,18152,1,0,0:0:0:0:
331,203,18283,2,0,L|324:120,1,80
428,64,18544,2,0,L|435:147,1,80,0|0,1:0|0:0,0:0:0:0:
456,264,18805,6,0,B|428:296|384:288|384:288|336:280|312:324,1,160,0|0,0:0|1:0,0:0:0:0:
196,320,19197,2,0,B|175:281|127:289|127:289|83:297|55:265,1,160
24,184,19589,1,0,1:0:0:0:
44,100,19719,1,0,0:0:0:0:
120,52,19850,6,0,L|212:48,1,80
264,136,20111,2,0,L|356:132,1,80,0|0,1:0|0:0,0:0:0:0:
343,251,20372,2,0,L|264:248,1,80
199,335,20633,2,0,L|120:332,1,80,0|0,1:0|0:0,0:0:0:0:
40,264,20895,6,0,P|12:192|40:116,1,160,0|0,0:0|1:0,0:0:0:0:
312,112,21417,2,0,P|338:185|310:258,1,160,0|0,0:0|1:0,0:0:0:0:
240,52,21939,6,0,P|280:28|348:24,1,80
400,40,22200,1,0,1:0:0:0:
456,108,22331,1,0,0:0:0:0:
484,192,22462,2,0,P|488:244|480:292,1,80
436,344,22723,1,0,1:0:0:0:
352,368,22853,1,0,0:0:0:0:
264,352,22984,6,0,L|264:192,1,160,0|0,0:0|1:0,0:0:0:0:
364,48,23376,2,0,L|364:224,1,160
176,244,23768,2,0,L|176:164,1,80,0|0,1:0|0:0,0:0:0:0:
152,80,24029,5,0,0:0:0:0:
64,64,24159,1,0,0:0:0:0:
8,136,24290,2,0,P|8:184|24:236,1,80,0|0,1:0|0:0,0:0:0:0:
48,296,24551,1,0,0:0:0:0:
120,344,24682,1,0,0:0:0:0:
204,364,24812,2,0,P|248:372|288:360,1,80,0|0,1:0|0:0,0:0:0:0:
360,316,25074,6,0,L|384:220,1,80,0|0,1:0|0:0,0:0:0:0:
304,60,25596,6,0,L|281:150,1,80,0|0,1:0|0:0,0:0:0:0:
144,272,26118,6,0,P|88:260|64:164,1,160,4|8,0:2|0:0,0:0:0:0:
152,184,26510,1,0,0:0:0:0:
236,216,26641,2,0,L|340:216,1,80
432,320,26902,2,0,L|352:320,1,80,8|0,0:0|0:0,0:0:0:0:
228,320,27163,6,0,P|152:344|72:316,1,160,0|8,0:0|0:0,0:0:0:0:
148,192,27555,2,0,B|184:176|224:192|224:192|264:208|312:192,1,160
384,156,27947,1,8,0:0:0:0:
384,68,28077,1,0,0:0:0:0:
304,28,28208,6,0,L|128:44,1,160,0|8,0:0|0:0,0:0:0:0:
80,104,28600,1,0,0:0:0:0:
52,188,28730,2,0,P|44:232|60:284,1,80
108,332,28991,1,8,0:0:0:0:
192,352,29122,1,0,0:0:0:0:
280,340,29253,6,0,L|440:336,1,160,0|8,0:0|0:0,0:0:0:0:
504,180,29644,2,0,L|308:188,1,160
260,208,30036,1,8,0:0:0:0:
172,192,30167,1,0,0:0:0:0:
88,216,30297,6,0,L|80:304,1,80
180,364,30558,2,0,L|188:276,1,80,8|0,0:0|0:0,0:0:0:0:
324,284,30820,2,0,L|331:363,1,80
431,295,31081,2,0,L|424:216,1,80,8|0,0:0|0:0,0:0:0:0:
440,128,31342,5,0,0:0:0:0:
376,68,31473,1,0,0:0:0:0:
308,124,31603,2,0,L|300:240,1,80,8|0,0:0|0:0,0:0:0:0:
209,203,31864,2,0,L|204:124,1,80
136,68,32124,1,8,0:0:0:0:
72,128,32255,1,0,0:0:0:0:
96,212,32387,5,4,0:2:0:0:
216,284,33432,6,0,L|296:284,1,80,0|0,1:0|0:0,0:0:0:0:
296,100,33954,6,0,L|216:100,1,80,0|0,1:0|0:0,0:0:0:0:
360,192,34476,6,0,P|384:216|404:256,1,60.0000022888184,4|0,0:3|0:0,0:0:0:0:
380,320,34737,1,0,0:0:0:0:
308,356,34868,1,4,0:3:0:0:
224,356,34999,2,0,B|104:348|104:348|72:344|48:308,1,180.000006866455,0|4,0:0|0:3,0:0:0:0:
56,80,35652,5,0,0:0:0:0:
136,56,35782,2,4,P|168:48|212:48,1,60.0000022888184,4|0,0:3|0:3,0:3:0:0:
288,124,36043,2,0,P|264:140|232:144,1,60.0000022888184,4|0,0:3|0:0,0:0:0:0:
340,56,36305,1,4,0:3:0:0:
420,132,36435,1,0,0:0:0:0:
352,224,36566,6,0,L|344:308,1,60.0000022888184,4|0,0:3|0:0,0:0:0:0:
244,336,36827,2,0,L|238:276,1,60.0000022888184,0|4,0:0|0:3,0:0:0:0:
156,208,37088,1,0,0:0:0:0:
460,60,37480,2,0,P|432:108|456:164,1,120.000004577637,4|0,0:3|0:0,0:0:0:0:
508,248,37872,6,0,P|500:288|480:328,1,60.0000022888184,4|0,0:3|0:0,0:0:0:0:
396,328,38133,1,4,0:3:0:0:
352,248,38263,1,0,0:0:0:0:
260,280,38394,2,0,L|244:280,6,15.0000005722046,4|0|0|0|0|0|0,0:3|0:0|0:0|0:0|0:0|0:0|0:0,0:0:0:0:
208,256,38655,6,0,P|176:220|164:184,1,60.0000022888184,4|0,0:3|0:0,0:0:0:0:
256,16,38916,2,0,L|256:88,1,60.0000022888184,0|4,0:3|0:3,0:0:0:0:
256,188,39178,1,0,0:0:0:0:
40,244,39569,2,0,P|20:192|44:136,1,120.000004577637,4|0,0:3|0:0,0:0:0:0:
120,88,39961,5,4,0:3:0:0:
204,120,40092,1,0,0:0:0:0:
288,84,40222,1,4,0:3:0:0:
372,128,40353,1,0,0:0:0:0:
424,208,40484,2,0,L|436:228,6,15.0000005722046,4|0|0|0|0|0|0,0:3|0:0|0:0|0:0|0:0|0:0|0:0,0:0:0:0:
440,264,40745,6,0,P|400:320|280:300,1,180.000006866455,4|4,0:3|0:3,0:0:0:0:
256,56,41528,1,4,0:3:0:0:
256,232,41790,6,0,P|232:260|188:272,1,60.0000022888184,4|0,0:3|0:0,0:0:0:0:
116,260,42051,1,0,0:0:0:0:
56,192,42181,1,4,0:3:0:0:
432,192,42573,1,4,0:3:0:0:
