osu file format v14

[General]
AudioFilename: audio.mp3
AudioLeadIn: 0
PreviewTime: 8355
Countdown: 1
SampleSet: Soft
StackLeniency: 0.7
Mode: 0
LetterboxInBreaks: 0
WidescreenStoryboard: 0

[Editor]
DistanceSpacing: 1.7
BeatDivisor: 4
GridSize: 4
TimelineZoom: 2.6

[Metadata]
Title:ASGORE
TitleUnicode:ASGORE
Artist:toby fox
ArtistUnicode:toby fox
Creator:-GriM-
Version:GashaChamp
Source:
Tags:
BeatmapID:2114775
BeatmapSetID:1010233

[Difficulty]
HPDrainRate:4
CircleSize:4
OverallDifficulty:9.5
ApproachRate:10
SliderMultiplier:1.6
SliderTickRate:1

[Events]
//Background and Video events
0,0,"Asgore.Dreemurr.full.2540500.jpg",0,0
//Break Periods
2,34157,48392
2,51131,148948
//Storyboard Layer 0 (Background)
//Storyboard Layer 1 (Fail)
//Storyboard Layer 2 (Pass)
//Storyboard Layer 3 (Foreground)
//Storyboard Layer 4 (Overlay)
//Storyboard Sound Samples

[TimingPoints]
0,261.187532648442,4,2,0,40,1,0
1044,-80,4,2,0,40,0,0
1567,-100,4,2,0,40,0,0
3134,-80,4,2,0,40,0,0
3526,-100,4,2,0,40,0,0
5223,-80,4,2,0,40,0,0
5615,-100,4,2,0,40,0,0
6268,-80,4,2,0,40,0,0
7313,-100,4,2,0,40,0,0
9402,-66.6666666666667,4,2,0,40,0,0
9794,-80,4,2,0,40,0,0
10447,-66.6666666666667,4,2,0,40,0,0
11100,-80,4,2,0,40,0,0
11492,-66.6666666666667,4,2,0,40,0,0
11884,-80,4,2,0,40,0,0
12537,-66.6666666666667,4,2,0,40,0,0
15671,-400,4,2,0,40,0,0
16324,-100,4,2,0,40,0,0
17760,-80,4,2,0,40,0,0
18152,-100,4,2,0,40,0,0
19850,-80,4,2,0,40,0,0
20242,-100,4,2,0,40,0,0
21939,-80,4,2,0,40,0,0
22331,-100,4,2,0,40,0,0
24029,-80,4,2,0,40,0,0
26118,-66.6666666666667,4,2,0,40,0,0
26641,-80,4,2,0,40,0,0
28208,-66.6666666666667,4,2,0,40,0,0
28600,-80,4,2,0,40,0,0
32387,-400,4,2,0,40,0,0
33432,-100,4,2,0,40,0,0
49103,-200,4,2,0,40,0,0
51192,-66.6666666666667,4,2,0,40,0,0

[HitObjects]
61,49,0,5,0,0:0:0:0:
58,68,261,1,0,0:0:0:0:
186,192,522,1,0,0:0:0:0:
189,211,783,1,0,0:0:0:0:
371,47,1044,6,0,B|356:110|356:110|373:159|373:159|364:257,1,200
225,327,1436,1,0,0:0:0:0:
406,376,1567,2,0,L|510:378,1,80
288,208,1828,2,0,L|182:212,1,80
447,78,2089,6,0,L|436:230,1,120
432,274,2350,1,0,0:0:0:0:
295,37,2481,2,0,L|306:192,1,120
312,235,2742,1,0,0:0:0:0:
132,350,2873,2,0,P|104:288|109:246,1,80
123,121,3134,6,0,B|205:55|240:176|338:105,1,200
438,32,3526,1,0,0:0:0:0:
496,210,3656,2,0,L|405:199,1,80
289,306,3918,2,0,L|209:315,1,80
94,44,4179,5,0,0:0:0:0:
36,269,4309,1,0,0:0:0:0:
230,186,4440,2,0,L|231:89,1,80
366,44,4701,5,0,0:0:0:0:
424,269,4832,1,0,0:0:0:0:
230,186,4962,2,0,L|231:89,1,80
52,339,5224,6,0,B|119:359|119:359|181:326|257:335,1,200
349,317,5615,1,0,0:0:0:0:
349,317,5746,2,0,L|357:212,1,80
129,72,6007,2,0,L|136:168,1,80
416,36,6268,6,0,P|353:18|261:36,1,150
208,104,6530,1,0,0:0:0:0:
426,152,6660,2,0,P|363:134|271:152,1,150
218,220,6922,1,0,0:0:0:0:
338,368,7052,2,0,L|349:191,1,150
93,137,7313,5,0,0:0:0:0:
329,92,7444,1,0,0:0:0:0:
150,291,7575,2,0,L|70:294,1,80
389,218,7835,1,0,0:0:0:0:
122,140,7966,1,0,0:0:0:0:
321,353,8096,2,0,L|416:355,1,80
373,36,8358,5,0,0:0:0:0:
321,353,8619,1,0,0:0:0:0:
101,37,8881,1,0,0:0:0:0:
138,365,9142,1,0,0:0:0:0:
454,141,9403,6,0,B|378:124|378:124|316:152|316:152|182:125,1,240.000009155274
53,77,9795,1,0,0:0:0:0:
94,273,9925,1,0,0:0:0:0:
287,228,10056,1,0,0:0:0:0:
255,29,10187,2,0,L|263:105,1,50
293,246,10317,1,0,0:0:0:0:
18,172,10448,6,0,L|204:145,1,180.000006866455
316,129,10709,1,0,0:0:0:0:
94,273,10840,2,0,L|280:246,1,180.000006866455
392,230,11101,1,0,0:0:0:0:
324,36,11231,1,0,0:0:0:0:
135,110,11362,1,0,0:0:0:0:
201,346,11493,6,0,B|327:281|324:397|443:348,1,240.000009155274
206,168,11884,1,0,0:0:0:0:
106,367,12015,1,0,0:0:0:0:
75,140,12146,1,0,0:0:0:0:
201,346,12276,1,0,0:0:0:0:
229,94,12407,1,0,0:0:0:0:
33,288,12537,6,0,P|11:212|79:232,1,180.000006866455
111,297,12799,1,0,0:0:0:0:
281,141,12929,2,0,P|303:65|235:85,1,180.000006866455
203,150,13191,1,0,0:0:0:0:
372,350,13321,2,0,B|358:293|358:293|376:253|376:253|366:214|388:137,1,180.000006866455
452,130,13582,6,0,L|460:0,1,120.000004577637
215,224,13844,2,0,L|222:343,1,120.000004577637
314,44,14105,2,0,L|194:28,1,120.000004577637
372,350,14366,2,0,L|491:334,1,120.000004577637
283,187,14627,5,0,0:0:0:0:
145,364,14758,1,0,0:0:0:0:
44,188,14888,1,0,0:0:0:0:
267,288,15019,1,0,0:0:0:0:
37,306,15150,5,0,0:0:0:0:
166,55,15280,1,0,0:0:0:0:
267,288,15411,1,0,0:0:0:0:
20,89,15540,1,0,0:0:0:0:
335,105,15672,6,0,L|327:185,1,80
322,282,16325,1,0,0:0:0:0:
322,282,16456,1,0,0:0:0:0:
249,338,16586,1,0,0:0:0:0:
249,338,16717,5,0,0:0:0:0:
162,226,16978,1,0,0:0:0:0:
41,344,17239,1,0,0:0:0:0:
130,306,17500,1,0,0:0:0:0:
123,106,17762,6,0,L|130:307,1,200
238,184,18153,1,0,0:0:0:0:
288,274,18284,2,0,L|393:260,1,80
424,127,18545,2,0,L|529:141,1,80
251,49,18806,6,0,P|184:52|122:106,1,120
92,149,19068,1,0,0:0:0:0:
246,128,19198,2,0,P|191:167|168:246,1,120
167,298,19459,1,0,0:0:0:0:
303,199,19590,2,0,P|276:260|297:339,1,120
414,349,19851,6,0,B|430:294|430:294|422:245|422:245|447:193|425:129,1,200
350,34,20243,1,0,0:0:0:0:
284,176,20374,2,0,L|180:168,1,80
126,62,20635,2,0,L|22:71,1,80
138,281,20896,5,0,0:0:0:0:
248,87,21027,1,0,0:0:0:0:
339,292,21157,2,0,L|327:385,1,80
262,214,21419,5,0,0:0:0:0:
372,20,21549,1,0,0:0:0:0:
463,225,21680,2,0,L|451:318,1,80
324,106,21941,6,0,B|251:106|251:106|204:136|204:136|113:139,1,200
19,252,22333,1,0,0:0:0:0:
167,365,22463,2,0,L|178:263,1,80
30,92,22725,2,0,L|42:197,1,80
260,26,22986,6,0,B|308:70|308:70|367:53,1,120
442,16,23247,1,0,0:0:0:0:
249,129,23378,2,0,B|297:173|297:173|356:156,1,120
447,130,23639,1,0,0:0:0:0:
231,242,23769,2,0,L|118:230,1,80
50,352,24031,6,0,P|141:325|256:364,1,200
357,250,24422,1,0,0:0:0:0:
249,129,24553,2,0,L|143:132,1,100
413,374,24814,2,0,L|519:377,1,100
416,122,25075,5,0,0:0:0:0:
108,107,25337,1,0,0:0:0:0:
446,259,25598,1,0,0:0:0:0:
94,327,25859,1,0,0:0:0:0:
215,21,26120,6,0,B|195:95|195:95|222:175|222:175|204:251,1,240.000009155274
76,372,26512,1,0,0:0:0:0:
18,113,26643,2,0,L|22:212,1,100
200,351,26904,2,0,L|203:251,1,100
345,38,27165,6,0,L|354:212,1,150
358,287,27426,1,0,0:0:0:0:
438,34,27557,2,0,L|447:208,1,150
454,278,27818,1,0,0:0:0:0:
278,121,27949,2,0,L|167:126,1,100
20,340,28210,6,0,B|152:305|152:305|291:334,1,240.000009155274
429,373,28602,1,0,0:0:0:0:
493,175,28732,1,0,0:0:0:0:
278,121,28863,1,0,0:0:0:0:
338,304,28994,1,0,0:0:0:0:
439,49,29124,1,0,0:0:0:0:
184,225,29255,6,0,L|42:212,1,100
255,363,29516,1,0,0:0:0:0:
348,176,29644,2,0,P|352:107|344:66,1,100
171,37,29908,1,0,0:0:0:0:
424,315,30038,2,0,P|445:224|437:150,1,150
361,89,30300,5,0,0:0:0:0:
92,55,30430,1,0,0:0:0:0:
355,205,30561,1,0,0:0:0:0:
78,243,30691,1,0,0:0:0:0:
376,204,30822,2,0,L|482:194,1,100
247,367,31083,2,0,L|147:357,1,100
93,109,31342,6,0,L|86:9,1,100
253,267,31606,2,0,L|245:382,1,100
368,114,31867,1,0,0:0:0:0:
136,206,31997,1,0,0:0:0:0:
451,283,32128,1,0,0:0:0:0:
111,208,32259,1,0,0:0:0:0:
475,52,32389,6,0,L|469:134,1,80
307,343,33434,5,0,0:0:0:0:
353,190,33695,1,0,0:0:0:0:
198,377,33957,1,0,0:0:0:0:
40,94,48842,5,0,0:0:0:0:
41,105,48907,1,0,0:0:0:0:
42,116,48972,1,0,0:0:0:0:
43,127,49037,1,0,0:0:0:0:
45,140,49103,6,0,L|58:269,2,120
209,276,50082,1,0,0:0:0:0:
206,289,50148,2,0,L|200:337,1,40
316,121,50539,1,0,0:0:0:0:
319,136,50931,1,0,0:0:0:0:
74,136,149398,5,4,0:0:0:0:
325,99,149529,1,0,0:0:0:0:
325,99,149659,1,0,0:0:0:0:
190,334,149790,5,4,0:0:0:0:
153,82,149921,1,0,0:0:0:0:
153,82,150051,1,0,0:0:0:0:
360,314,150182,5,4,0:0:0:0:
397,63,150312,1,0,0:0:0:0:
85,212,150443,5,4,0:0:0:0:
254,261,150574,1,0,0:0:0:0:
374,130,150704,1,0,0:0:0:0:
67,230,150835,5,4,0:0:0:0:
260,285,150965,1,0,0:0:0:0:
397,136,151096,1,0,0:0:0:0:
147,79,151227,5,4,0:0:0:0:
194,330,151357,1,0,0:0:0:0:
290,67,151488,5,4,0:0:0:0:
74,193,151618,1,0,0:0:0:0:
257,270,151749,1,0,0:0:0:0:
72,71,151880,5,4,0:0:0:0:
288,198,152010,1,0,0:0:0:0:
104,275,152141,1,0,0:0:0:0:
290,67,152271,5,4,0:0:0:0:
334,329,152402,1,0,0:0:0:0:
93,155,152533,5,4,0:0:0:0:
389,112,152663,1,0,0:0:0:0:
116,255,152794,1,0,0:0:0:0:
427,280,152924,1,4,0:0:0:0:
77,160,153055,1,0,0:0:0:0:
409,105,153186,1,0,0:0:0:0:
243,339,153316,5,4,0:0:0:0:
110,59,153447,1,0,0:0:0:0:
428,196,153577,1,4,0:0:0:0:
