osu file format v14

[General]
AudioFilename: audio.mp3
AudioLeadIn: 0
PreviewTime: 35303
Countdown: 0
SampleSet: Soft
StackLeniency: 0.7
Mode: 0
LetterboxInBreaks: 0
EpilepsyWarning: 1
WidescreenStoryboard: 1

[Editor]
DistanceSpacing: 1.4
BeatDivisor: 4
GridSize: 4
TimelineZoom: 2.1

[Metadata]
Title:Megalovania Dual Mix
TitleUnicode:Megalovania Dual Mix
Artist:toby fox & RichaadEB
ArtistUnicode:toby fox & RichaadEB
Creator:Fatfan Kolek
Version:Light Insane
Source:UNDERTALE
Tags:Chiptune Radiation Sans Boss Battle Ost Soundtrack Nihilist ThunderScott Ace Waters Determination Emilia Kalibe Celektus Kyshiro Bergy
BeatmapID:1622298
BeatmapSetID:763337

[Difficulty]
HPDrainRate:5.5
CircleSize:4
OverallDifficulty:7.5
ApproachRate:8.8
SliderMultiplier:1.59999990463257
SliderTickRate:1

[Events]
//Background and Video events
0,0,"megalovania.jpg",0,0
//Break Periods
2,163441,166737
//Storyboard Layer 0 (Background)
Sprite,Background,Centre,"sb\bg\bw.jpg",320,240 F,0,19215,19365,0,0.4 S,0,19365,,0.4444444 F,0,35215,35365,0.4,0
Sprite,Background,Centre,"sb\bg\bw.jpg",320,240 F,0,115215,115365,0,0.2 S,0,115365,,0.4444444 F,0,127215,127365,0.2,0
Sprite,Background,Centre,"sb\bg\red.jpg",320,240 F,0,159215,159365,0,1 S,0,159365,,0.4444444 F,0,163215,163365,1,0
Sprite,Background,Centre,"megalovania.jpg",320,240 F,0,155215,155365,0,1 S,0,155365,,0.4444444 F,0,159215,159365,1,0
Sprite,Background,Centre,"sb\bg\green.jpg",320,240 F,0,147215,147365,0,1 S,0,147365,,0.4444444 F,0,155215,155365,1,0
Sprite,Background,Centre,"megalovania.jpg",320,240 F,0,141215,141365,0,1 S,0,141365,,0.4444444 F,0,147215,147365,1,0
Sprite,Background,Centre,"sb\bg\green.jpg",320,240 F,0,139215,139365,0,1 S,0,139365,,0.4444444 F,0,141215,141365,1,0
Sprite,Background,Centre,"megalovania.jpg",320,240 F,0,131215,131365,0,1 S,0,131365,,0.4444444 F,0,139215,139365,1,0
Sprite,Background,Centre,"sb\bg\red.jpg",320,240 F,0,67215,67365,0,1 S,0,67365,,0.4444444 F,0,99215,99365,1,0
Sprite,Background,Centre,"sb\bg\red.jpg",320,240 F,0,35215,35365,0,1 S,0,35365,,0.4444444 F,0,51215,51365,1,0
Sprite,Background,Centre,"sb\bg\black.jpg",320,240 F,0,127215,127365,0,0.3 S,0,127365,,0.4444444 F,0,131215,131365,0.3,0
Sprite,Background,Centre,"sb\bg\red.jpg",320,240 F,0,171215,171365,0,1 S,0,171365,,0.4444444 F,0,187090,187240,1,0
Sprite,Background,Centre,"sb\bg\black.jpg",320,240 F,0,51215,51365,0,0.4 S,0,51365,,0.4444444 F,0,59215,59365,0.4,0
Sprite,Background,Centre,"megalovania.jpg",320,240 F,0,59215,59365,0,0.4 S,0,59365,,0.4444444 F,0,67215,67365,0.4,0
Sprite,Background,Centre,"sb\bg\bw.jpg",320,240 F,0,163215,163365,0,0.4 S,0,163365,,0.4444444 F,0,171215,171365,0.4,0
Sprite,Background,Centre,"megalovania.jpg",320,240 F,0,-150,0,0,0.1 S,0,0,,0.4444444 F,0,12553,,0
Sprite,Background,Centre,"sb\bg\black.jpg",320,240 S,0,12803,,0.4444444 F,0,19215,19365,0.1,0
Sprite,Background,Centre,"sb\bg\blurred.jpg",0,0 F,0,159215,159365,0,0.8 M,0,159241,159366,320.0432,239.8043,320.72,238.88 S,0,159365,,0.4466667 M,0,159366,159491,320.72,238.88 M,0,159491,159616,320.72,238.88 M,0,159617,159647,320.72,238.88,320.5209,238.8614 M,0,159648,159678,320.5209,238.8614,320.3217,238.8427 M,0,159679,159709,320.3217,238.8427,320.1226,238.8241 M,0,159710,159741,320.1226,238.8241,319.9235,238.8055 M,0,159742,159772,319.9235,238.8055,319.7243,238.7868 M,0,159773,159803,319.7243,238.7868,319.5252,238.7682 M,0,159804,159834,319.5252,238.7682,319.3261,238.7496 M,0,159835,159866,319.3261,238.7496,319.127,238.7309 M,0,159866,160116,319.127,238.7309,317.84,240.57 M,0,160116,160241,317.84,240.57 M,0,160242,160272,317.84,240.57,317.9525,240.4052 M,0,160273,160303,317.9525,240.4052,318.0916,240.2625 M,0,160304,160334,318.0916,240.2625,318.2529,240.1454 M,0,160335,160366,318.2529,240.1454,318.4334,240.0609 M,0,160366,160491,318.4334,240.0609,319.37,239.88 M,0,160492,160522,319.37,239.88,319.5692,239.8977 M,0,160523,160553,319.5692,239.8977,319.7684,239.9153 M,0,160554,160584,319.7684,239.9153,319.9677,239.933 M,0,160585,160616,319.9677,239.933,320.16,239.95 M,0,160616,160741,320.16,239.95,321.06,240.25 M,0,160742,160772,321.06,240.25,321.2396,240.3369 M,0,160773,160803,321.2396,240.3369,321.4008,240.4542 M,0,160804,160834,321.4008,240.4542,321.5384,240.5982 M,0,160835,160866,321.5384,240.5982,321.65,240.76 M,0,160866,160991,321.65,240.76,321.73,241.68 M,0,160991,161116,321.73,241.68,320.85,241.78 M,0,161116,161241,320.85,241.78,320.23,241.14 M,0,161241,161366,320.23,241.14,319.35,241.24 M,0,161367,161397,319.35,241.24,319.3171,241.4373 M,0,161398,161428,319.3171,241.4373,319.2842,241.6346 M,0,161429,161459,319.2842,241.6346,319.2514,241.8318 M,0,161460,161491,319.2514,241.8318,319.22,242.02 M,0,161492,161522,319.22,242.02,319.2514,241.8318 M,0,161523,161553,319.2514,241.8318,319.2842,241.6346 M,0,161554,161584,319.2842,241.6346,319.3171,241.4373 M,0,161585,161616,319.3171,241.4373,319.35,241.24 M,0,161616,161741,319.35,241.24,319.49,240.35 M,0,161741,161866,319.49,240.35,319.63,239.49 M,0,161867,161897,319.63,239.49,319.5609,239.3029 M,0,161898,161928,319.5609,239.3029,319.4584,239.1321 M,0,161929,161959,319.4584,239.1321,319.3259,238.9834 M,0,161960,161991,319.3259,238.9834,319.1691,238.8607 M,0,161991,162116,319.1691,238.8607,318.28,238.79 M,0,162116,162241,318.28,238.79,317.92,239.86 M,0,162242,162272,317.92,239.86,318.118,239.832 M,0,162273,162303,318.118,239.832,318.3161,239.8041 M,0,162304,162334,318.3161,239.8041,318.5141,239.7761 M,0,162335,162366,318.5141,239.7761,318.7122,239.7482 M,0,162366,162491,318.7122,239.7482,320.47,239.74 M,0,162492,162522,320.47,239.74,320.3345,239.8871 M,0,162523,162553,320.3345,239.8871,320.1991,240.0343 M,0,162554,162584,320.1991,240.0343,320.0636,240.1814 M,0,162585,162616,320.0636,240.1814,319.9282,240.3286 M,0,162616,162741,319.9282,240.3286,319.12,241.75 M,0,162742,162772,319.12,241.75,319.0575,241.56 M,0,162773,162803,319.0575,241.56,318.9949,241.3701 M,0,162804,162834,318.9949,241.3701,318.9323,241.1801 M,0,162835,162866,318.9323,241.1801,318.8698,240.9901 M,0,162866,162991,318.8698,240.9901,317.57,239.51 M,0,162991,163116,317.57,239.51,317.91,240.61 M,0,163116,163241,317.91,240.61,318.71,239.74 F,0,163215,163365,0.8,0
Sprite,Background,Centre,"sb\bg\blurblue.jpg",0,0 F,0,155215,155365,0,0.8 M,0,155241,155366,319.053,239.3639,320.16,239.63 S,0,155365,,0.4466667 M,0,155367,155397,320.16,239.63,320.3596,239.6381 M,0,155398,155428,320.3596,239.6381,320.5533,239.686 M,0,155429,155459,320.5533,239.686,320.7293,239.7797 M,0,155460,155491,320.7293,239.7797,320.8759,239.9151 M,0,155492,155522,320.8759,239.9151,321.0175,240.0557 M,0,155523,155553,321.0175,240.0557,321.1888,240.1578 M,0,155554,155584,321.1888,240.1578,321.3793,240.2175 M,0,155585,155616,321.3793,240.2175,321.5779,240.2397 M,0,155616,155866,321.5779,240.2397,319.74,241.53 M,0,155867,155897,319.74,241.53,319.5492,241.4743 M,0,155898,155928,319.5492,241.4743,319.3828,241.3666 M,0,155929,155959,319.3828,241.3666,319.2544,241.216 M,0,155960,155991,319.2544,241.216,319.17,241.04 M,0,155991,156116,319.17,241.04,318.34,241.26 M,0,156117,156147,318.34,241.26,318.2877,241.0685 M,0,156148,156178,318.2877,241.0685,318.2931,240.8705 M,0,156179,156209,318.2931,240.8705,318.3553,240.6827 M,0,156210,156241,318.3553,240.6827,318.4698,240.5202 M,0,156241,156366,318.4698,240.5202,317.74,240.05 M,0,156367,156397,317.74,240.05,317.832,239.8728 M,0,156398,156428,317.832,239.8728,317.9477,239.7102 M,0,156429,156459,317.9477,239.7102,318.084,239.5644 M,0,156460,156491,318.084,239.5644,318.2413,239.4415 M,0,156492,156522,318.2413,239.4415,318.4132,239.3399 M,0,156523,156553,318.4132,239.3399,318.5991,239.2671 M,0,156554,156584,318.5991,239.2671,318.7932,239.2209 M,0,156585,156616,318.7932,239.2209,318.9918,239.2005 M,0,156616,156741,318.9918,239.2005,319.35,239.99 M,0,156742,156772,319.35,239.99,319.3781,239.792 M,0,156773,156803,319.3781,239.792,319.4062,239.594 M,0,156804,156834,319.4062,239.594,319.4343,239.396 M,0,156835,156866,319.4343,239.396,319.4625,239.1979 M,0,156867,156897,319.4625,239.1979,319.4906,238.9999 M,0,156898,156928,319.4906,238.9999,319.5187,238.8019 M,0,156929,156959,319.5187,238.8019,319.5468,238.6039 M,0,156960,156991,319.5468,238.6039,319.5749,238.4059 M,0,156991,157116,319.5749,238.4059,320.45,238.19 M,0,157117,157147,320.45,238.19,320.6481,238.2172 M,0,157148,157178,320.6481,238.2172,320.8463,238.2445 M,0,157179,157209,320.8463,238.2445,321.0444,238.2717 M,0,157210,157241,321.0444,238.2717,321.2426,238.299 M,0,157241,157366,321.2426,238.299,322.27,238.88 M,0,157367,157397,322.27,238.88,322.0725,238.9117 M,0,157398,157428,322.0725,238.9117,321.8751,238.9435 M,0,157429,157459,321.8751,238.9435,321.6865,238.9929 M,0,157460,157491,321.6865,238.9929,321.543,239.1322 M,0,157492,157522,321.543,239.1322,321.3995,239.2716 M,0,157523,157553,321.3995,239.2716,321.2177,239.3369 M,0,157554,157584,321.2177,239.3369,321.0211,239.3739 M,0,157585,157616,321.0211,239.3739,320.83,239.41 M,0,157616,157866,320.83,239.41,318.74,240.26 M,0,157867,157897,318.74,240.26,318.9362,240.2988 M,0,157898,157928,318.9362,240.2988,319.1324,240.3375 M,0,157929,157959,319.1324,240.3375,319.3286,240.3763 M,0,157960,157991,319.3286,240.3763,319.5248,240.415 M,0,157991,158116,319.5248,240.415,319.8,241.24 M,0,158117,158147,319.8,241.24,319.9962,241.2788 M,0,158148,158178,319.9962,241.2788,320.1924,241.3175 M,0,158179,158209,320.1924,241.3175,320.3886,241.3563 M,0,158210,158241,320.3886,241.3563,320.5848,241.395 M,0,158241,158366,320.5848,241.395,321.55,241.56 M,0,158367,158397,321.55,241.56,321.742,241.6136 M,0,158398,158428,321.742,241.6136,321.9196,241.7037 M,0,158429,158459,321.9196,241.7037,322.0762,241.8265 M,0,158460,158491,322.0762,241.8265,322.2031,241.9799 M,0,158491,158616,322.2031,241.9799,322.34,240.9 M,0,158616,158741,322.34,240.9,321.06,240.62 M,0,158742,158772,321.06,240.62,321.2034,240.4815 M,0,158773,158803,321.2034,240.4815,321.3706,240.3734 M,0,158804,158834,321.3706,240.3734,321.5554,240.2993 M,0,158835,158866,321.5554,240.2993,321.7517,240.2658 M,0,158866,158991,321.7517,240.2658,320.89,239.64 M,0,158991,159116,320.89,239.64,320,240.58 M,0,159117,159147,320,240.58,319.9525,240.3864 M,0,159148,159178,319.9525,240.3864,319.9434,240.1875 M,0,159179,159209,319.9434,240.1875,319.9729,239.9906 M,0,159210,159241,319.9729,239.9906,320.0432,239.8043 F,0,159215,159365,0.8,0
Sprite,Background,Centre,"sb\bg\blurgreen.jpg",0,0 F,0,147215,147365,0,0.8 M,0,147241,147366,319.8229,239.3064,321.01,238.7 S,0,147365,,0.4466667 M,0,147367,147397,321.01,238.7,320.8156,238.7452 M,0,147398,147428,320.8156,238.7452,320.6312,238.8209 M,0,147429,147459,320.6312,238.8209,320.4613,238.9253 M,0,147460,147491,320.4613,238.9253,320.3122,239.0577 M,0,147492,147522,320.3122,239.0577,320.1864,239.2123 M,0,147523,147553,320.1864,239.2123,320.0893,239.3865 M,0,147554,147584,320.0893,239.3865,320.0215,239.5739 M,0,147585,147616,320.0215,239.5739,319.9873,239.7704 M,0,147616,147866,319.9873,239.7704,321.1,241.71 M,0,147867,147897,321.1,241.71,321.2976,241.7409 M,0,147898,147928,321.2976,241.7409,321.4952,241.7717 M,0,147929,147959,321.4952,241.7717,321.5611,241.782 M,0,147960,147991,321.5611,241.782,321.3635,241.7512 M,0,147992,148022,321.3635,241.7512,321.1659,241.7203 M,0,148023,148032,321.1659,241.7203,321.1,241.71 M,0,148032,148116,321.1,241.71,320.67,241 M,0,148117,148147,320.67,241,320.8671,240.9659 M,0,148148,148178,320.8671,240.9659,321.0641,240.9318 M,0,148179,148209,321.0641,240.9318,321.1298,240.9204 M,0,148210,148241,321.1298,240.9204,320.9328,240.9545 M,0,148242,148272,320.9328,240.9545,320.7357,240.9886 M,0,148273,148282,320.7357,240.9886,320.67,241 M,0,148282,148366,320.67,241,320.25,241.77 M,0,148367,148397,320.25,241.77,320.0522,241.7999 M,0,148398,148428,320.0522,241.7999,319.8545,241.8297 M,0,148429,148459,319.8545,241.8297,319.7886,241.8396 M,0,148460,148491,319.7886,241.8396,319.9863,241.8098 M,0,148492,148522,319.9863,241.8098,320.1841,241.78 M,0,148523,148532,320.1841,241.78,320.25,241.77 M,0,148532,148616,320.25,241.77,319.82,241.06 M,0,148617,148647,319.82,241.06,319.6228,241.0265 M,0,148648,148678,319.6228,241.0265,319.4257,240.993 M,0,148679,148709,319.4257,240.993,319.3599,240.9819 M,0,148710,148741,319.3599,240.9819,319.5571,241.0154 M,0,148742,148772,319.5571,241.0154,319.7543,241.0488 M,0,148773,148782,319.7543,241.0488,319.82,241.06 M,0,148782,148866,319.82,241.06,320.19,240.36 M,0,148867,148897,320.19,240.36,320.3865,240.3229 M,0,148898,148928,320.3865,240.3229,320.5831,240.2858 M,0,148929,148959,320.5831,240.2858,320.7635,240.2177 M,0,148960,148991,320.7635,240.2177,320.907,240.0784 M,0,148992,149022,320.907,240.0784,321.0504,239.939 M,0,149023,149053,321.0504,239.939,321.2405,239.8926 M,0,149054,149084,321.2405,239.8926,321.438,239.8609 M,0,149085,149116,321.438,239.8609,321.63,239.83 M,0,149116,149366,321.63,239.83,319.7,238.68 M,0,149367,149397,319.7,238.68,319.7556,238.4892 M,0,149398,149428,319.7556,238.4892,319.8658,238.3243 M,0,149429,149459,319.8658,238.3243,319.9106,238.2748 M,0,149460,149491,319.9106,238.2748,319.7901,238.4324 M,0,149492,149522,319.7901,238.4324,319.7172,238.6158 M,0,149523,149532,319.7172,238.6158,319.7,238.68 M,0,149532,149616,319.7,238.68,319.15,239.23 M,0,149617,149647,319.15,239.23,319.0094,239.0903 M,0,149648,149678,319.0094,239.0903,318.9214,238.9134 M,0,149679,149709,318.9214,238.9134,318.9053,238.8494 M,0,149710,149741,318.9053,238.8494,318.9719,239.0357 M,0,149742,149772,318.9719,239.0357,319.1005,239.1857 M,0,149773,149782,319.1005,239.1857,319.15,239.23 M,0,149782,149866,319.15,239.23,319.95,239.48 M,0,149867,149897,319.95,239.48,319.752,239.4562 M,0,149898,149928,319.752,239.4562,319.5531,239.4688 M,0,149929,149959,319.5531,239.4688,319.3597,239.5163 M,0,149960,149991,319.3597,239.5163,319.1797,239.6018 M,0,149992,150022,319.1797,239.6018,319.0173,239.7173 M,0,150023,150053,319.0173,239.7173,318.8818,239.8635 M,0,150054,150084,318.8818,239.8635,318.7732,240.0307 M,0,150085,150116,318.7732,240.0307,318.6999,240.2164 M,0,150116,150366,318.6999,240.2164,320.75,239.33 M,0,150367,150397,320.75,239.33,320.6944,239.1392 M,0,150398,150428,320.6944,239.1392,320.5843,238.9743 M,0,150429,150459,320.5843,238.9743,320.5394,238.9248 M,0,150460,150491,320.5394,238.9248,320.6599,239.0824 M,0,150492,150522,320.6599,239.0824,320.7328,239.2658 M,0,150523,150532,320.7328,239.2658,320.75,239.33 M,0,150532,150616,320.75,239.33,321.3,239.88 M,0,150617,150647,321.3,239.88,321.4357,239.7353 M,0,150648,150678,321.4357,239.7353,321.5203,239.5565 M,0,150679,150709,321.5203,239.5565,321.5356,239.4923 M,0,150710,150741,321.5356,239.4923,321.4716,239.6796 M,0,150742,150772,321.4716,239.6796,321.3479,239.8339 M,0,150773,150782,321.3479,239.8339,321.3,239.88 M,0,150782,150866,321.3,239.88,320.5,240.13 M,0,150867,150897,320.5,240.13,320.698,240.1062 M,0,150898,150928,320.698,240.1062,320.8969,240.1187 M,0,150929,150959,320.8969,240.1187,321.0903,240.1663 M,0,150960,150991,321.0903,240.1663,321.2703,240.2518 M,0,150992,151022,321.2703,240.2518,321.4327,240.3673 M,0,151023,151053,321.4327,240.3673,321.5682,240.5135 M,0,151054,151084,321.5682,240.5135,321.6768,240.6807 M,0,151085,151116,321.6768,240.6807,321.7501,240.8664 M,0,151116,151366,321.7501,240.8664,319.55,241.36 M,0,151367,151397,319.55,241.36,319.5748,241.5585 M,0,151398,151428,319.5748,241.5585,319.5996,241.7569 M,0,151429,151459,319.5996,241.7569,319.6079,241.8231 M,0,151460,151491,319.6079,241.8231,319.5831,241.6246 M,0,151492,151522,319.5831,241.6246,319.5583,241.4261 M,0,151523,151532,319.5583,241.4261,319.55,241.36 M,0,151532,151616,319.55,241.36,319.01,240.71 M,0,151617,151647,319.01,240.71,318.9852,240.5116 M,0,151648,151678,318.9852,240.5116,318.9604,240.3131 M,0,151679,151709,318.9604,240.3131,318.9521,240.2469 M,0,151710,151741,318.9521,240.2469,318.9769,240.4454 M,0,151742,151772,318.9769,240.4454,319.0017,240.6438 M,0,151773,151782,319.0017,240.6438,319.01,240.71 M,0,151782,151866,319.01,240.71,318.76,241.76 M,0,151867,151897,318.76,241.76,318.734,241.5617 M,0,151898,151928,318.734,241.5617,318.7081,241.3634 M,0,151929,151959,318.7081,241.3634,318.6821,241.1651 M,0,151960,151991,318.6821,241.1651,318.6561,240.9668 M,0,151991,152116,318.6561,240.9668,317.94,240.49 M,0,152117,152147,317.94,240.49,317.914,240.2917 M,0,152148,152178,317.914,240.2917,317.8881,240.0934 M,0,152179,152209,317.8881,240.0934,317.8621,239.8951 M,0,152210,152241,317.8621,239.8951,317.8361,239.6968 M,0,152241,152366,317.8361,239.6968,318.3,238.82 M,0,152367,152397,318.3,238.82,318.2752,238.6216 M,0,152398,152428,318.2752,238.6216,318.2504,238.4231 M,0,152429,152459,318.2504,238.4231,318.2421,238.3569 M,0,152460,152491,318.2421,238.3569,318.2669,238.5554 M,0,152492,152522,318.2669,238.5554,318.2917,238.7538 M,0,152523,152532,318.2917,238.7538,318.3,238.82 M,0,152532,152616,318.3,238.82,318.84,239.47 M,0,152617,152647,318.84,239.47,318.8648,239.6685 M,0,152648,152678,318.8648,239.6685,318.8896,239.8669 M,0,152679,152709,318.8896,239.8669,318.8979,239.9331 M,0,152710,152741,318.8979,239.9331,318.8731,239.7346 M,0,152742,152772,318.8731,239.7346,318.8483,239.5361 M,0,152773,152782,318.8483,239.5361,318.84,239.47 M,0,152782,152866,318.84,239.47,319.09,238.42 M,0,152867,152897,319.09,238.42,319.1139,238.6186 M,0,152898,152928,319.1139,238.6186,319.1378,238.8171 M,0,152929,152959,319.1378,238.8171,319.1618,239.0157 M,0,152960,152991,319.1618,239.0157,319.1857,239.2142 M,0,152991,153116,319.1857,239.2142,319.91,239.69 M,0,153117,153147,319.91,239.69,319.9339,239.8886 M,0,153148,153178,319.9339,239.8886,319.9579,240.0871 M,0,153179,153209,319.9579,240.0871,319.9818,240.2857 M,0,153210,153241,319.9818,240.2857,320.0057,240.4843 M,0,153241,153366,320.0057,240.4843,320.73,241.23 M,0,153367,153397,320.73,241.23,320.7302,241.4288 M,0,153398,153428,320.7302,241.4288,320.6755,241.6194 M,0,153429,153459,320.6755,241.6194,320.6489,241.6805 M,0,153460,153491,320.6489,241.6805,320.7206,241.4948 M,0,153492,153522,320.7206,241.4948,320.7321,241.2965 M,0,153523,153532,320.7321,241.2965,320.73,241.23 M,0,153532,153616,320.73,241.23,321.5,240.67 M,0,153617,153647,321.5,240.67,321.5981,240.8433 M,0,153648,153678,321.5981,240.8433,321.6541,241.034 M,0,153679,153709,321.6541,241.034,321.6633,241.0997 M,0,153710,153741,321.6633,241.0997,321.6232,240.9049 M,0,153742,153772,321.6232,240.9049,321.5348,240.7268 M,0,153773,153782,321.5348,240.7268,321.5,240.67 M,0,153782,153866,321.5,240.67,320.95,239.8 M,0,153867,153897,320.95,239.8,320.9071,239.6046 M,0,153898,153928,320.9071,239.6046,320.8642,239.4093 M,0,153929,153959,320.8642,239.4093,320.9037,239.2151 M,0,153960,153991,320.9037,239.2151,320.9522,239.0211 M,0,153991,154116,320.9522,239.0211,321.9,238.42 M,0,154117,154147,321.9,238.42,321.9429,238.6154 M,0,154148,154178,321.9429,238.6154,321.9857,238.8107 M,0,154179,154209,321.9857,238.8107,321.9463,239.0049 M,0,154210,154241,321.9463,239.0049,321.8978,239.1989 M,0,154241,154366,321.8978,239.1989,320.95,239.8 M,0,154367,154397,320.95,239.8,320.7542,239.759 M,0,154398,154428,320.7542,239.759,320.5585,239.718 M,0,154429,154459,320.5585,239.718,320.3627,239.6771 M,0,154460,154491,320.3627,239.6771,320.167,239.6361 M,0,154491,154616,320.167,239.6361,319.06,239.37 M,0,154616,154741,319.06,239.37,319.29,240.85 M,0,154742,154772,319.29,240.85,319.331,240.6542 M,0,154773,154803,319.331,240.6542,319.3719,240.4585 M,0,154804,154834,319.3719,240.4585,319.4129,240.2627 M,0,154835,154866,319.4129,240.2627,319.4539,240.067 M,0,154866,154991,319.4539,240.067,319.72,238.96 M,0,154991,155116,319.72,238.96,318.27,239.2 M,0,155117,155147,318.27,239.2,318.4658,239.241 M,0,155148,155178,318.4658,239.241,318.6615,239.282 M,0,155179,155209,318.6615,239.282,318.8573,239.3229 M,0,155210,155241,318.8573,239.3229,319.053,239.3639 F,0,155215,155365,0.8,0
Sprite,Background,Centre,"sb\bg\blurblue.jpg",0,0 F,0,141215,141365,0,0.8 M,0,141241,141366,320.1309,239.6015,319.32,240.13 S,0,141365,,0.4466667 M,0,141367,141397,319.32,240.13,319.5163,240.0918 M,0,141398,141428,319.5163,240.0918,319.7126,240.0535 M,0,141429,141459,319.7126,240.0535,319.9089,240.0153 M,0,141460,141491,319.9089,240.0153,320.1035,239.9876 M,0,141492,141522,320.1035,239.9876,320.278,240.0853 M,0,141523,141553,320.278,240.0853,320.4525,240.183 M,0,141554,141584,320.4525,240.183,320.627,240.2807 M,0,141585,141616,320.627,240.2807,320.8015,240.3785 M,0,141616,141866,320.8015,240.3785,322.46,241.55 M,0,141867,141897,322.46,241.55,322.2637,241.5882 M,0,141898,141928,322.2637,241.5882,322.0674,241.6265 M,0,141929,141959,322.0674,241.6265,321.8711,241.6647 M,0,141960,141991,321.8711,241.6647,321.6765,241.6924 M,0,141992,142022,321.6765,241.6924,321.502,241.5947 M,0,142023,142053,321.502,241.5947,321.3275,241.497 M,0,142054,142084,321.3275,241.497,321.153,241.3992 M,0,142085,142116,321.153,241.3992,320.9785,241.3015 M,0,142116,142366,320.9785,241.3015,318.8,240.74 M,0,142367,142397,318.8,240.74,318.8317,240.5425 M,0,142398,142428,318.8317,240.5425,318.8635,240.3451 M,0,142429,142459,318.8635,240.3451,318.9129,240.1565 M,0,142460,142491,318.9129,240.1565,319.0522,240.013 M,0,142492,142522,319.0522,240.013,319.1916,239.8696 M,0,142523,142553,319.1916,239.8696,319.2569,239.6877 M,0,142554,142584,319.2569,239.6877,319.2939,239.4911 M,0,142585,142616,319.2939,239.4911,319.33,239.3 M,0,142616,142741,319.33,239.3,320.03,238.41 M,0,142742,142772,320.03,238.41,320.165,238.557 M,0,142773,142803,320.165,238.557,320.2736,238.7242 M,0,142804,142834,320.2736,238.7242,320.3543,238.9065 M,0,142835,142866,320.3543,238.9065,320.3997,239.1007 M,0,142867,142897,320.3997,239.1007,320.4148,239.2997 M,0,142898,142928,320.4148,239.2997,320.3917,239.4978 M,0,142929,142959,320.3917,239.4978,320.3359,239.6892 M,0,142960,142991,320.3359,239.6892,320.251,239.8697 M,0,142991,143116,320.251,239.8697,319.76,240.68 M,0,143117,143147,319.76,240.68,319.9587,240.7024 M,0,143148,143178,319.9587,240.7024,320.1575,240.7247 M,0,143179,143209,320.1575,240.7247,320.3562,240.7471 M,0,143210,143241,320.3562,240.7471,320.555,240.7694 M,0,143241,143366,320.555,240.7694,321.31,240.17 M,0,143367,143397,321.31,240.17,321.476,240.0601 M,0,143398,143428,321.476,240.0601,321.6098,239.9133 M,0,143429,143459,321.6098,239.9133,321.7077,239.74 M,0,143460,143491,321.7077,239.74,321.7545,239.5462 M,0,143492,143522,321.7545,239.5462,321.7077,239.74 M,0,143523,143553,321.7077,239.74,321.6098,239.9133 M,0,143554,143584,321.6098,239.9133,321.476,240.0601 M,0,143585,143616,321.476,240.0601,321.31,240.17 M,0,143616,143741,321.31,240.17,320.86,240.97 M,0,143742,143772,320.86,240.97,321.039,241.057 M,0,143773,143803,321.039,241.057,321.2335,241.097 M,0,143804,143834,321.2335,241.097,321.4325,241.0919 M,0,143835,143866,321.4325,241.0919,321.6226,241.0323 M,0,143867,143897,321.6226,241.0323,321.4325,241.0919 M,0,143898,143928,321.4325,241.0919,321.2335,241.097 M,0,143929,143959,321.2335,241.097,321.039,241.057 M,0,143960,143991,321.039,241.057,320.86,240.97 M,0,143991,144116,320.86,240.97,319.87,240.99 M,0,144117,144147,319.87,240.99,319.8788,241.1887 M,0,144148,144178,319.8788,241.1887,319.9384,241.3781 M,0,144179,144209,319.9384,241.3781,320.0415,241.5481 M,0,144210,144241,320.0415,241.5481,320.1889,241.6821 M,0,144242,144272,320.1889,241.6821,320.0415,241.5481 M,0,144273,144303,320.0415,241.5481,319.9384,241.3781 M,0,144304,144334,319.9384,241.3781,319.8788,241.1887 M,0,144335,144366,319.8788,241.1887,319.87,240.99 M,0,144366,144491,319.87,240.99,319.4,240.2 M,0,144492,144522,319.4,240.2,319.234,240.3099 M,0,144523,144553,319.234,240.3099,319.1003,240.4567 M,0,144554,144584,319.1003,240.4567,319.0023,240.63 M,0,144585,144616,319.0023,240.63,318.9555,240.8238 M,0,144617,144647,318.9555,240.8238,319.0023,240.63 M,0,144648,144678,319.0023,240.63,319.1003,240.4567 M,0,144679,144709,319.1003,240.4567,319.234,240.3099 M,0,144710,144741,319.234,240.3099,319.4,240.2 M,0,144741,144866,319.4,240.2,320.33,239.65 M,0,144867,144897,320.33,239.65,320.4938,239.5369 M,0,144898,144928,320.4938,239.5369,320.6261,239.3886 M,0,144929,144959,320.6261,239.3886,320.7198,239.2136 M,0,144960,144991,320.7198,239.2136,320.7699,239.0207 M,0,144992,145022,320.7699,239.0207,320.7198,239.2136 M,0,145023,145053,320.7198,239.2136,320.6261,239.3886 M,0,145054,145084,320.6261,239.3886,320.4938,239.5369 M,0,145085,145116,320.4938,239.5369,320.33,239.65 M,0,145116,145241,320.33,239.65,319.86,238.86 M,0,145242,145272,319.86,238.86,319.8466,238.6614 M,0,145273,145303,319.8466,238.6614,319.7865,238.472 M,0,145304,145334,319.7865,238.472,319.6834,238.3024 M,0,145335,145366,319.6834,238.3024,319.5422,238.1618 M,0,145367,145397,319.5422,238.1618,319.6834,238.3024 M,0,145398,145428,319.6834,238.3024,319.7865,238.472 M,0,145429,145459,319.7865,238.472,319.8466,238.6614 M,0,145460,145491,319.8466,238.6614,319.86,238.86 M,0,145491,145616,319.86,238.86,318.87,238.88 M,0,145617,145647,318.87,238.88,318.6925,238.79 M,0,145648,145678,318.6925,238.79,318.499,238.745 M,0,145679,145709,318.499,238.745,318.3004,238.7469 M,0,145710,145741,318.3004,238.7469,318.1076,238.7972 M,0,145742,145772,318.1076,238.7972,318.3004,238.7469 M,0,145773,145803,318.3004,238.7469,318.499,238.745 M,0,145804,145834,318.499,238.745,318.6925,238.79 M,0,145835,145866,318.6925,238.79,318.87,238.88 M,0,145866,145991,318.87,238.88,318.42,239.68 M,0,145992,146022,318.42,239.68,318.2515,239.7857 M,0,146023,146053,318.2515,239.7857,318.1152,239.9301 M,0,146054,146084,318.1152,239.9301,318.0194,240.1038 M,0,146085,146116,318.0194,240.1038,317.9705,240.2968 M,0,146117,146147,317.9705,240.2968,318.0194,240.1038 M,0,146148,146178,318.0194,240.1038,318.1152,239.9301 M,0,146179,146209,318.1152,239.9301,318.2515,239.7857 M,0,146210,146241,318.2515,239.7857,318.42,239.68 M,0,146241,146366,318.42,239.68,318.97,240.46 M,0,146367,146397,318.97,240.46,319.1682,240.4866 M,0,146398,146428,319.1682,240.4866,319.3665,240.5132 M,0,146429,146459,319.3665,240.5132,319.5647,240.5398 M,0,146460,146491,319.5647,240.5398,319.7629,240.5664 M,0,146491,146616,319.7629,240.5664,320.67,240.68 M,0,146616,146741,320.67,240.68,321.98,239.76 M,0,146742,146772,321.98,239.76,321.7818,239.7866 M,0,146773,146803,321.7818,239.7866,321.5836,239.8132 M,0,146804,146834,321.5836,239.8132,321.3853,239.8398 M,0,146835,146866,321.3853,239.8398,321.1871,239.8664 M,0,146866,146991,321.1871,239.8664,320.28,239.98 M,0,146991,147116,320.28,239.98,319.03,239.2 M,0,147117,147147,319.03,239.2,319.2282,239.2266 M,0,147148,147178,319.2282,239.2266,319.4265,239.2532 M,0,147179,147209,319.4265,239.2532,319.6247,239.2798 M,0,147210,147241,319.6247,239.2798,319.8229,239.3064 F,0,147215,147365,0.8,0
Sprite,Background,Centre,"sb\bg\blurgreen.jpg",0,0 F,0,139215,139365,0,0.8 M,0,139241,139366,320.9109,241.7921,320.1,241.1 S,0,139365,,0.4466667 M,0,139367,139397,320.1,241.1,319.9015,241.1241 M,0,139398,139428,319.9015,241.1241,319.7029,241.1482 M,0,139429,139459,319.7029,241.1482,319.5044,241.1723 M,0,139460,139491,319.5044,241.1723,319.3058,241.1964 M,0,139492,139522,319.3058,241.1964,319.1073,241.2205 M,0,139523,139553,319.1073,241.2205,318.9088,241.2446 M,0,139554,139584,318.9088,241.2446,318.7102,241.2687 M,0,139585,139616,318.7102,241.2687,318.5117,241.2928 M,0,139616,139866,318.5117,241.2928,318.35,239.12 M,0,139867,139897,318.35,239.12,318.1934,238.9962 M,0,139898,139928,318.1934,238.9962,318.0204,238.8967 M,0,139929,139959,318.0204,238.8967,317.9599,238.8692 M,0,139960,139991,317.9599,238.8692,318.1378,238.9594 M,0,139992,140022,318.1378,238.9594,318.2987,239.0775 M,0,140023,140032,318.2987,239.0775,318.35,239.12 M,0,140032,140116,318.35,239.12,318.87,239.86 M,0,140117,140147,318.87,239.86,319.0279,239.9823 M,0,140148,140178,319.0279,239.9823,319.2021,240.0795 M,0,140179,140209,319.2021,240.0795,319.2627,240.1071 M,0,140210,140241,319.2627,240.1071,319.0851,240.0164 M,0,140242,140272,319.0851,240.0164,318.9221,239.9015 M,0,140273,140282,318.9221,239.9015,318.87,239.86 M,0,140282,140366,318.87,239.86,319.12,239.17 M,0,140367,140397,319.12,239.17,319.239,239.0096 M,0,140398,140428,319.239,239.0096,319.3353,238.8348 M,0,140429,140459,319.3353,238.8348,319.3621,238.7739 M,0,140460,140491,319.3621,238.7739,319.2743,238.9532 M,0,140492,140522,319.2743,238.9532,319.1609,239.1174 M,0,140523,140532,319.1609,239.1174,319.12,239.17 M,0,140532,140616,319.12,239.17,318.09,239.84 M,0,140617,140647,318.09,239.84,317.9634,239.9943 M,0,140648,140678,317.9634,239.9943,317.8627,240.1664 M,0,140679,140709,317.8627,240.1664,317.8353,240.227 M,0,140710,140741,317.8353,240.227,317.926,240.0494 M,0,140742,140772,317.926,240.0494,318.0464,239.8904 M,0,140773,140782,318.0464,239.8904,318.09,239.84 M,0,140782,140866,318.09,239.84,319.12,239.17 M,0,140867,140897,319.12,239.17,319.3173,239.2029 M,0,140898,140928,319.3173,239.2029,319.5146,239.2358 M,0,140929,140959,319.5146,239.2358,319.7118,239.2686 M,0,140960,140991,319.7118,239.2686,319.9091,239.3015 M,0,140991,141116,319.9091,239.3015,320.92,239.47 M,0,141117,141147,320.92,239.47,320.7227,239.5029 M,0,141148,141178,320.7227,239.5029,320.5255,239.5358 M,0,141179,141209,320.5255,239.5358,320.3282,239.5686 M,0,141210,141241,320.3282,239.5686,320.1309,239.6015 F,0,141215,141365,0.8,0
Sprite,Background,Centre,"sb\bg\blurblue.jpg",0,0 F,0,131215,131365,0,0.8 M,0,131241,131366,320.56,239.62,320.46,239.99 S,0,131365,,0.4466667 M,0,131367,131397,320.46,239.99,320.4296,239.7927 M,0,131398,131428,320.4296,239.7927,320.3703,239.6022 M,0,131429,131459,320.3703,239.6022,320.2836,239.4226 M,0,131460,131491,320.2836,239.4226,320.1691,239.2593 M,0,131492,131522,320.1691,239.2593,320.0317,239.1147 M,0,131523,131553,320.0317,239.1147,319.8729,238.994 M,0,131554,131584,319.8729,238.994,319.698,238.8981 M,0,131585,131616,319.698,238.8981,319.5099,238.8316 M,0,131617,131647,319.5099,238.8316,319.698,238.8981 M,0,131648,131678,319.698,238.8981,319.8729,238.994 M,0,131679,131709,319.8729,238.994,320.0317,239.1147 M,0,131710,131741,320.0317,239.1147,320.1691,239.2593 M,0,131742,131772,320.1691,239.2593,320.2836,239.4226 M,0,131773,131803,320.2836,239.4226,320.3703,239.6022 M,0,131804,131834,320.3703,239.6022,320.4296,239.7927 M,0,131835,131866,320.4296,239.7927,320.46,239.99 M,0,131866,132116,320.46,239.99,318.59,241.74 M,0,132117,132147,318.59,241.74,318.6151,241.5416 M,0,132148,132178,318.6151,241.5416,318.6401,241.3432 M,0,132179,132209,318.6401,241.3432,318.6652,241.1447 M,0,132210,132241,318.6652,241.1447,318.6902,240.9463 M,0,132241,132366,318.6902,240.9463,317.87,240.16 M,0,132367,132397,317.87,240.16,318.0292,240.0396 M,0,132398,132428,318.0292,240.0396,318.2051,239.9456 M,0,132429,132459,318.2051,239.9456,318.393,239.8787 M,0,132460,132491,318.393,239.8787,318.5897,239.8454 M,0,132492,132522,318.5897,239.8454,318.7892,239.841 M,0,132523,132553,318.7892,239.841,318.9864,239.872 M,0,132554,132584,318.9864,239.872,319.1761,239.9333 M,0,132585,132616,319.1761,239.9333,319.355,240.0218 M,0,132616,132741,319.355,240.0218,319.94,240.62 M,0,132742,132772,319.94,240.62,319.8172,240.4621 M,0,132773,132803,319.8172,240.4621,319.6944,240.3043 M,0,132804,132834,319.6944,240.3043,319.5716,240.1464 M,0,132835,132866,319.5716,240.1464,319.4502,239.9881 M,0,132867,132897,319.4502,239.9881,319.4687,239.789 M,0,132898,132928,319.4687,239.789,319.4872,239.5898 M,0,132929,132959,319.4872,239.5898,319.5057,239.3907 M,0,132960,132991,319.5057,239.3907,319.5243,239.1916 M,0,132991,133116,319.5243,239.1916,319.94,238.27 M,0,133117,133147,319.94,238.27,319.9124,238.4681 M,0,133148,133178,319.9124,238.4681,319.8848,238.6662 M,0,133179,133209,319.8848,238.6662,319.8573,238.8643 M,0,133210,133241,319.8573,238.8643,319.83,239.06 M,0,133241,133366,319.83,239.06,319.01,239.18 M,0,133367,133397,319.01,239.18,319.2096,239.1881 M,0,133398,133428,319.2096,239.1881,319.4033,239.236 M,0,133429,133459,319.4033,239.236,319.5793,239.3297 M,0,133460,133491,319.5793,239.3297,319.7259,239.4651 M,0,133492,133522,319.7259,239.4651,319.8675,239.6057 M,0,133523,133553,319.8675,239.6057,320.0388,239.7078 M,0,133554,133584,320.0388,239.7078,320.2293,239.7675 M,0,133585,133616,320.2293,239.7675,320.4278,239.7897 M,0,133616,133866,320.4278,239.7897,322.28,238.53 M,0,133867,133897,322.28,238.53,322.1713,238.6971 M,0,133898,133928,322.1713,238.6971,322.0984,238.8824 M,0,133929,133959,322.0984,238.8824,322.062,239.0781 M,0,133960,133991,322.062,239.0781,322.0706,239.2771 M,0,133991,134116,322.0706,239.2771,322.25,240.1 M,0,134117,134147,322.25,240.1,322.0553,240.1458 M,0,134148,134178,322.0553,240.1458,321.8606,240.1916 M,0,134179,134209,321.8606,240.1916,321.666,240.2374 M,0,134210,134241,321.666,240.2374,321.4713,240.2832 M,0,134241,134366,321.4713,240.2832,320.29,240.84 M,0,134367,134397,320.29,240.84,320.2937,240.6411 M,0,134398,134428,320.2937,240.6411,320.3456,240.4493 M,0,134429,134459,320.3456,240.4493,320.4422,240.276 M,0,134460,134491,320.4422,240.276,320.5813,240.1342 M,0,134492,134522,320.5813,240.1342,320.7504,240.0303 M,0,134523,134553,320.7504,240.0303,320.9412,239.9747 M,0,134554,134584,320.9412,239.9747,321.1395,239.9668 M,0,134585,134616,321.1395,239.9668,321.3344,240.0082 M,0,134616,134741,321.3344,240.0082,321.64,241.14 M,0,134742,134772,321.64,241.14,321.4435,241.1771 M,0,134773,134803,321.4435,241.1771,321.2469,241.2142 M,0,134804,134834,321.2469,241.2142,321.0665,241.2823 M,0,134835,134866,321.0665,241.2823,320.923,241.4216 M,0,134867,134897,320.923,241.4216,320.7796,241.561 M,0,134898,134928,320.7796,241.561,320.5895,241.6074 M,0,134929,134959,320.5895,241.6074,320.392,241.6391 M,0,134960,134991,320.392,241.6391,320.2,241.67 M,0,134991,135116,320.2,241.67,319.43,241.41 M,0,135117,135147,319.43,241.41,319.2333,241.3738 M,0,135148,135178,319.2333,241.3738,319.0366,241.3423 M,0,135179,135209,319.0366,241.3423,318.8394,241.3759 M,0,135210,135241,318.8394,241.3759,318.6423,241.4096 M,0,135241,135366,318.6423,241.4096,317.9,241.72 M,0,135367,135397,317.9,241.72,317.8407,241.5301 M,0,135398,135428,317.8407,241.5301,317.8313,241.3318 M,0,135429,135459,317.8313,241.3318,317.8698,241.137 M,0,135460,135491,317.8698,241.137,317.9619,240.9609 M,0,135491,135616,317.9619,240.9609,318.64,240.48 M,0,135617,135647,318.64,240.48,318.6993,240.2901 M,0,135648,135678,318.6993,240.2901,318.7087,240.0918 M,0,135679,135709,318.7087,240.0918,318.6702,239.897 M,0,135710,135741,318.6702,239.897,318.5781,239.7209 M,0,135741,135866,318.5781,239.7209,318.33,238.9 M,0,135867,135897,318.33,238.9,318.5284,238.8752 M,0,135898,135928,318.5284,238.8752,318.7269,238.8504 M,0,135929,135959,318.7269,238.8504,318.9254,238.8256 M,0,135960,135991,318.9254,238.8256,319.1238,238.8008 M,0,135991,136116,319.1238,238.8008,319.79,238.31 M,0,136117,136147,319.79,238.31,319.9885,238.3348 M,0,136148,136178,319.9885,238.3348,320.1869,238.3596 M,0,136179,136209,320.1869,238.3596,320.3854,238.3844 M,0,136210,136241,320.3854,238.3844,320.5838,238.4092 M,0,136241,136366,320.5838,238.4092,321.37,238.65 M,0,136367,136397,321.37,238.65,321.5038,238.7975 M,0,136398,136428,321.5038,238.7975,321.5988,238.9721 M,0,136429,136459,321.5988,238.9721,321.6497,239.164 M,0,136460,136491,321.6497,239.164,321.657,239.3627 M,0,136491,136616,321.657,239.3627,321.49,240.17 M,0,136617,136647,321.49,240.17,321.3425,240.3038 M,0,136648,136678,321.3425,240.3038,321.1679,240.3988 M,0,136679,136709,321.1679,240.3988,320.976,240.4498 M,0,136710,136741,320.976,240.4498,320.7773,240.457 M,0,136741,136866,320.7773,240.457,320,240.22 M,0,136867,136897,320,240.22,319.8662,240.0725 M,0,136898,136928,319.8662,240.0725,319.7712,239.8979 M,0,136929,136959,319.7712,239.8979,319.7202,239.706 M,0,136960,136991,319.7202,239.706,319.713,239.5073 M,0,136991,137116,319.713,239.5073,319.88,238.7 M,0,137117,137147,319.88,238.7,320.0229,238.5615 M,0,137148,137178,320.0229,238.5615,320.1958,238.464 M,0,137179,137209,320.1958,238.464,320.3877,238.4135 M,0,137210,137241,320.3877,238.4135,320.5864,238.4098 M,0,137241,137366,320.5864,238.4098,321.53,239.39 M,0,137367,137397,321.53,239.39,321.4793,239.2488 M,0,137398,137428,321.4793,239.2488,321.4285,239.1077 M,0,137429,137459,321.4285,239.1077,321.3778,238.9665 M,0,137460,137491,321.3778,238.9665,321.3271,238.8253 M,0,137491,137616,321.3271,238.8253,320.57,238.55 M,0,137617,137647,320.57,238.55,320.4288,238.6007 M,0,137648,137678,320.4288,238.6007,320.2877,238.6515 M,0,137679,137709,320.2877,238.6515,320.1465,238.7022 M,0,137710,137741,320.1465,238.7022,320.0053,238.7529 M,0,137741,137866,320.0053,238.7529,319.83,239.49 M,0,137867,137897,319.83,239.49,319.8807,239.6312 M,0,137898,137928,319.8807,239.6312,319.9315,239.7723 M,0,137929,137959,319.9315,239.7723,319.9822,239.9135 M,0,137960,137991,319.9822,239.9135,320.0329,240.0546 M,0,137991,138116,320.0329,240.0546,320.69,240.35 M,0,138117,138147,320.69,240.35,320.8311,240.2993 M,0,138148,138178,320.8311,240.2993,320.9723,240.2485 M,0,138179,138209,320.9723,240.2485,321.1135,240.1978 M,0,138210,138241,321.1135,240.1978,321.2546,240.1471 M,0,138241,138366,321.2546,240.1471,322.21,240.49 M,0,138367,138397,322.21,240.49,322.1284,240.6718 M,0,138398,138428,322.1284,240.6718,322.0111,240.8326 M,0,138429,138459,322.0111,240.8326,321.8645,240.9673 M,0,138460,138491,321.8645,240.9673,321.6913,241.0661 M,0,138491,138616,321.6913,241.0661,320.54,241.12 M,0,138616,138741,320.54,241.12,322.17,241.28 M,0,138742,138772,322.17,241.28,322.0052,241.3922 M,0,138773,138803,322.0052,241.3922,321.8218,241.4699 M,0,138804,138834,321.8218,241.4699,321.6273,241.5127 M,0,138835,138866,321.6273,241.5127,321.4277,241.5135 M,0,138866,138991,321.4277,241.5135,320.33,241.1 M,0,138991,139116,320.33,241.1,321.67,241.96 M,0,139117,139147,321.67,241.96,321.4713,241.9758 M,0,139148,139178,321.4713,241.9758,321.2736,241.952 M,0,139179,139209,321.2736,241.952,321.0837,241.8918 M,0,139210,139241,321.0837,241.8918,320.9109,241.7921 F,0,139215,139365,0.8,0
Sprite,Background,Centre,"sb\bg\blurred.jpg",0,0 F,0,35215,35365,0,0.8 M,17,35241,35366,319.2,240.64,320.48,240.72 S,0,35365,,0.4466667 M,17,35367,35397,320.48,240.72,320.3263,240.5926 M,17,35398,35428,320.3263,240.5926,320.1932,240.444 M,17,35429,35459,320.1932,240.444,320.083,240.2777 M,17,35460,35491,320.083,240.2777,320.0011,240.0958 M,17,35492,35522,320.0011,240.0958,319.9462,239.904 M,17,35523,35553,319.9462,239.904,319.9232,239.7058 M,17,35554,35584,319.9232,239.7058,319.9286,239.5064 M,17,35585,35616,319.9286,239.5064,319.9649,239.31 M,17,35616,35866,319.9649,239.31,322.09,238.6 M,17,35867,35897,322.09,238.6,321.891,238.6197 M,17,35898,35928,321.891,238.6197,321.692,238.6395 M,17,35929,35959,321.692,238.6395,321.4929,238.6592 M,17,35960,35991,321.4929,238.6592,321.2939,238.6789 M,17,35992,36022,321.2939,238.6789,321.0949,238.6986 M,17,36023,36053,321.0949,238.6986,320.9059,238.6691 M,17,36054,36084,320.9059,238.6691,320.7308,238.5725 M,17,36085,36116,320.7308,238.5725,320.5557,238.4759 M,17,36116,36241,320.5557,238.4759,319.44,238.29 M,17,36242,36272,319.44,238.29,319.2685,238.3916 M,17,36273,36303,319.2685,238.3916,319.1198,238.5242 M,17,36304,36334,319.1198,238.5242,318.9984,238.682 M,17,36335,36366,318.9984,238.682,318.9132,238.8621 M,17,36366,36491,318.9132,238.8621,318.34,239.43 M,17,36492,36522,318.34,239.43,318.3754,239.6268 M,17,36523,36553,318.3754,239.6268,318.4108,239.8237 M,17,36554,36584,318.4108,239.8237,318.4462,240.0205 M,17,36585,36616,318.4462,240.0205,318.4815,240.2174 M,17,36616,36741,318.4815,240.2174,319.15,240.75 M,17,36742,36772,319.15,240.75,319.239,240.9285 M,17,36773,36803,319.239,240.9285,319.3601,241.0867 M,17,36804,36834,319.3601,241.0867,319.5089,241.219 M,17,36835,36866,319.5089,241.219,319.67,241.32 M,17,36866,36991,319.67,241.32,320.86,241.49 M,17,36992,37022,320.86,241.49,321.0569,241.4546 M,17,37023,37053,321.0569,241.4546,321.2537,241.4192 M,17,37054,37084,321.2537,241.4192,321.4505,241.3838 M,17,37085,37116,321.4505,241.3838,321.6474,241.3484 M,17,37117,37147,321.6474,241.3484,321.4505,241.3838 M,17,37148,37178,321.4505,241.3838,321.2537,241.4192 M,17,37179,37209,321.2537,241.4192,321.0569,241.4546 M,17,37210,37241,321.0569,241.4546,320.86,241.49 M,17,37241,37366,320.86,241.49,320.38,240.67 M,17,37366,37491,320.38,240.67 M,17,37491,37616,320.38,240.67 M,17,37617,37647,320.38,240.67,320.1804,240.6781 M,17,37648,37678,320.1804,240.6781,319.9867,240.726 M,17,37679,37709,319.9867,240.726,319.8107,240.8197 M,17,37710,37741,319.8107,240.8197,319.6642,240.9551 M,17,37742,37772,319.6642,240.9551,319.5226,241.0957 M,17,37773,37803,319.5226,241.0957,319.3512,241.1978 M,17,37804,37834,319.3512,241.1978,319.1607,241.2575 M,17,37835,37866,319.1607,241.2575,318.9622,241.2797 M,17,37866,38116,318.9622,241.2797,317.49,239.57 M,17,38116,38241,317.49,239.57 M,17,38242,38272,317.49,239.57,317.6838,239.6166 M,17,38273,38303,317.6838,239.6166,317.8639,239.7014 M,17,38304,38334,317.8639,239.7014,318.0255,239.8182 M,17,38335,38366,318.0255,239.8182,318.1552,239.9696 M,17,38366,38491,318.1552,239.9696,319.12,239.74 M,17,38492,38522,319.12,239.74,319.0077,239.9046 M,17,38523,38553,319.0077,239.9046,318.9323,240.0888 M,17,38554,38584,318.9323,240.0888,318.8933,240.2843 M,17,38585,38616,318.8933,240.2843,318.9023,240.4834 M,17,38616,38741,318.9023,240.4834,318.96,241.27 M,17,38741,38991,318.96,241.27,318.51,239.07 M,17,38992,39022,318.51,239.07,318.5591,238.8761 M,17,39023,39053,318.5591,238.8761,318.6081,238.6822 M,17,39054,39084,318.6081,238.6822,318.6572,238.4883 M,17,39085,39116,318.6572,238.4883,318.7062,238.2944 M,17,39116,39241,318.7062,238.2944,319.5,238.18 M,17,39241,39366,319.5,238.18,320.09,238.71 M,17,39367,39397,320.09,238.71,320.2865,238.7471 M,17,39398,39428,320.2865,238.7471,320.4831,238.7842 M,17,39429,39459,320.4831,238.7842,320.6635,238.8523 M,17,39460,39491,320.6635,238.8523,320.8069,238.9916 M,17,39492,39522,320.8069,238.9916,320.9504,239.131 M,17,39523,39553,320.9504,239.131,321.1405,239.1774 M,17,39554,39584,321.1405,239.1774,321.338,239.2091 M,17,39585,39616,321.338,239.2091,321.53,239.24 M,17,39616,39866,321.53,239.24,321.85,241.45 M,17,39867,39897,321.85,241.45,321.745,241.2801 M,17,39898,39928,321.745,241.2801,321.6198,241.1245 M,17,39929,39959,321.6198,241.1245,321.4774,240.9846 M,17,39960,39991,321.4774,240.9846,321.3168,240.8659 M,17,39992,40022,321.3168,240.8659,321.1428,240.768 M,17,40023,40053,321.1428,240.768,320.9583,240.6917 M,17,40054,40084,320.9583,240.6917,320.7652,240.6413 M,17,40085,40116,320.7652,240.6413,320.5674,240.6134 M,17,40116,40241,320.5674,240.6134,319.78,241.52 M,17,40242,40272,319.78,241.52,319.6508,241.368 M,17,40273,40303,319.6508,241.368,319.5513,241.1954 M,17,40304,40334,319.5513,241.1954,319.483,241.0082 M,17,40335,40366,319.483,241.0082,319.4538,240.811 M,17,40366,40491,319.4538,240.811,319.54,240.03 M,17,40492,40522,319.54,240.03,319.6483,239.8626 M,17,40523,40553,319.6483,239.8626,319.7863,239.7189 M,17,40554,40584,319.7863,239.7189,319.9478,239.6023 M,17,40585,40616,319.9478,239.6023,320.1305,239.5227 M,17,40616,40741,320.1305,239.5227,320.91,239.48 M,17,40742,40772,320.91,239.48,321.0971,239.5491 M,17,40773,40803,321.0971,239.5491,321.269,239.65 M,17,40804,40834,321.269,239.65,321.4211,239.7787 M,17,40835,40866,321.4211,239.7787,321.5453,239.9346 M,17,40866,40991,321.5453,239.9346,321.74,240.69 M,17,40991,41116,321.74,240.69,321.38,241.43 M,17,41116,41241,321.38,241.43,320.6,241.68 M,17,41241,41366,320.6,241.68,319.79,241.52 M,17,41367,41397,319.79,241.52,319.5906,241.5358 M,17,41398,41428,319.5906,241.5358,319.3913,241.5516 M,17,41429,41459,319.3913,241.5516,319.1919,241.5674 M,17,41460,41491,319.1919,241.5674,318.9925,241.5832 M,17,41492,41522,318.9925,241.5832,318.7931,241.599 M,17,41523,41553,318.7931,241.599,318.5938,241.6148 M,17,41554,41584,318.5938,241.6148,318.3944,241.6306 M,17,41585,41616,318.3944,241.6306,318.195,241.6464 M,17,41616,41866,318.195,241.6464,318.41,240.05 M,17,41867,41897,318.41,240.05,318.2105,240.0646 M,17,41898,41928,318.2105,240.0646,318.0111,240.0792 M,17,41929,41959,318.0111,240.0792,317.8116,240.0938 M,17,41960,41991,317.8116,240.0938,317.6121,240.1084 M,17,41992,42022,317.6121,240.1084,317.8116,240.0938 M,17,42023,42053,317.8116,240.0938,318.0111,240.0792 M,17,42054,42084,318.0111,240.0792,318.2105,240.0646 M,17,42085,42116,318.2105,240.0646,318.41,240.05 M,17,42116,42241,318.41,240.05,319.21,239.97 M,17,42241,42366,319.21,239.97,319.06,239.18 M,17,42367,42397,319.06,239.18,319.0064,238.988 M,17,42398,42428,319.0064,238.988,318.9163,238.8104 M,17,42429,42459,318.9163,238.8104,318.7935,238.6538 M,17,42460,42491,318.7935,238.6538,318.6401,238.5269 M,17,42491,42616,318.6401,238.5269,319.22,240.14 M,17,42616,42741,319.22,240.14,320,239.67 M,17,42742,42772,320,239.67,320.1385,239.5266 M,17,42773,42803,320.1385,239.5266,320.2466,239.3594 M,17,42804,42834,320.2466,239.3594,320.3207,239.1746 M,17,42835,42866,320.3207,239.1746,320.3542,238.9783 M,17,42866,42991,320.3542,238.9783,319.24,240.28 M,17,42991,43116,319.24,240.28,320.04,240.73 M,17,43117,43147,320.04,240.73,320.2336,240.7775 M,17,43148,43178,320.2336,240.7775,320.4326,240.7866 M,17,43179,43209,320.4326,240.7866,320.6294,240.7571 M,17,43210,43241,320.6294,240.7571,320.8157,240.6868 M,17,43241,43366,320.8157,240.6868,321.64,240.2 M,17,43367,43397,321.64,240.2,321.4406,240.2029 M,17,43398,43428,321.4406,240.2029,321.2452,240.2419 M,17,43429,43459,321.2452,240.2419,321.0597,240.3146 M,17,43460,43491,321.0597,240.3146,320.8925,240.4232 M,17,43492,43522,320.8925,240.4232,320.7464,240.5588 M,17,43523,43553,320.7464,240.5588,320.6313,240.7215 M,17,43554,43584,320.6313,240.7215,320.5449,240.9013 M,17,43585,43616,320.5449,240.9013,320.4967,241.0951 M,17,43616,43866,320.4967,241.0951,318.35,241.75 M,17,43867,43897,318.35,241.75,318.3303,241.551 M,17,43898,43928,318.3303,241.551,318.3105,241.3519 M,17,43929,43959,318.3105,241.3519,318.2908,241.1529 M,17,43960,43991,318.2908,241.1529,318.2711,240.9539 M,17,43992,44022,318.2711,240.9539,318.2514,240.7549 M,17,44023,44053,318.2514,240.7549,318.2809,240.566 M,17,44054,44084,318.2809,240.566,318.3775,240.3908 M,17,44085,44116,318.3775,240.3908,318.4741,240.2157 M,17,44116,44241,318.4741,240.2157,317.97,239.39 M,17,44242,44272,317.97,239.39,318.1686,239.3666 M,17,44273,44303,318.1686,239.3666,318.3672,239.3433 M,17,44304,44334,318.3672,239.3433,318.5659,239.3199 M,17,44335,44366,318.5659,239.3199,318.7645,239.2965 M,17,44366,44491,318.7645,239.2965,319.51,238.77 M,17,44492,44522,319.51,238.77,319.5334,238.9686 M,17,44523,44553,319.5334,238.9686,319.5567,239.1673 M,17,44554,44584,319.5567,239.1673,319.5801,239.3659 M,17,44585,44616,319.5801,239.3659,319.6035,239.5645 M,17,44616,44741,319.6035,239.5645,319.32,240.39 M,17,44742,44772,319.32,240.39,319.5187,240.3676 M,17,44773,44803,319.5187,240.3676,319.7175,240.3453 M,17,44804,44834,319.7175,240.3453,319.9162,240.3229 M,17,44835,44866,319.9162,240.3229,320.115,240.3006 M,17,44866,44991,320.115,240.3006,321.29,240.11 M,17,44992,45022,321.29,240.11,321.4668,240.0177 M,17,45023,45053,321.4668,240.0177,321.6221,239.8931 M,17,45054,45084,321.6221,239.8931,321.7523,239.7423 M,17,45085,45116,321.7523,239.7423,321.8463,239.5665 M,17,45117,45147,321.8463,239.5665,321.7523,239.7423 M,17,45148,45178,321.7523,239.7423,321.6221,239.8931 M,17,45179,45209,321.6221,239.8931,321.4668,240.0177 M,17,45210,45241,321.4668,240.0177,321.29,240.11 M,17,45241,45366,321.29,240.11,320.57,239.54 M,17,45366,45491,320.57,239.54 M,17,45491,45616,320.57,239.54 M,17,45617,45647,320.57,239.54,320.5067,239.7297 M,17,45648,45678,320.5067,239.7297,320.4435,239.9195 M,17,45679,45709,320.4435,239.9195,320.3802,240.1092 M,17,45710,45741,320.3802,240.1092,320.317,240.299 M,17,45742,45772,320.317,240.299,320.2869,240.4885 M,17,45773,45803,320.2869,240.4885,320.3527,240.6773 M,17,45804,45834,320.3527,240.6773,320.4185,240.8662 M,17,45835,45866,320.4185,240.8662,320.4843,241.055 M,17,45866,46116,320.4843,241.055,318.41,241.94 M,17,46116,46241,318.41,241.94 M,17,46242,46272,318.41,241.94,318.3738,241.744 M,17,46273,46303,318.3738,241.744,318.2984,241.5597 M,17,46304,46334,318.2984,241.5597,318.1869,241.395 M,17,46335,46366,318.1869,241.395,318.0454,241.255 M,17,46366,46491,318.0454,241.255,317.63,239.8 M,17,46492,46522,317.63,239.8,317.7423,239.9646 M,17,46523,46553,317.7423,239.9646,317.8177,240.1488 M,17,46554,46584,317.8177,240.1488,317.8567,240.3443 M,17,46585,46616,317.8567,240.3443,317.8477,240.5434 M,17,46616,46741,317.8477,240.5434,318.66,240.67 M,17,46741,46991,318.66,240.67,319.31,238.52 M,17,46992,47022,319.31,238.52,319.5086,238.5434 M,17,47023,47053,319.5086,238.5434,319.7073,238.5667 M,17,47054,47084,319.7073,238.5667,319.9059,238.5901 M,17,47085,47116,319.9059,238.5901,320.1045,238.6135 M,17,47116,47241,320.1045,238.6135,321.07,238.47 M,17,47241,47366,321.07,238.47,320.73,239.3 M,17,47367,47397,320.73,239.3,320.5335,239.3371 M,17,47398,47428,320.5335,239.3371,320.3369,239.3742 M,17,47429,47459,320.3369,239.3742,320.1565,239.4423 M,17,47460,47491,320.1565,239.4423,320.013,239.5816 M,17,47492,47522,320.013,239.5816,319.8696,239.721 M,17,47523,47553,319.8696,239.721,319.6795,239.7674 M,17,47554,47584,319.6795,239.7674,319.482,239.7991 M,17,47585,47616,319.482,239.7991,319.29,239.83 M,17,47616,47866,319.29,239.83,321.07,238.47 M,17,47867,47897,321.07,238.47,321.0883,238.6692 M,17,47898,47928,321.0883,238.6692,321.1067,238.8683 M,17,47929,47959,321.1067,238.8683,321.125,239.0675 M,17,47960,47991,321.125,239.0675,321.1433,239.2666 M,17,47992,48022,321.1433,239.2666,321.1617,239.4658 M,17,48023,48053,321.1617,239.4658,321.18,239.6649 M,17,48054,48084,321.18,239.6649,321.1983,239.8641 M,17,48085,48116,321.1983,239.8641,321.2166,240.0633 M,17,48116,48241,321.2166,240.0633,322.06,240.8 M,17,48242,48272,322.06,240.8,321.9194,240.9414 M,17,48273,48303,321.9194,240.9414,321.7546,241.0533 M,17,48304,48334,321.7546,241.0533,321.5719,241.1322 M,17,48335,48366,321.5719,241.1322,321.3766,241.1715 M,17,48366,48491,321.3766,241.1715,320.85,241.82 M,17,48492,48522,320.85,241.82,320.6586,241.7639 M,17,48523,48553,320.6586,241.7639,320.48,241.6754 M,17,48554,48584,320.48,241.6754,320.3194,241.5575 M,17,48585,48616,320.3194,241.5575,320.1842,241.4111 M,17,48616,48741,320.1842,241.4111,319.37,241.35 M,17,48742,48772,319.37,241.35,319.3175,241.1576 M,17,48773,48803,319.3175,241.1576,319.3018,240.959 M,17,48804,48834,319.3018,240.959,319.3231,240.7611 M,17,48835,48866,319.3231,240.7611,319.3843,240.5715 M,17,48866,48991,319.3843,240.5715,319.95,239.99 M,17,48991,49116,319.95,239.99,320.22,239.26 M,17,49116,49241,320.22,239.26,319.72,238.64 M,17,49241,49366,319.72,238.64,318.93,238.55 M,17,49367,49397,318.93,238.55,318.7304,238.5581 M,17,49398,49428,318.7304,238.5581,318.5367,238.606 M,17,49429,49459,318.5367,238.606,318.3607,238.6997 M,17,49460,49491,318.3607,238.6997,318.2141,238.8351 M,17,49492,49522,318.2141,238.8351,318.077,238.9801 M,17,49523,49553,318.077,238.9801,317.9088,239.0871 M,17,49554,49584,317.9088,239.0871,317.7184,239.1466 M,17,49585,49616,317.7184,239.1466,317.5192,239.1607 M,17,49616,49866,317.5192,239.1607,318.62,241.11 M,17,49867,49897,318.62,241.11,318.6346,241.3095 M,17,49898,49928,318.6346,241.3095,318.6492,241.5089 M,17,49929,49959,318.6492,241.5089,318.6638,241.7084 M,17,49960,49991,318.6638,241.7084,318.6784,241.9079 M,17,49992,50022,318.6784,241.9079,318.6638,241.7084 M,17,50023,50053,318.6638,241.7084,318.6492,241.5089 M,17,50054,50084,318.6492,241.5089,318.6346,241.3095 M,17,50085,50116,318.6346,241.3095,318.62,241.11 M,17,50116,50241,318.62,241.11,318.54,240.3 M,17,50241,50366,318.54,240.3,319.07,239.4 M,17,50367,50397,319.07,239.4,319.268,239.4283 M,17,50398,50428,319.268,239.4283,319.466,239.4566 M,17,50429,50459,319.466,239.4566,319.664,239.4848 M,17,50460,50491,319.664,239.4848,319.862,239.5131 M,17,50491,50616,319.862,239.5131,320.49,240.23 M,17,50616,50741,320.49,240.23,321.72,239.51 M,17,50742,50772,321.72,239.51,321.5948,239.6659 M,17,50773,50803,321.5948,239.6659,321.4695,239.8219 M,17,50804,50834,321.4695,239.8219,321.3443,239.9778 M,17,50835,50866,321.3443,239.9778,321.2191,240.1338 M,17,50866,50991,321.2191,240.1338,320.49,240.23 M,17,50991,51116,320.49,240.23,320.24,241.59 M,17,51117,51147,320.24,241.59,320.1649,241.4046 M,17,51148,51178,320.1649,241.4046,320.0898,241.2193 M,17,51179,51209,320.0898,241.2193,320.0147,241.0339 M,17,51210,51241,320.0147,241.0339,319.9397,240.8485 F,0,51215,51365,0.8,0
Sprite,Background,Centre,"sb\bg\blurred.jpg",0,0 F,0,67215,67365,0,0.8 M,0,67241,67366,320.95,241.31,319.24,241.91 S,0,67365,,0.4466667 M,0,67367,67397,319.24,241.91,319.1021,241.7662 M,0,67398,67428,319.1021,241.7662,318.9968,241.5972 M,0,67429,67459,318.9968,241.5972,318.9285,241.4104 M,0,67460,67491,318.9285,241.4104,318.9035,241.213 M,0,67492,67522,318.9035,241.213,318.9196,241.0147 M,0,67523,67553,318.9196,241.0147,318.9794,240.8249 M,0,67554,67584,318.9794,240.8249,319.0768,240.6515 M,0,67585,67616,319.0768,240.6515,319.2084,240.5016 M,0,67616,67866,319.2084,240.5016,321.15,239.14 M,0,67867,67897,321.15,239.14,321.2798,239.2912 M,0,67898,67928,321.2798,239.2912,321.375,239.466 M,0,67929,67959,321.375,239.466,321.4341,239.6561 M,0,67960,67991,321.4341,239.6561,321.4468,239.8548 M,0,67992,68022,321.4468,239.8548,321.4178,240.0517 M,0,68023,68053,321.4178,240.0517,321.3494,240.2384 M,0,68054,68084,321.3494,240.2384,321.2401,240.4048 M,0,68085,68116,321.2401,240.4048,321.11,240.54 M,0,68116,68366,321.11,240.54,319.09,239.52 M,0,68366,68491,319.09,239.52,318.36,239.17 M,0,68491,68616,318.36,239.17,318.61,238.41 M,0,68617,68647,318.61,238.41,318.7935,238.3314 M,0,68648,68678,318.7935,238.3314,318.987,238.2832 M,0,68679,68709,318.987,238.2832,319.1856,238.2638 M,0,68710,68741,319.1856,238.2638,319.3847,238.2803 M,0,68741,68866,319.3847,238.2803,320.15,239.05 M,0,68866,68991,320.15,239.05,320.88,239.4 M,0,68991,69116,320.88,239.4,320.63,240.16 M,0,69117,69147,320.63,240.16,320.4465,240.2386 M,0,69148,69178,320.4465,240.2386,320.253,240.2868 M,0,69179,69209,320.253,240.2868,320.0544,240.3062 M,0,69210,69241,320.0544,240.3062,319.8553,240.2897 M,0,69241,69366,319.8553,240.2897,319.13,240.63 M,0,69367,69397,319.13,240.63,318.93,240.63 M,0,69398,69428,318.93,240.63,318.73,240.63 M,0,69429,69459,318.73,240.63,318.93,240.63 M,0,69460,69491,318.93,240.63,319.13,240.63 M,0,69492,69522,319.13,240.63,318.93,240.63 M,0,69523,69553,318.93,240.63,318.73,240.63 M,0,69554,69584,318.73,240.63,318.93,240.63 M,0,69585,69616,318.93,240.63,319.13,240.63 M,0,69616,69741,319.13,240.63,319.77,241.13 M,0,69741,69866,319.77,241.13,320.44,241.59 M,0,69867,69897,320.44,241.59,320.502,241.4004 M,0,69898,69928,320.502,241.4004,320.6045,241.2291 M,0,69929,69959,320.6045,241.2291,320.7358,241.0785 M,0,69960,69991,320.7358,241.0785,320.8887,240.9499 M,0,69992,70022,320.8887,240.9499,321.0582,240.844 M,0,70023,70053,321.0582,240.844,321.2404,240.7617 M,0,70054,70084,321.2404,240.7617,321.4316,240.7037 M,0,70085,70116,321.4316,240.7037,321.6286,240.6699 M,0,70117,70147,321.6286,240.6699,321.8107,240.6228 M,0,70148,70178,321.8107,240.6228,321.9196,240.4554 M,0,70179,70209,321.9196,240.4554,321.9957,240.2708 M,0,70210,70241,321.9957,240.2708,322.0353,240.075 M,0,70242,70272,322.0353,240.075,322.0363,239.8754 M,0,70273,70303,322.0363,239.8754,321.9977,239.6795 M,0,70304,70334,321.9977,239.6795,321.9202,239.4955 M,0,70335,70366,321.9202,239.4955,321.8061,239.3317 M,0,70367,70397,321.8061,239.3317,321.6599,239.1959 M,0,70398,70428,321.6599,239.1959,321.4877,239.0948 M,0,70429,70459,321.4877,239.0948,321.2978,239.0335 M,0,70460,70491,321.2978,239.0335,321.0991,239.0144 M,0,70492,70522,321.0991,239.0144,320.9008,239.0377 M,0,70523,70553,320.9008,239.0377,320.7117,239.1016 M,0,70554,70584,320.7117,239.1016,320.5396,239.2028 M,0,70585,70616,320.5396,239.2028,320.3919,239.3371 M,0,70617,70647,320.3919,239.3371,320.2749,239.4989 M,0,70648,70678,320.2749,239.4989,320.1946,239.6816 M,0,70679,70709,320.1946,239.6816,320.1551,239.8773 M,0,70710,70741,320.1551,239.8773,320.1584,240.0769 M,0,70742,70772,320.1584,240.0769,320.2036,240.2714 M,0,70773,70803,320.2036,240.2714,320.2863,240.4531 M,0,70804,70834,320.2863,240.4531,320.4007,240.6169 M,0,70835,70866,320.4007,240.6169,320.54,240.76 M,0,70866,70991,320.54,240.76,321.11,239.96 M,0,70992,71022,321.11,239.96,320.9333,239.8677 M,0,71023,71053,320.9333,239.8677,320.7424,239.8105 M,0,71054,71084,320.7424,239.8105,320.5444,239.7896 M,0,71085,71116,320.5444,239.7896,320.3463,239.8103 M,0,71117,71147,320.3463,239.8103,320.1552,239.8666 M,0,71148,71178,320.1552,239.8666,319.9803,239.9622 M,0,71179,71209,319.9803,239.9622,319.8252,240.0873 M,0,71210,71241,319.8252,240.0873,319.6989,240.2419 M,0,71241,71366,319.6989,240.2419,319.56,241.31 M,0,71367,71397,319.56,241.31,319.36,241.3052 M,0,71398,71428,319.36,241.3052,319.1601,241.3005 M,0,71429,71459,319.1601,241.3005,318.9602,241.2957 M,0,71460,71491,318.9602,241.2957,318.7602,241.291 M,0,71492,71522,318.7602,241.291,318.6277,241.1596 M,0,71523,71553,318.6277,241.1596,318.5122,240.9963 M,0,71554,71584,318.5122,240.9963,318.3968,240.833 M,0,71585,71616,318.3968,240.833,318.2813,240.6697 M,0,71616,71741,318.2813,240.6697,318.07,239.9 M,0,71741,71866,318.07,239.9 M,0,71867,71897,318.07,239.9,318.2464,239.8058 M,0,71898,71928,318.2464,239.8058,318.4228,239.7115 M,0,71929,71959,318.4228,239.7115,318.5992,239.6173 M,0,71960,71991,318.5992,239.6173,318.7756,239.523 M,0,71991,72116,318.7756,239.523,318.34,238.84 M,0,72117,72147,318.34,238.84,318.5164,238.7458 M,0,72148,72178,318.5164,238.7458,318.6928,238.6515 M,0,72179,72209,318.6928,238.6515,318.8692,238.5573 M,0,72210,72241,318.8692,238.5573,319.0456,238.463 M,0,72241,72366,319.0456,238.463,319.84,238.43 M,0,72367,72397,319.84,238.43,320.0346,238.4751 M,0,72398,72428,320.0346,238.4751,320.2189,238.5521 M,0,72429,72459,320.2189,238.5521,320.3868,238.6603 M,0,72460,72491,320.3868,238.6603,320.5337,238.7644 M,0,72492,72522,320.5337,238.7644,320.6828,238.6316 M,0,72523,72553,320.6828,238.6316,320.8563,238.5329 M,0,72554,72584,320.8563,238.5329,321.0447,238.4664 M,0,72585,72616,321.0447,238.4664,321.22,238.43 M,0,72616,72866,321.22,238.43,322.24,240.43 M,0,72867,72897,322.24,240.43,322.046,240.3822 M,0,72898,72928,322.046,240.3822,321.8619,240.3047 M,0,72929,72959,321.8619,240.3047,321.6932,240.1976 M,0,72960,72991,321.6932,240.1976,321.5448,240.076 M,0,72992,73022,321.5448,240.076,321.3976,240.2109 M,0,73023,73053,321.3976,240.2109,321.2253,240.3118 M,0,73054,73084,321.2253,240.3118,321.0376,240.3802 M,0,73085,73116,321.0376,240.3802,320.85,240.42 M,0,73116,73366,320.85,240.42,318.77,239.52 M,0,73366,73616,318.77,239.52,321,239.44 M,0,73616,73866,321,239.44,319.34,240.94 M,0,73867,73897,319.34,240.94,319.4087,241.1274 M,0,73898,73928,319.4087,241.1274,319.5071,241.3008 M,0,73929,73959,319.5071,241.3008,319.6313,241.4568 M,0,73960,73991,319.6313,241.4568,319.7813,241.5886 M,0,73992,74022,319.7813,241.5886,319.6313,241.4568 M,0,74023,74053,319.6313,241.4568,319.5071,241.3008 M,0,74054,74084,319.5071,241.3008,319.4087,241.1274 M,0,74085,74116,319.4087,241.1274,319.34,240.94 M,0,74116,74241,319.34,240.94,319.54,240.09 M,0,74241,74366,319.54,240.09,318.71,240.23 M,0,74367,74397,318.71,240.23,318.518,240.2836 M,0,74398,74428,318.518,240.2836,318.3404,240.3737 M,0,74429,74459,318.3404,240.3737,318.1838,240.4965 M,0,74460,74491,318.1838,240.4965,318.0569,240.6499 M,0,74491,74616,318.0569,240.6499,319.67,240.07 M,0,74616,74741,319.67,240.07,319.2,239.29 M,0,74742,74772,319.2,239.29,319.0566,239.1515 M,0,74773,74803,319.0566,239.1515,318.8894,239.0434 M,0,74804,74834,318.8894,239.0434,318.7047,238.9693 M,0,74835,74866,318.7047,238.9693,318.5083,238.9358 M,0,74866,74991,318.5083,238.9358,319.81,240.05 M,0,74991,75116,319.81,240.05,320.26,239.25 M,0,75117,75147,320.26,239.25,320.3075,239.0564 M,0,75148,75178,320.3075,239.0564,320.3166,238.8575 M,0,75179,75209,320.3166,238.8575,320.2871,238.6606 M,0,75210,75241,320.2871,238.6606,320.2169,238.4743 M,0,75241,75366,320.2169,238.4743,319.09,238.49 M,0,75367,75397,319.09,238.49,319.1752,238.671 M,0,75398,75428,319.1752,238.671,319.2603,238.8519 M,0,75429,75459,319.2603,238.8519,319.3455,239.0329 M,0,75460,75491,319.3455,239.0329,319.4583,239.1745 M,0,75492,75522,319.4583,239.1745,319.6574,239.1933 M,0,75523,75553,319.6574,239.1933,319.8565,239.212 M,0,75554,75584,319.8565,239.212,320.0556,239.2308 M,0,75585,75616,320.0556,239.2308,320.2547,239.2495 M,0,75616,75866,320.2547,239.2495,322.32,240.1 M,0,75867,75897,322.32,240.1,322.2348,240.281 M,0,75898,75928,322.2348,240.281,322.1497,240.4619 M,0,75929,75959,322.1497,240.4619,322.0645,240.6429 M,0,75960,75991,322.0645,240.6429,321.9517,240.784 M,0,75992,76022,321.9517,240.784,321.7524,240.8004 M,0,76023,76053,321.7524,240.8004,321.553,240.8168 M,0,76054,76084,321.553,240.8168,321.3537,240.8332 M,0,76085,76116,321.3537,240.8332,321.1544,240.8496 M,0,76116,76366,321.1544,240.8496,318.9,240.78 M,0,76367,76397,318.9,240.78,319.0999,240.7822 M,0,76398,76428,319.0999,240.7822,319.2979,240.8096 M,0,76429,76459,319.2979,240.8096,319.4894,240.8663 M,0,76460,76491,319.4894,240.8663,319.6685,240.9548 M,0,76492,76522,319.6685,240.9548,319.8289,241.0737 M,0,76523,76553,319.8289,241.0737,319.9669,241.2183 M,0,76554,76584,319.9669,241.2183,320.1068,241.3609 M,0,76585,76616,320.1068,241.3609,320.2682,241.4785 M,0,76617,76647,320.2682,241.4785,320.4468,241.5681 M,0,76648,76678,320.4468,241.5681,320.6368,241.6298 M,0,76679,76709,320.6368,241.6298,320.8334,241.666 M,0,76710,76741,320.8334,241.666,321.02,241.68 M,0,76741,76866,321.02,241.68,322.37,241.64 M,0,76867,76897,322.37,241.64,322.3912,241.4419 M,0,76898,76928,322.3912,241.4419,322.3708,241.2439 M,0,76929,76959,322.3708,241.2439,322.3099,241.0546 M,0,76960,76991,322.3099,241.0546,322.2078,240.8837 M,0,76992,77022,322.2078,240.8837,322.0728,240.7377 M,0,77023,77053,322.0728,240.7377,321.9081,240.6259 M,0,77054,77084,321.9081,240.6259,321.7241,240.5504 M,0,77085,77116,321.7241,240.5504,321.5276,240.5187 M,0,77117,77147,321.5276,240.5187,321.3289,240.5278 M,0,77148,77178,321.3289,240.5278,321.1374,240.582 M,0,77179,77209,321.1374,240.582,320.961,240.674 M,0,77210,77241,320.961,240.674,320.808,240.802 M,0,77241,77366,320.808,240.802,319.89,241.47 M,0,77367,77397,319.89,241.47,319.7861,241.2997 M,0,77398,77428,319.7861,241.2997,319.7143,241.1138 M,0,77429,77459,319.7143,241.1138,319.6739,240.9185 M,0,77460,77491,319.6739,240.9185,319.6739,240.7191 M,0,77491,77616,319.6739,240.7191,319.06,240.16 M,0,77617,77647,319.06,240.16,319.1536,239.9839 M,0,77648,77678,319.1536,239.9839,319.2771,239.8275 M,0,77679,77709,319.2771,239.8275,319.4248,239.6934 M,0,77710,77741,319.4248,239.6934,319.5968,239.5925 M,0,77741,77866,319.5968,239.5925,319.63,238.76 M,0,77867,77897,319.63,238.76,319.8293,238.7531 M,0,77898,77928,319.8293,238.7531,320.0265,238.7823 M,0,77929,77959,320.0265,238.7823,320.216,238.8443 M,0,77960,77991,320.216,238.8443,320.3888,238.9437 M,0,77991,78116,320.3888,238.9437,321.17,238.69 M,0,78117,78147,321.17,238.69,321.2739,238.8603 M,0,78148,78178,321.2739,238.8603,321.3458,239.0462 M,0,78179,78209,321.3458,239.0462,321.3861,239.2415 M,0,78210,78241,321.3861,239.2415,321.3861,239.4409 M,0,78241,78366,321.3861,239.4409,322.01,240.14 M,0,78367,78397,322.01,240.14,321.8681,239.9997 M,0,78398,78428,321.8681,239.9997,321.7052,239.8848 M,0,78429,78459,321.7052,239.8848,321.526,239.7975 M,0,78460,78491,321.526,239.7975,321.3338,239.7442 M,0,78492,78522,321.3338,239.7442,321.1357,239.7218 M,0,78523,78553,321.1357,239.7218,320.9367,239.7364 M,0,78554,78584,320.9367,239.7364,320.7424,239.7815 M,0,78585,78616,320.7424,239.7815,320.56,239.8623 M,0,78616,78866,320.56,239.8623,318.63,241.03 M,0,78867,78897,318.63,241.03,318.7719,240.8897 M,0,78898,78928,318.7719,240.8897,318.9348,240.7748 M,0,78929,78959,318.9348,240.7748,319.114,240.6875 M,0,78960,78991,319.114,240.6875,319.3062,240.6342 M,0,78992,79022,319.3062,240.6342,319.5043,240.6118 M,0,79023,79053,319.5043,240.6118,319.7032,240.6264 M,0,79054,79084,319.7032,240.6264,319.8976,240.6715 M,0,79085,79116,319.8976,240.6715,320.08,240.7523 M,0,79116,79366,320.08,240.7523,322.07,241.25 M,0,79367,79397,322.07,241.25,321.9219,241.1156 M,0,79398,79428,321.9219,241.1156,321.7738,240.9812 M,0,79429,79459,321.7738,240.9812,321.6257,240.8467 M,0,79460,79491,321.6257,240.8467,321.4776,240.7123 M,0,79492,79522,321.4776,240.7123,321.3296,240.5779 M,0,79523,79553,321.3296,240.5779,321.1815,240.4435 M,0,79554,79584,321.1815,240.4435,321.0334,240.3091 M,0,79585,79616,321.0334,240.3091,320.8853,240.1746 M,0,79617,79647,320.8853,240.1746,320.7358,240.0418 M,0,79648,79678,320.7358,240.0418,320.5689,239.9322 M,0,79679,79709,320.5689,239.9322,320.3845,239.8554 M,0,79710,79741,320.3845,239.8554,320.189,239.815 M,0,79742,79772,320.189,239.815,319.9893,239.8134 M,0,79773,79803,319.9893,239.8134,319.7932,239.8512 M,0,79804,79834,319.7932,239.8512,319.6089,239.9279 M,0,79835,79866,319.6089,239.9279,319.4446,240.0413 M,0,79867,79897,319.4446,240.0413,319.3082,240.187 M,0,79898,79928,319.3082,240.187,319.2065,240.3587 M,0,79929,79959,319.2065,240.3587,319.1443,240.5484 M,0,79960,79991,319.1443,240.5484,319.1243,240.747 M,0,79992,80022,319.1243,240.747,319.1468,240.9454 M,0,80023,80053,319.1468,240.9454,319.2099,241.1348 M,0,80054,80084,319.2099,241.1348,319.3105,241.3072 M,0,80085,80116,319.3105,241.3072,319.4442,241.4555 M,0,80117,80147,319.4442,241.4555,319.6055,241.5731 M,0,80148,80178,319.6055,241.5731,319.7879,241.6542 M,0,80179,80209,319.7879,241.6542,319.9834,241.6945 M,0,80210,80241,319.9834,241.6945,320.183,241.692 M,0,80242,80272,320.183,241.692,320.3777,241.6477 M,0,80273,80303,320.3777,241.6477,320.5597,241.5656 M,0,80304,80334,320.5597,241.5656,320.7238,241.4518 M,0,80335,80366,320.7238,241.4518,320.8674,241.3129 M,0,80366,80616,320.8674,241.3129,322,239.37 M,0,80616,80866,322,239.37,319.8,238.92 M,0,80867,80897,319.8,238.92,319.6004,238.9185 M,0,80898,80928,319.6004,238.9185,319.4035,238.9496 M,0,80929,80959,319.4035,238.9496,319.2133,239.01 M,0,80960,80991,319.2133,239.01,319.0377,239.1047 M,0,80991,81116,319.0377,239.1047,318.34,239.7 M,0,81117,81147,318.34,239.7,318.2932,239.8944 M,0,81148,81178,318.2932,239.8944,318.2463,240.0889 M,0,81179,81209,318.2463,240.0889,318.1994,240.2833 M,0,81210,81241,318.1994,240.2833,318.1526,240.4777 M,0,81241,81366,318.1526,240.4777,317.93,241.25 M,0,81367,81397,317.93,241.25,318.0776,241.115 M,0,81398,81428,318.0776,241.115,318.2252,240.98 M,0,81429,81459,318.2252,240.98,318.3727,240.845 M,0,81460,81491,318.3727,240.845,318.5203,240.71 M,0,81492,81522,318.5203,240.71,318.6679,240.5751 M,0,81523,81553,318.6679,240.5751,318.8154,240.4401 M,0,81554,81584,318.8154,240.4401,318.963,240.3051 M,0,81585,81616,318.963,240.3051,319.1106,240.1701 M,0,81617,81647,319.1106,240.1701,319.2599,240.0372 M,0,81648,81678,319.2599,240.0372,319.4277,239.9287 M,0,81679,81709,319.4277,239.9287,319.6125,239.8533 M,0,81710,81741,319.6125,239.8533,319.8084,239.8143 M,0,81742,81772,319.8084,239.8143,320.0081,239.814 M,0,81773,81803,320.0081,239.814,320.2038,239.8533 M,0,81804,81834,320.2038,239.8533,320.3875,239.9315 M,0,81835,81866,320.3875,239.9315,320.5509,240.0461 M,0,81867,81897,320.5509,240.0461,320.6862,240.1929 M,0,81898,81928,320.6862,240.1929,320.7866,240.3654 M,0,81929,81959,320.7866,240.3654,320.8472,240.5556 M,0,81960,81991,320.8472,240.5556,320.8656,240.7544 M,0,81992,82022,320.8656,240.7544,320.8416,240.9526 M,0,82023,82053,320.8416,240.9526,320.777,241.1415 M,0,82054,82084,320.777,241.1415,320.6751,241.3132 M,0,82085,82116,320.6751,241.3132,320.5403,241.4604 M,0,82117,82147,320.5403,241.4604,320.3781,241.5768 M,0,82148,82178,320.3781,241.5768,320.195,241.6564 M,0,82179,82209,320.195,241.6564,319.9992,241.6952 M,0,82210,82241,319.9992,241.6952,319.7997,241.6911 M,0,82242,82272,319.7997,241.6911,319.6053,241.6453 M,0,82273,82303,319.6053,241.6453,319.4239,241.562 M,0,82304,82334,319.4239,241.562,319.2605,241.4471 M,0,82335,82366,319.2605,241.4471,319.12,241.31 M,0,82366,82616,319.12,241.31,317.69,239.49 M,0,82616,82741,317.69,239.49,317.44,240.2 M,0,82742,82772,317.44,240.2,317.6365,240.2316 M,0,82773,82803,317.6365,240.2316,317.8345,240.2148 M,0,82804,82834,317.8345,240.2148,318.0236,240.1536 M,0,82835,82866,318.0236,240.1536,318.1906,240.0448 M,0,82866,82991,318.1906,240.0448,318.91,239.67 M,0,82992,83022,318.91,239.67,319.1085,239.6945 M,0,83023,83053,319.1085,239.6945,319.307,239.7191 M,0,83054,83084,319.307,239.7191,319.5055,239.7437 M,0,83085,83116,319.5055,239.7437,319.7039,239.7682 M,0,83117,83147,319.7039,239.7682,319.5055,239.7437 M,0,83148,83178,319.5055,239.7437,319.307,239.7191 M,0,83179,83209,319.307,239.7191,319.1085,239.6945 M,0,83210,83241,319.1085,239.6945,318.91,239.67 M,0,83241,83366,318.91,239.67,318.28,238.81 M,0,83367,83397,318.28,238.81,318.4784,238.8356 M,0,83398,83428,318.4784,238.8356,318.6767,238.8611 M,0,83429,83459,318.6767,238.8611,318.8751,238.8867 M,0,83460,83491,318.8751,238.8867,319.0735,238.9122 M,0,83492,83522,319.0735,238.9122,319.2718,238.9378 M,0,83523,83553,319.2718,238.9378,319.4702,238.9633 M,0,83554,83584,319.4702,238.9633,319.6685,238.9889 M,0,83585,83616,319.6685,238.9889,319.8669,239.0145 M,0,83616,83866,319.8669,239.0145,322.1,239.26 M,0,83867,83897,322.1,239.26,322.2298,239.4112 M,0,83898,83928,322.2298,239.4112,322.325,239.586 M,0,83929,83959,322.325,239.586,322.3841,239.7761 M,0,83960,83991,322.3841,239.7761,322.3968,239.9748 M,0,83992,84022,322.3968,239.9748,322.3678,240.1717 M,0,84023,84053,322.3678,240.1717,322.2994,240.3584 M,0,84054,84084,322.2994,240.3584,322.19,240.5247 M,0,84085,84116,322.19,240.5247,322.06,240.66 M,0,84116,84366,322.06,240.66,319.96,241.49 M,0,84366,84491,319.96,241.49,319.2,241.23 M,0,84491,84616,319.2,241.23,318.96,240.46 M,0,84617,84647,318.96,240.46,319.027,240.2716 M,0,84648,84678,319.027,240.2716,319.094,240.0831 M,0,84679,84709,319.094,240.0831,319.161,239.8947 M,0,84710,84741,319.161,239.8947,319.228,239.7062 M,0,84741,84866,319.228,239.7062,320.22,239.07 M,0,84866,84991,320.22,239.07,320.98,239.33 M,0,84991,85116,320.98,239.33,321.22,240.1 M,0,85117,85147,321.22,240.1,321.153,240.2884 M,0,85148,85178,321.153,240.2884,321.086,240.4769 M,0,85179,85209,321.086,240.4769,321.019,240.6653 M,0,85210,85241,321.019,240.6653,320.952,240.8538 M,0,85241,85366,320.952,240.8538,320.47,241.63 M,0,85367,85397,320.47,241.63,320.6602,241.6919 M,0,85398,85428,320.6602,241.6919,320.8503,241.7538 M,0,85429,85459,320.8503,241.7538,320.6602,241.6919 M,0,85460,85491,320.6602,241.6919,320.47,241.63 M,0,85492,85522,320.47,241.63,320.6602,241.6919 M,0,85523,85553,320.6602,241.6919,320.8503,241.7538 M,0,85554,85584,320.8503,241.7538,320.6602,241.6919 M,0,85585,85616,320.6602,241.6919,320.47,241.63 M,0,85616,85741,320.47,241.63,319.69,241.31 M,0,85741,85866,319.69,241.31,319.01,241.79 M,0,85867,85897,319.01,241.79,318.9444,241.6016 M,0,85898,85928,318.9444,241.6016,318.8403,241.4312 M,0,85929,85959,318.8403,241.4312,318.7084,241.2811 M,0,85960,85991,318.7084,241.2811,318.5555,241.1524 M,0,85992,86022,318.5555,241.1524,318.3862,241.0462 M,0,86023,86053,318.3862,241.0462,318.2043,240.9634 M,0,86054,86084,318.2043,240.9634,318.0132,240.9048 M,0,86085,86116,318.0132,240.9048,317.8163,240.8705 M,0,86117,86147,317.8163,240.8705,317.6327,240.8265 M,0,86148,86178,317.6327,240.8265,317.524,240.6589 M,0,86179,86209,317.524,240.6589,317.4482,240.4742 M,0,86210,86241,317.4482,240.4742,317.4086,240.2784 M,0,86242,86272,317.4086,240.2784,317.4074,240.0788 M,0,86273,86303,317.4074,240.0788,317.4454,239.8827 M,0,86304,86334,317.4454,239.8827,317.5221,239.6984 M,0,86335,86366,317.5221,239.6984,317.6354,239.5341 M,0,86367,86397,317.6354,239.5341,317.7811,239.3976 M,0,86398,86428,317.7811,239.3976,317.9528,239.2958 M,0,86429,86459,317.9528,239.2958,318.1425,239.2339 M,0,86460,86491,318.1425,239.2339,318.3412,239.2144 M,0,86492,86522,318.3412,239.2144,318.5395,239.2374 M,0,86523,86553,318.5395,239.2374,318.7286,239.3013 M,0,86554,86584,318.7286,239.3013,318.9006,239.4026 M,0,86585,86616,318.9006,239.4026,319.0483,239.5369 M,0,86617,86647,319.0483,239.5369,319.1652,239.6988 M,0,86648,86678,319.1652,239.6988,319.2455,239.8815 M,0,86679,86709,319.2455,239.8815,319.2849,240.0772 M,0,86710,86741,319.2849,240.0772,319.2816,240.2768 M,0,86742,86772,319.2816,240.2768,319.2365,240.4713 M,0,86773,86803,319.2365,240.4713,319.1537,240.653 M,0,86804,86834,319.1537,240.653,319.0394,240.8168 M,0,86835,86866,319.0394,240.8168,318.9,240.96 M,0,86866,86991,318.9,240.96,317.86,241.63 M,0,86992,87022,317.86,241.63,317.8058,241.438 M,0,87023,87053,317.8058,241.438,317.7834,241.2398 M,0,87054,87084,317.7834,241.2398,317.7935,241.0408 M,0,87085,87116,317.7935,241.0408,317.8385,240.8465 M,0,87117,87147,317.8385,240.8465,317.9143,240.6622 M,0,87148,87178,317.9143,240.6622,318.0214,240.4939 M,0,87179,87209,318.0214,240.4939,318.1543,240.3454 M,0,87210,87241,318.1543,240.3454,318.3098,240.2202 M,0,87241,87366,318.3098,240.2202,319.87,240.51 M,0,87367,87397,319.87,240.51,319.683,240.4392 M,0,87398,87428,319.683,240.4392,319.4959,240.3684 M,0,87429,87459,319.4959,240.3684,319.3088,240.2977 M,0,87460,87491,319.3088,240.2977,319.1278,240.2215 M,0,87492,87522,319.1278,240.2215,319.0777,240.0279 M,0,87523,87553,319.0777,240.0279,319.0276,239.8342 M,0,87554,87584,319.0276,239.8342,318.9774,239.6406 M,0,87585,87616,318.9774,239.6406,318.9273,239.447 M,0,87616,87741,318.9273,239.447,319.03,238.39 M,0,87741,87866,319.03,238.39 M,0,87867,87897,319.03,238.39,319.0812,238.5833 M,0,87898,87928,319.0812,238.5833,319.1325,238.7766 M,0,87929,87959,319.1325,238.7766,319.1837,238.97 M,0,87960,87991,319.1837,238.97,319.235,239.1633 M,0,87991,88116,319.235,239.1633,319.81,239.64 M,0,88117,88147,319.81,239.64,319.7588,239.4467 M,0,88148,88178,319.7588,239.4467,319.7075,239.2534 M,0,88179,88209,319.7075,239.2534,319.6563,239.06 M,0,88210,88241,319.6563,239.06,319.605,238.8667 M,0,88241,88366,319.605,238.8667,320.23,238.36 M,0,88367,88397,320.23,238.36,320.4265,238.3971 M,0,88398,88428,320.4265,238.3971,320.6231,238.4342 M,0,88429,88459,320.6231,238.4342,320.8035,238.5023 M,0,88460,88491,320.8035,238.5023,320.947,238.6416 M,0,88492,88522,320.947,238.6416,321.0904,238.781 M,0,88523,88553,321.0904,238.781,321.2805,238.8274 M,0,88554,88584,321.2805,238.8274,321.478,238.8591 M,0,88585,88616,321.478,238.8591,321.67,238.89 M,0,88616,88866,321.67,238.89,322.32,241.04 M,0,88867,88897,322.32,241.04,322.1235,241.0771 M,0,88898,88928,322.1235,241.0771,321.9269,241.1142 M,0,88929,88959,321.9269,241.1142,321.7465,241.1823 M,0,88960,88991,321.7465,241.1823,321.603,241.3216 M,0,88992,89022,321.603,241.3216,321.4596,241.461 M,0,89023,89053,321.4596,241.461,321.2695,241.5074 M,0,89054,89084,321.2695,241.5074,321.072,241.5391 M,0,89085,89116,321.072,241.5391,320.88,241.57 M,0,89116,89366,320.88,241.57,318.95,240.39 M,0,89366,89616,318.95,240.39,321.05,239.62 M,0,89616,89866,321.05,239.62,319.35,241.15 M,0,89867,89897,319.35,241.15,319.4607,241.315 M,0,89898,89928,319.4607,241.315,319.6126,241.4424 M,0,89929,89959,319.6126,241.4424,319.7933,241.5233 M,0,89960,89991,319.7933,241.5233,319.9905,241.5498 M,0,89992,90022,319.9905,241.5498,319.7933,241.5233 M,0,90023,90053,319.7933,241.5233,319.6126,241.4424 M,0,90054,90084,319.6126,241.4424,319.4607,241.315 M,0,90085,90116,319.4607,241.315,319.35,241.15 M,0,90116,90241,319.35,241.15,318.95,240.39 M,0,90241,90366,318.95,240.39,319.15,239.52 M,0,90367,90397,319.15,239.52,319.1948,239.3251 M,0,90398,90428,319.1948,239.3251,319.2396,239.1302 M,0,90429,90459,319.2396,239.1302,319.2844,238.9353 M,0,90460,90491,319.2844,238.9353,319.3292,238.7403 M,0,90491,90616,319.3292,238.7403,320.15,238.23 M,0,90616,90741,320.15,238.23,320.87,238.86 M,0,90742,90772,320.87,238.86,320.8252,239.0549 M,0,90773,90803,320.8252,239.0549,320.7804,239.2498 M,0,90804,90834,320.7804,239.2498,320.7356,239.4447 M,0,90835,90866,320.7356,239.4447,320.6908,239.6397 M,0,90866,90991,320.6908,239.6397,319.87,240.15 M,0,90991,91116,319.87,240.15,319.03,239.39 M,0,91117,91147,319.03,239.39,319.0748,239.1951 M,0,91148,91178,319.0748,239.1951,319.1196,239.0002 M,0,91179,91209,319.1196,239.0002,319.1644,238.8053 M,0,91210,91241,319.1644,238.8053,319.2092,238.6103 M,0,91241,91366,319.2092,238.6103,320.98,238.97 M,0,91367,91397,320.98,238.97,320.935,239.1649 M,0,91398,91428,320.935,239.1649,320.89,239.3598 M,0,91429,91459,320.89,239.3598,320.8451,239.5546 M,0,91460,91491,320.8451,239.5546,320.8001,239.7495 M,0,91492,91522,320.8001,239.7495,320.7551,239.9444 M,0,91523,91553,320.7551,239.9444,320.7102,240.1393 M,0,91554,91584,320.7102,240.1393,320.6652,240.3342 M,0,91585,91616,320.6652,240.3342,320.6202,240.529 M,0,91616,91866,320.6202,240.529,318.66,241.63 M,0,91867,91897,318.66,241.63,318.6514,241.4305 M,0,91898,91928,318.6514,241.4305,318.6721,241.2321 M,0,91929,91959,318.6721,241.2321,318.7209,241.0387 M,0,91960,91991,318.7209,241.0387,318.8001,240.8556 M,0,91992,92022,318.8001,240.8556,318.9044,240.6854 M,0,92023,92053,318.9044,240.6854,319.0349,240.5346 M,0,92054,92084,319.0349,240.5346,319.1852,240.4032 M,0,92085,92116,319.1852,240.4032,319.3551,240.2985 M,0,92116,92366,319.3551,240.2985,320.35,238.29 M,0,92367,92397,320.35,238.29,320.3522,238.4899 M,0,92398,92428,320.3522,238.4899,320.3795,238.6878 M,0,92429,92459,320.3795,238.6878,320.4363,238.8794 M,0,92460,92491,320.4363,238.8794,320.5248,239.0585 M,0,92492,92522,320.5248,239.0585,320.6437,239.2189 M,0,92523,92553,320.6437,239.2189,320.7883,239.3569 M,0,92554,92584,320.7883,239.3569,320.9308,239.4968 M,0,92585,92616,320.9308,239.4968,321.0485,239.6582 M,0,92617,92647,321.0485,239.6582,321.1381,239.8368 M,0,92648,92678,321.1381,239.8368,321.1998,240.0269 M,0,92679,92709,321.1998,240.0269,321.236,240.2234 M,0,92710,92741,321.236,240.2234,321.25,240.41 M,0,92741,92866,321.25,240.41,322.35,240.19 M,0,92867,92897,322.35,240.19,322.3712,239.9919 M,0,92898,92928,322.3712,239.9919,322.3508,239.7939 M,0,92929,92959,322.3508,239.7939,322.2899,239.6046 M,0,92960,92991,322.2899,239.6046,322.1878,239.4337 M,0,92992,93022,322.1878,239.4337,322.0528,239.2877 M,0,93023,93053,322.0528,239.2877,321.8881,239.1759 M,0,93054,93084,321.8881,239.1759,321.7041,239.1004 M,0,93085,93116,321.7041,239.1004,321.5076,239.0687 M,0,93117,93147,321.5076,239.0687,321.3089,239.0778 M,0,93148,93178,321.3089,239.0778,321.1174,239.132 M,0,93179,93209,321.1174,239.132,320.941,239.224 M,0,93210,93241,320.941,239.224,320.7881,239.352 M,0,93241,93366,320.7881,239.352,320.32,240.11 M,0,93367,93397,320.32,240.11,320.1219,240.1377 M,0,93398,93428,320.1219,240.1377,319.9239,240.1655 M,0,93429,93459,319.9239,240.1655,319.7258,240.1932 M,0,93460,93491,319.7258,240.1932,319.5277,240.2209 M,0,93491,93616,319.5277,240.2209,318.92,240.86 M,0,93617,93647,318.92,240.86,318.7219,240.8877 M,0,93648,93678,318.7219,240.8877,318.5239,240.9155 M,0,93679,93709,318.5239,240.9155,318.3258,240.9432 M,0,93710,93741,318.3258,240.9432,318.1277,240.9709 M,0,93741,93866,318.1277,240.9709,317.44,240.19 M,0,93867,93897,317.44,240.19,317.6381,240.1623 M,0,93898,93928,317.6381,240.1623,317.8362,240.1345 M,0,93929,93959,317.8362,240.1345,318.0342,240.1068 M,0,93960,93991,318.0342,240.1068,318.2323,240.0791 M,0,93991,94116,318.2323,240.0791,318.84,239.44 M,0,94117,94147,318.84,239.44,319.0381,239.4123 M,0,94148,94178,319.0381,239.4123,319.2361,239.3845 M,0,94179,94209,319.2361,239.3845,319.4342,239.3568 M,0,94210,94241,319.4342,239.3568,319.6323,239.3291 M,0,94241,94366,319.6323,239.3291,320.27,238.72 M,0,94367,94397,320.27,238.72,320.4119,238.5797 M,0,94398,94428,320.4119,238.5797,320.5748,238.4648 M,0,94429,94459,320.5748,238.4648,320.754,238.3775 M,0,94460,94491,320.754,238.3775,320.9462,238.3242 M,0,94492,94522,320.9462,238.3242,321.1443,238.3018 M,0,94523,94553,321.1443,238.3018,321.3433,238.3164 M,0,94554,94584,321.3433,238.3164,321.5376,238.3615 M,0,94585,94616,321.5376,238.3615,321.72,238.4423 M,0,94616,94866,321.72,238.4423,322.03,240.18 M,0,94867,94897,322.03,240.18,321.8881,240.3203 M,0,94898,94928,321.8881,240.3203,321.7252,240.4352 M,0,94929,94959,321.7252,240.4352,321.546,240.5225 M,0,94960,94991,321.546,240.5225,321.3538,240.5758 M,0,94992,95022,321.3538,240.5758,321.1556,240.5982 M,0,95023,95053,321.1556,240.5982,320.9568,240.5836 M,0,95054,95084,320.9568,240.5836,320.7624,240.5385 M,0,95085,95116,320.7624,240.5385,320.58,240.4577 M,0,95116,95366,320.58,240.4577,319.13,239.44 M,0,95367,95397,319.13,239.44,318.9868,239.3007 M,0,95398,95428,318.9868,239.3007,318.823,239.1863 M,0,95429,95459,318.823,239.1863,318.6413,239.1035 M,0,95460,95491,318.6413,239.1035,318.4468,239.0585 M,0,95492,95522,318.4468,239.0585,318.2472,239.0551 M,0,95523,95553,318.2472,239.0551,318.0516,239.0946 M,0,95554,95584,318.0516,239.0946,317.8688,239.175 M,0,95585,95616,317.8688,239.175,317.707,239.2919 M,0,95617,95647,317.707,239.2919,317.5728,239.4397 M,0,95648,95678,317.5728,239.4397,317.4715,239.6117 M,0,95679,95709,317.4715,239.6117,317.4077,239.8009 M,0,95710,95741,317.4077,239.8009,317.3844,239.9992 M,0,95742,95772,317.3844,239.9992,317.4035,240.1978 M,0,95773,95803,317.4035,240.1978,317.4649,240.3878 M,0,95804,95834,317.4649,240.3878,317.5659,240.5599 M,0,95835,95866,317.5659,240.5599,317.7017,240.7062 M,0,95867,95897,317.7017,240.7062,317.8656,240.8202 M,0,95898,95928,317.8656,240.8202,318.0496,240.8977 M,0,95929,95959,318.0496,240.8977,318.2455,240.9363 M,0,95960,95991,318.2455,240.9363,318.4451,240.9353 M,0,95992,96022,318.4451,240.9353,318.6408,240.8957 M,0,96023,96053,318.6408,240.8957,318.8255,240.8196 M,0,96054,96084,318.8255,240.8196,318.9928,240.7106 M,0,96085,96116,318.9928,240.7106,319.1424,240.578 M,0,96117,96147,319.1424,240.578,319.2905,240.4435 M,0,96148,96178,319.2905,240.4435,319.4386,240.3091 M,0,96179,96209,319.4386,240.3091,319.5867,240.1747 M,0,96210,96241,319.5867,240.1747,319.7348,240.0403 M,0,96242,96272,319.7348,240.0403,319.8829,239.9059 M,0,96273,96303,319.8829,239.9059,320.031,239.7714 M,0,96304,96334,320.031,239.7714,320.179,239.637 M,0,96335,96366,320.179,239.637,320.3271,239.5026 M,0,96366,96616,320.3271,239.5026,321.65,238.33 M,0,96616,96866,321.65,238.33,322.46,239.89 M,0,96867,96897,322.46,239.89,322.4549,240.089 M,0,96898,96928,322.4549,240.089,322.4013,240.2803 M,0,96929,96959,322.4013,240.2803,322.3056,240.4546 M,0,96960,96991,322.3056,240.4546,322.1653,240.5955 M,0,96991,97116,322.1653,240.5955,321.38,241.02 M,0,97117,97147,321.38,241.02,321.3085,240.8332 M,0,97148,97178,321.3085,240.8332,321.2369,240.6465 M,0,97179,97209,321.2369,240.6465,321.1654,240.4597 M,0,97210,97241,321.1654,240.4597,321.0939,240.2729 M,0,97241,97366,321.0939,240.2729,320.87,239.44 M,0,97367,97397,320.87,239.44,321.0132,239.3007 M,0,97398,97428,321.0132,239.3007,321.177,239.1863 M,0,97429,97459,321.177,239.1863,321.3587,239.1035 M,0,97460,97491,321.3587,239.1035,321.5532,239.0585 M,0,97492,97522,321.5532,239.0585,321.7528,239.0551 M,0,97523,97553,321.7528,239.0551,321.9484,239.0946 M,0,97554,97584,321.9484,239.0946,322.1312,239.175 M,0,97585,97616,322.1312,239.175,322.293,239.2919 M,0,97617,97647,322.293,239.2919,322.4272,239.4397 M,0,97648,97678,322.4272,239.4397,322.5285,239.6117 M,0,97679,97709,322.5285,239.6117,322.5923,239.8009 M,0,97710,97741,322.5923,239.8009,322.6156,239.9992 M,0,97742,97772,322.6156,239.9992,322.5965,240.1978 M,0,97773,97803,322.5965,240.1978,322.5351,240.3878 M,0,97804,97834,322.5351,240.3878,322.4341,240.5599 M,0,97835,97866,322.4341,240.5599,322.2983,240.7062 M,0,97867,97897,322.2983,240.7062,322.1344,240.8202 M,0,97898,97928,322.1344,240.8202,321.9504,240.8977 M,0,97929,97959,321.9504,240.8977,321.7545,240.9363 M,0,97960,97991,321.7545,240.9363,321.5549,240.9353 M,0,97992,98022,321.5549,240.9353,321.3592,240.8957 M,0,98023,98053,321.3592,240.8957,321.1745,240.8196 M,0,98054,98084,321.1745,240.8196,321.0072,240.7106 M,0,98085,98116,321.0072,240.7106,320.8576,240.578 M,0,98117,98147,320.8576,240.578,320.7095,240.4435 M,0,98148,98178,320.7095,240.4435,320.5614,240.3091 M,0,98179,98209,320.5614,240.3091,320.4133,240.1747 M,0,98210,98241,320.4133,240.1747,320.2652,240.0403 M,0,98242,98272,320.2652,240.0403,320.1171,239.9059 M,0,98273,98303,320.1171,239.9059,319.969,239.7714 M,0,98304,98334,319.969,239.7714,319.821,239.637 M,0,98335,98366,319.821,239.637,319.6729,239.5026 M,0,98366,98616,319.6729,239.5026,317.88,240.87 M,0,98616,98741,317.88,240.87,318.65,240.48 M,0,98742,98772,318.65,240.48,318.6756,240.2816 M,0,98773,98803,318.6756,240.2816,318.7012,240.0833 M,0,98804,98834,318.7012,240.0833,318.7268,239.8849 M,0,98835,98866,318.7268,239.8849,318.7524,239.6866 M,0,98866,98991,318.7524,239.6866,318.89,238.87 M,0,98992,99022,318.89,238.87,319.0701,238.7838 M,0,99023,99053,319.0701,238.7838,319.2606,238.7246 M,0,99054,99084,319.2606,238.7246,319.4576,238.6935 M,0,99085,99116,319.4576,238.6935,319.6572,238.6937 M,0,99117,99147,319.6572,238.6937,319.4576,238.6935 M,0,99148,99178,319.4576,238.6935,319.2606,238.7246 M,0,99179,99209,319.2606,238.7246,319.0701,238.7838 M,0,99210,99241,319.0701,238.7838,318.89,238.87 F,0,99215,99365,0.8,0
Sprite,Background,Centre,"sb\bg\blurred.jpg",0,0 F,0,171215,171365,0,0.8 M,0,171241,171366,320,240.08,320.11,238.57 S,0,171365,,0.4466667 M,0,171367,171397,320.11,238.57,320.3082,238.595 M,0,171398,171428,320.3082,238.595,320.4977,238.6579 M,0,171429,171459,320.4977,238.6579,320.667,238.7632 M,0,171460,171491,320.667,238.7632,320.8053,238.907 M,0,171492,171522,320.8053,238.907,320.9456,239.0487 M,0,171523,171553,320.9456,239.0487,321.1188,239.1476 M,0,171554,171584,321.1188,239.1476,321.3116,239.1989 M,0,171585,171616,321.3116,239.1989,321.5,239.21 M,0,171616,171866,321.5,239.21,321.76,241.77 M,0,171867,171897,321.76,241.77,321.56,241.772 M,0,171898,171928,321.56,241.772,321.36,241.774 M,0,171929,171959,321.36,241.774,321.16,241.776 M,0,171960,171991,321.16,241.776,320.9601,241.778 M,0,171992,172022,320.9601,241.778,320.76,241.78 M,0,172023,172053,320.76,241.78,320.6095,241.6483 M,0,172054,172084,320.6095,241.6483,320.459,241.5166 M,0,172085,172116,320.459,241.5166,320.3085,241.3849 M,0,172116,172241,320.3085,241.3849,319.49,240.39 M,0,172242,172272,319.49,240.39,319.552,240.5798 M,0,172273,172303,319.552,240.5798,319.5862,240.7764 M,0,172304,172334,319.5862,240.7764,319.5948,240.9759 M,0,172335,172366,319.5948,240.9759,319.5712,241.1743 M,0,172366,172491,319.5712,241.1743,318.96,241.83 M,0,172492,172522,318.96,241.83,318.7606,241.8147 M,0,172523,172553,318.7606,241.8147,318.5612,241.7993 M,0,172554,172584,318.5612,241.7993,318.3618,241.784 M,0,172585,172616,318.3618,241.784,318.1624,241.7686 M,0,172616,172741,318.1624,241.7686,317.63,241.07 M,0,172742,172772,317.63,241.07,317.6317,240.8703 M,0,172773,172803,317.6317,240.8703,317.6615,240.673 M,0,172804,172834,317.6615,240.673,317.7189,240.4819 M,0,172835,172866,317.7189,240.4819,317.8,240.3 M,0,172866,172991,317.8,240.3,318.88,239.19 M,0,172992,173022,318.88,239.19,318.9611,239.0075 M,0,173023,173053,318.9611,239.0075,319.0166,238.8158 M,0,173054,173084,319.0166,238.8158,319.0455,238.6183 M,0,173085,173116,319.0455,238.6183,319.05,238.42 M,0,173117,173147,319.05,238.42,319.0455,238.6183 M,0,173148,173178,319.0455,238.6183,319.0166,238.8158 M,0,173179,173209,319.0166,238.8158,318.9611,239.0075 M,0,173210,173241,318.9611,239.0075,318.88,239.19 M,0,173241,173366,318.88,239.19,318.07,239.54 M,0,173366,173491,318.07,239.54 M,0,173491,173616,318.07,239.54 M,0,173617,173647,318.07,239.54,318.2584,239.4729 M,0,173648,173678,318.2584,239.4729,318.4468,239.4059 M,0,173679,173709,318.4468,239.4059,318.6353,239.3388 M,0,173710,173741,318.6353,239.3388,318.8275,239.3761 M,0,173742,173772,318.8275,239.3761,319.0203,239.4293 M,0,173773,173803,319.0203,239.4293,319.2131,239.4824 M,0,173804,173834,319.2131,239.4824,319.4059,239.5355 M,0,173835,173866,319.4059,239.5355,319.5988,239.5886 M,0,173866,174116,319.5988,239.5886,322.06,238.86 M,0,174116,174241,322.06,238.86 M,0,174242,174272,322.06,238.86,321.9927,239.0484 M,0,174273,174303,321.9927,239.0484,321.9255,239.2367 M,0,174304,174334,321.9255,239.2367,321.8582,239.425 M,0,174335,174366,321.8582,239.425,321.7909,239.6134 M,0,174366,174491,321.7909,239.6134,320.75,239.49 M,0,174492,174522,320.75,239.49,320.8173,239.6783 M,0,174523,174553,320.8173,239.6783,320.8845,239.8667 M,0,174554,174584,320.8845,239.8667,320.9518,240.055 M,0,174585,174616,320.9518,240.055,321.0191,240.2434 M,0,174616,174741,321.0191,240.2434,321.75,240.91 M,0,174741,174991,321.75,240.91,319.36,241.84 M,0,174992,175022,319.36,241.84,319.2473,241.6757 M,0,175023,175053,319.2473,241.6757,319.1712,241.4917 M,0,175054,175084,319.1712,241.4917,319.1333,241.2964 M,0,175085,175116,319.1333,241.2964,319.1416,241.0974 M,0,175116,175241,319.1416,241.0974,319.44,240.21 M,0,175241,175366,319.44,240.21,318.74,239.54 M,0,175367,175397,318.74,239.54,318.9365,239.5029 M,0,175398,175428,318.9365,239.5029,319.1331,239.4658 M,0,175429,175459,319.1331,239.4658,319.3135,239.3977 M,0,175460,175491,319.3135,239.3977,319.457,239.2584 M,0,175492,175522,319.457,239.2584,319.6004,239.119 M,0,175523,175553,319.6004,239.119,319.7905,239.0726 M,0,175554,175584,319.7905,239.0726,319.988,239.0409 M,0,175585,175616,319.988,239.0409,320.18,239.01 M,0,175616,175866,320.18,239.01,322.13,240.68 M,0,175867,175897,322.13,240.68,322.025,240.8499 M,0,175898,175928,322.025,240.8499,321.8998,241.0055 M,0,175929,175959,321.8998,241.0055,321.7574,241.1454 M,0,175960,175991,321.7574,241.1454,321.5968,241.2641 M,0,175992,176022,321.5968,241.2641,321.4228,241.362 M,0,176023,176053,321.4228,241.362,321.2383,241.4383 M,0,176054,176084,321.2383,241.4383,321.0452,241.4887 M,0,176085,176116,321.0452,241.4887,320.8474,241.5166 M,0,176116,176241,320.8474,241.5166,319.89,241.66 M,0,176242,176272,319.89,241.66,319.6914,241.6366 M,0,176273,176303,319.6914,241.6366,319.4927,241.6133 M,0,176304,176334,319.4927,241.6133,319.2941,241.5899 M,0,176335,176366,319.2941,241.5899,319.0955,241.5665 M,0,176366,176491,319.0955,241.5665,317.88,241 M,0,176492,176522,317.88,241,318.0786,240.9766 M,0,176523,176553,318.0786,240.9766,318.2773,240.9533 M,0,176554,176584,318.2773,240.9533,318.4759,240.9299 M,0,176585,176616,318.4759,240.9299,318.6745,240.9065 M,0,176616,176741,318.6745,240.9065,319.95,240.37 M,0,176742,176772,319.95,240.37,319.7514,240.3466 M,0,176773,176803,319.7514,240.3466,319.5527,240.3233 M,0,176804,176834,319.5527,240.3233,319.3541,240.2999 M,0,176835,176866,319.3541,240.2999,319.1555,240.2765 M,0,176866,176991,319.1555,240.2765,317.84,240.11 M,0,176991,177116,317.84,240.11,318.07,239.2 M,0,177116,177241,318.07,239.2,318.89,238.76 M,0,177241,177366,318.89,238.76,319.89,238.64 M,0,177367,177397,319.89,238.64,320.0894,238.6242 M,0,177398,177428,320.0894,238.6242,320.2888,238.6084 M,0,177429,177459,320.2888,238.6084,320.4881,238.5926 M,0,177460,177491,320.4881,238.5926,320.6875,238.5768 M,0,177492,177522,320.6875,238.5768,320.8869,238.561 M,0,177523,177553,320.8869,238.561,321.0862,238.5452 M,0,177554,177584,321.0862,238.5452,321.2856,238.5294 M,0,177585,177616,321.2856,238.5294,321.485,238.5136 M,0,177616,177866,321.485,238.5136,322.23,240.59 M,0,177867,177897,322.23,240.59,322.2446,240.7895 M,0,177898,177928,322.2446,240.7895,322.2592,240.9889 M,0,177929,177959,322.2592,240.9889,322.2738,241.1884 M,0,177960,177991,322.2738,241.1884,322.2884,241.3879 M,0,177992,178022,322.2884,241.3879,322.2738,241.1884 M,0,178023,178053,322.2738,241.1884,322.2592,240.9889 M,0,178054,178084,322.2592,240.9889,322.2446,240.7895 M,0,178085,178116,322.2446,240.7895,322.23,240.59 M,0,178116,178241,322.23,240.59,321.61,239.84 M,0,178241,178366,321.61,239.84,320.99,240.8 M,0,178367,178397,320.99,240.8,321.0394,240.9933 M,0,178398,178428,321.0394,240.9933,321.1225,241.1744 M,0,178429,178459,321.1225,241.1744,321.235,241.3389 M,0,178460,178491,321.235,241.3389,321.3782,241.4776 M,0,178491,178616,321.3782,241.4776,320.8,239.71 M,0,178616,178741,320.8,239.71,319.92,240.24 M,0,178742,178772,319.92,240.24,319.7766,240.3787 M,0,178773,178803,319.7766,240.3787,319.6608,240.5408 M,0,178804,178834,319.6608,240.5408,319.574,240.7203 M,0,178835,178866,319.574,240.7203,319.5256,240.9137 M,0,178866,178991,319.5256,240.9137,320.78,239.55 M,0,178991,179116,320.78,239.55,319.87,239.04 M,0,179117,179147,319.87,239.04,319.6772,238.9886 M,0,179148,179178,319.6772,238.9886,319.4787,238.9715 M,0,179179,179209,319.4787,238.9715,319.2798,238.987 M,0,179210,179241,319.2798,238.987,319.088,239.0415 M,0,179241,179366,319.088,239.0415,317.97,238.71 M,0,179367,179397,317.97,238.71,317.9899,238.909 M,0,179398,179428,317.9899,238.909,318.0098,239.108 M,0,179429,179459,318.0098,239.108,318.0297,239.307 M,0,179460,179491,318.0297,239.307,318.0496,239.506 M,0,179492,179522,318.0496,239.506,318.0695,239.705 M,0,179523,179553,318.0695,239.705,318.0894,239.904 M,0,179554,179584,318.0894,239.904,318.1093,240.1031 M,0,179585,179616,318.1093,240.1031,318.1292,240.3021 M,0,179616,179866,318.1292,240.3021,319.79,241.77 M,0,179867,179897,319.79,241.77,319.8843,241.5936 M,0,179898,179928,319.8843,241.5936,319.9787,241.4173 M,0,179929,179959,319.9787,241.4173,320.0089,241.2282 M,0,179960,179991,320.0089,241.2282,319.9892,241.0292 M,0,179992,180022,319.9892,241.0292,319.9695,240.8301 M,0,180023,180053,319.9695,240.8301,319.9497,240.6311 M,0,180054,180084,319.9497,240.6311,319.93,240.4321 M,0,180085,180116,319.93,240.4321,319.9103,240.2331 M,0,180116,180241,319.9103,240.2331,319.81,239.24 M,0,180242,180272,319.81,239.24,320.0093,239.2416 M,0,180273,180303,320.0093,239.2416,320.2035,239.285 M,0,180304,180334,320.2035,239.285,320.3853,239.366 M,0,180335,180366,320.3853,239.366,320.5445,239.4862 M,0,180366,180491,320.5445,239.4862,321.36,240.74 M,0,180492,180522,321.36,240.74,321.3366,240.5414 M,0,180523,180553,321.3366,240.5414,321.3133,240.3427 M,0,180554,180584,321.3133,240.3427,321.2899,240.1441 M,0,180585,180616,321.2899,240.1441,321.2665,239.9455 M,0,180616,180741,321.2665,239.9455,322.53,239.08 M,0,180742,180772,322.53,239.08,322.3307,239.0816 M,0,180773,180803,322.3307,239.0816,322.1365,239.125 M,0,180804,180834,322.1365,239.125,321.9547,239.206 M,0,180835,180866,321.9547,239.206,321.7955,239.3262 M,0,180866,180991,321.7955,239.3262,321.12,238.84 M,0,180991,181116,321.12,238.84 M,0,181116,181241,321.12,238.84 M,0,181241,181366,321.12,238.84 M,0,181367,181397,321.12,238.84,320.9213,238.8172 M,0,181398,181428,320.9213,238.8172,320.7226,238.7945 M,0,181429,181459,320.7226,238.7945,320.5239,238.7717 M,0,181460,181491,320.5239,238.7717,320.3252,238.7489 M,0,181492,181522,320.3252,238.7489,320.1318,238.7485 M,0,181523,181553,320.1318,238.7485,319.9646,238.8582 M,0,181554,181584,319.9646,238.8582,319.7974,238.968 M,0,181585,181616,319.7974,238.968,319.6302,239.0777 M,0,181616,181866,319.6302,239.0777,318.15,241.17 M,0,181866,182116,318.15,241.17,318.66,238.66 M,0,182116,182241,318.66,238.66 M,0,182242,182272,318.66,238.66,318.6804,238.859 M,0,182273,182303,318.6804,238.859,318.7007,239.0579 M,0,182304,182334,318.7007,239.0579,318.721,239.2569 M,0,182335,182366,318.721,239.2569,318.7414,239.4559 M,0,182366,182491,318.7414,239.4559,319.28,240.51 M,0,182492,182522,319.28,240.51,319.2576,240.3112 M,0,182523,182553,319.2576,240.3112,319.2353,240.1125 M,0,182554,182584,319.2353,240.1125,319.2129,239.9138 M,0,182585,182616,319.2129,239.9138,319.1906,239.715 M,0,182616,182741,319.1906,239.715,319.6,238.79 M,0,182741,182991,319.6,238.79,320.54,241.16 M,0,182992,183022,320.54,241.16,320.7392,241.1701 M,0,183023,183053,320.7392,241.1701,320.9364,241.1425 M,0,183054,183084,320.9364,241.1425,321.126,241.0808 M,0,183085,183116,321.126,241.0808,321.2979,240.9798 M,0,183116,183241,321.2979,240.9798,321.89,240.17 M,0,183241,183366,321.89,240.17,321.3,239.41 M,0,183367,183397,321.3,239.41,321.1035,239.3729 M,0,183398,183428,321.1035,239.3729,320.9069,239.3358 M,0,183429,183459,320.9069,239.3358,320.7265,239.2677 M,0,183460,183491,320.7265,239.2677,320.583,239.1284 M,0,183492,183522,320.583,239.1284,320.4396,238.989 M,0,183523,183553,320.4396,238.989,320.2495,238.9426 M,0,183554,183584,320.2495,238.9426,320.052,238.9109 M,0,183585,183616,320.052,238.9109,319.86,238.88 M,0,183616,183866,319.86,238.88,317.57,238.34 M,0,183867,183897,317.57,238.34,317.5876,238.5392 M,0,183898,183928,317.5876,238.5392,317.6051,238.7385 M,0,183929,183959,317.6051,238.7385,317.6226,238.9377 M,0,183960,183991,317.6226,238.9377,317.6402,239.1369 M,0,183992,184022,317.6402,239.1369,317.6577,239.3362 M,0,184023,184053,317.6577,239.3362,317.6753,239.5354 M,0,184054,184084,317.6753,239.5354,317.6928,239.7346 M,0,184085,184116,317.6928,239.7346,317.71,239.93 M,0,184116,184241,317.71,239.93,317.56,241.06 M,0,184242,184272,317.56,241.06,317.7006,240.9186 M,0,184273,184303,317.7006,240.9186,317.8654,240.8067 M,0,184304,184334,317.8654,240.8067,318.0481,240.7278 M,0,184335,184366,318.0481,240.7278,318.2434,240.6885 M,0,184366,184491,318.2434,240.6885,318.77,240.04 M,0,184492,184522,318.77,240.04,318.9615,240.0961 M,0,184523,184553,318.9615,240.0961,319.14,240.1846 M,0,184554,184584,319.14,240.1846,319.3006,240.3025 M,0,184585,184616,319.3006,240.3025,319.4358,240.4489 M,0,184616,184741,319.4358,240.4489,320.25,240.51 M,0,184742,184772,320.25,240.51,320.3025,240.7024 M,0,184773,184803,320.3025,240.7024,320.3181,240.901 M,0,184804,184834,320.3181,240.901,320.2969,241.0989 M,0,184835,184866,320.2969,241.0989,320.2357,241.2885 M,0,184866,184991,320.2357,241.2885,321.14,241.8 M,0,184991,185116,321.14,241.8,321.91,241.25 M,0,185116,185241,321.91,241.25,321.58,240.32 M,0,185241,185366,321.58,240.32,322.17,239.51 M,0,185367,185397,322.17,239.51,321.9704,239.5019 M,0,185398,185428,321.9704,239.5019,321.7767,239.454 M,0,185429,185459,321.7767,239.454,321.6007,239.3603 M,0,185460,185491,321.6007,239.3603,321.4541,239.2249 M,0,185492,185522,321.4541,239.2249,321.317,239.0798 M,0,185523,185553,321.317,239.0798,321.1487,238.9729 M,0,185554,185584,321.1487,238.9729,320.9583,238.9134 M,0,185585,185616,320.9583,238.9134,320.7592,238.8993 M,0,185616,185866,320.7592,238.8993,318.41,239.65 M,0,185867,185897,318.41,239.65,318.2105,239.6646 M,0,185898,185928,318.2105,239.6646,318.0111,239.6792 M,0,185929,185959,318.0111,239.6792,317.8116,239.6938 M,0,185960,185991,317.8116,239.6938,317.6121,239.7084 M,0,185992,186022,317.6121,239.7084,317.8116,239.6938 M,0,186023,186053,317.8116,239.6938,318.0111,239.6792 M,0,186054,186084,318.0111,239.6792,318.2105,239.6646 M,0,186085,186116,318.2105,239.6646,318.41,239.65 M,0,186116,186241,318.41,239.65,319.33,239.55 M,0,186241,186366,319.33,239.55,318.95,240.53 M,0,186367,186397,318.95,240.53,318.9749,240.7273 M,0,186398,186428,318.9749,240.7273,319.05,240.9111 M,0,186429,186459,319.05,240.9111,319.167,241.0719 M,0,186460,186491,319.167,241.0719,319.3265,241.1906 M,0,186491,186616,319.3265,241.1906,320.39,241.34 M,0,186616,186741,320.39,241.34,320.78,240.34 M,0,186742,186772,320.78,240.34,320.7552,240.1427 M,0,186773,186803,320.7552,240.1427,320.68,239.959 M,0,186804,186834,320.68,239.959,320.563,239.7981 M,0,186835,186866,320.563,239.7981,320.4035,239.6794 M,0,186866,186991,320.4035,239.6794,319.33,239.55 M,0,186991,187116,319.33,239.55,318.98,238.53 F,0,187090,187240,0.8,0
Sprite,Background,Centre,"sb\rs\heart.png",0,0 F,0,51215,51365,0,1 M,17,51241,51366,313.9654,324.8521,238,224 S,0,51365,,2 M,0,51367,51428,238,224,250.7968,255.4999 M,0,51429,51491,250.7968,255.4999,263.5936,286.9997 M,0,51492,51553,263.5936,286.9997,276.3904,318.4996 M,0,51554,51616,276.3904,318.4996,289.1873,349.9995 M,17,51616,51741,289.1873,349.9995,206,424 M,0,51742,51803,206,424,174.9597,410.4449 M,0,51804,51866,174.9597,410.4449,149.3085,388.3304 M,0,51867,51928,149.3085,388.3304,131.3328,359.6299 M,0,51929,51991,131.3328,359.6299,122.6144,326.9046 M,17,51991,52116,122.6144,326.9046,148,241 M,17,52116,52241,148,241,238,224 M,0,52242,52303,238,224,271.8132,227.5593 M,0,52304,52366,271.8132,227.5593,305.6264,231.1186 M,17,52366,52491,305.6264,231.1186,388,277 M,0,52492,52553,388,277,421.7602,272.9689 M,0,52554,52616,421.7602,272.9689,455,269 M,17,52616,52741,455,269,479,134 M,0,52742,52803,479,134,451.2644,114.629 M,0,52804,52866,451.2644,114.629,418.8503,105.0436 M,0,52867,52928,418.8503,105.0436,385.0906,106.2135 M,0,52929,52991,385.0906,106.2135,353.4521,118.0074 M,17,52991,53116,353.4521,118.0074,268,157 M,17,53116,53241,268,157 M,17,53241,53366,268,157 M,0,53367,53428,268,157,234.0964,159.5588 M,0,53429,53491,234.0964,159.5588,204.7078,171.7038 M,0,53492,53553,204.7078,171.7038,177.2835,188.2717 M,0,53554,53616,177.2835,188.2717,143.4523,191.6548 M,17,53616,53741,143.4523,191.6548,96,295 M,0,53742,53803,96,295,111.4753,324.6837 M,0,53804,53866,111.4753,324.6837,139.064,343.6284 M,17,53866,53991,139.064,343.6284,199,418 M,0,53992,54053,199,418,232.4273,419.3239 M,0,54054,54116,232.4273,419.3239,262.4033,404.4877 M,17,54116,54241,262.4033,404.4877,437,387 M,0,54242,54303,437,387,431.4104,353.4626 M,0,54304,54366,431.4104,353.4626,415.5597,325.0963 M,0,54367,54428,415.5597,325.0963,397.9227,297.5747 M,0,54429,54491,397.9227,297.5747,392,265 M,17,54491,54616,392,265,462,200 M,17,54616,54741,462,200 M,17,54741,54866,462,200 M,0,54867,54928,462,200,495.3118,206.0235 M,0,54929,54991,495.3118,206.0235,525.9747,220.3608 M,0,54992,55053,525.9747,220.3608,495.3118,206.0235 M,0,55054,55116,495.3118,206.0235,462,200 M,17,55116,55366,462,200,307,87 M,0,55367,55428,307,87,304.2788,120.8909 M,0,55429,55491,304.2788,120.8909,301.5577,154.7819 M,0,55492,55553,301.5577,154.7819,298.8365,188.6728 M,0,55554,55616,298.8365,188.6728,296.1153,222.5637 M,17,55616,55741,296.1153,222.5637,192,227 M,0,55742,55803,192,227,197.2199,260.2663 M,0,55804,55866,197.2199,260.2663,214.4343,289.1944 M,17,55866,55991,214.4343,289.1944,185,380 M,0,55992,56053,185,380,218.4052,384.558 M,0,56054,56116,218.4052,384.558,251.2887,377.1586 M,17,56116,56241,251.2887,377.1586,325,436 M,0,56242,56303,325,436,339.4206,405.5204 M,0,56304,56366,339.4206,405.5204,342.404,371.9429 M,17,56366,56491,342.404,371.9429,423,321 M,0,56492,56553,423,321,399.2585,297.0239 M,0,56554,56616,399.2585,297.0239,368.201,283.8458 M,17,56616,56741,368.201,283.8458,340,192 M,0,56742,56803,340,192,309.8006,206.9485 M,0,56804,56866,309.8006,206.9485,286.9887,231.7357 M,17,56866,56991,286.9887,231.7357,185,380 M,0,56992,57053,185,380,179.4104,346.4626 M,0,57054,57116,179.4104,346.4626,163.5597,318.0963 M,0,57117,57178,163.5597,318.0963,145.9227,290.5747 M,0,57179,57241,145.9227,290.5747,140,258 M,17,57241,57366,140,258,195,179 M,17,57366,57616,195,179,357,80 M,17,57616,57866,357,80,122,91 M,17,57866,57991,122,91,99,133 M,17,57991,58116,99,133,87,179 M,17,58116,58241,87,179,87,228 M,17,58241,58366,87,228,100,272 M,0,58367,58428,100,272,133.5839,266.6973 M,0,58429,58491,133.5839,266.6973,167.1679,261.3945 M,17,58491,58616,167.1679,261.3945,251,301 M,17,58616,58741,251,301,377,224 M,0,58742,58803,377,224,343.3618,228.9468 M,0,58804,58866,343.3618,228.9468,309.7236,233.8936 M,17,58866,58991,309.7236,233.8936,229,190 M,17,58991,59116,229,190,99,271 M,0,59117,59178,99,271,132.6382,266.0532 M,0,59179,59241,132.6382,266.0532,166.2764,261.1064 M,17,59241,59366,166.2764,261.1064,377,224 M,0,59367,59428,377,224,412.4723,242.4856 M,0,59429,59491,412.4723,242.4856,447.9446,260.9711 M,0,59492,59553,447.9446,260.9711,434.1934,298.4751 M,0,59554,59616,434.1934,298.4751,420.3652,336.0088 M,17,59616,59866,420.3652,336.0088,190,404 M,17,59866,59991,190,404 M,0,59992,60053,190,404,179.2943,365.4593 M,0,60054,60116,179.2943,365.4593,168.5885,326.9186 M,17,60116,60241,168.5885,326.9186,168,214 M,0,60242,60303,168,214,178.7057,252.5407 M,0,60304,60366,178.7057,252.5407,189.4115,291.0814 M,17,60366,60491,189.4115,291.0814,94,348 M,0,60492,60553,94,348,73.54377,314.0563 M,0,60554,60616,73.54377,314.0563,68.28066,274.8326 M,17,60616,60741,68.28066,274.8326,119,133 M,0,60742,60803,119,133,157.1537,122.1642 M,0,60804,60866,157.1537,122.1642,196.4643,126.9078 M,0,60867,60928,196.4643,126.9078,230.7285,146.7526 M,0,60929,60991,230.7285,146.7526,254.6762,178.3656 M,17,60991,61116,254.6762,178.3656,277,89 M,0,61117,61178,277,89,237.3827,89.28094 M,0,61179,61241,237.3827,89.28094,201.2066,105.4082 M,17,61241,61366,201.2066,105.4082,168,214 M,0,61367,61428,168,214,207.7669,209.6879 M,0,61429,61491,207.7669,209.6879,247.5338,205.3759 M,0,61492,61553,247.5338,205.3759,281.1017,225.6669 M,0,61554,61616,281.1017,225.6669,314.0778,248.3071 M,17,61616,61866,314.0778,248.3071,509,177 M,0,61867,61928,509,177,513.1667,137.7035 M,0,61929,61991,513.1667,137.7035,534.5354,104.4681 M,0,61992,62053,534.5354,104.4681,513.1667,137.7035 M,0,62054,62116,513.1667,137.7035,509,177 M,17,62116,62241,509,177,535,284 M,0,62242,62303,535,284,497.9507,299.0782 M,0,62304,62366,497.9507,299.0782,460.9015,314.1564 M,17,62366,62491,460.9015,314.1564,318,371 M,0,62492,62553,318,371,323.1736,331.336 M,0,62554,62616,323.1736,331.336,328.3471,291.672 M,17,62616,62741,328.3471,291.672,342,133 M,0,62742,62803,342,133,373.7372,157.3464 M,0,62804,62866,373.7372,157.3464,405.4745,181.6928 M,17,62866,62991,405.4745,181.6928,403,263 M,17,62991,63116,403,263 M,0,63117,63178,403,263,363.1719,259.295 M,0,63179,63241,363.1719,259.295,324.5179,268.8142 M,17,63241,63366,324.5179,268.8142,233,311 M,0,63367,63428,233,311,223.9395,349.9603 M,0,63429,63491,223.9395,349.9603,214.8789,388.9207 M,17,63491,63616,214.8789,388.9207,145,328 M,0,63617,63678,145,328,135.8948,289.0501 M,0,63679,63741,135.8948,289.0501,127,251 M,17,63741,63866,127,251,234,199 M,0,63867,63928,234,199,224.9395,237.9603 M,0,63929,63991,224.9395,237.9603,215.8789,276.9207 M,17,63991,64116,215.8789,276.9207,146,216 M,0,64117,64178,146,216,136.8948,177.0501 M,0,64179,64241,136.8948,177.0501,128,139 M,17,64241,64366,128,139,226,299 M,0,64367,64428,226,299,218.9988,328.1716 M,0,64429,64491,218.9988,328.1716,211.9976,357.3432 M,17,64491,64616,211.9976,357.3432,147,305 M,0,64617,64678,147,305,139.9608,275.8375 M,0,64679,64741,139.9608,275.8375,133,247 M,17,64741,64866,133,247,227,202 M,0,64867,64928,227,202,219.9988,231.1716 M,0,64929,64991,219.9988,231.1716,212.9976,260.3432 M,17,64991,65116,212.9976,260.3432,148,208 M,0,65117,65178,148,208,140.9608,178.8375 M,0,65179,65241,140.9608,178.8375,134,150 M,17,65241,65366,134,150,193,95 M,0,65367,65428,193,95,193.769,65.00986 M,0,65429,65491,193.769,65.00986,193,95 M,0,65492,65553,193,95,193.769,65.00986 M,0,65554,65616,193.769,65.00986,193,95 M,17,65616,65866,193,95,428,109 M,17,65866,65991,428,109 M,0,65992,66053,428,109,392.4467,126.9737 M,0,66054,66116,392.4467,126.9737,362.9229,153.7146 M,17,66116,66241,362.9229,153.7146,344,236 M,17,66241,66366,344,236,420,282 M,0,66367,66428,420,282,425.624,321.1337 M,0,66429,66491,425.624,321.1337,414,358 M,17,66491,66616,414,358,343,403 M,17,66616,66741,343,403,262,283 M,0,66742,66803,262,283,255.374,321.9289 M,0,66804,66866,255.374,321.9289,267,359 M,17,66866,66991,267,359,343,415 M,17,66991,67116,343,415,421,295 M,0,67117,67178,421,295,426.624,334.1337 M,0,67179,67241,426.624,334.1337,415,371 F,0,67215,67365,1,0
Sprite,Background,Centre,"sb\rs\bones.png",0,0 F,0,99215,99365,0,1 M,17,99241,99366,209,240,98,240 S,0,99365,,0.78 M,0,99367,99428,98,240,101.9327,240 M,0,99429,99491,101.9327,240,105.8654,240 M,0,99492,99553,105.8654,240,109.7981,240 M,0,99554,99616,109.7981,240,113.7308,240 M,17,99616,99866,113.7308,240,137,240 M,0,99867,99928,137,240,164.1603,240 M,0,99929,99991,164.1603,240,193.6435,240 M,0,99992,100053,193.6435,240,223.2221,240 M,0,100054,100116,223.2221,240,250.2504,240 M,17,100116,100241,250.2504,240,333,240 M,17,100241,100491,333,240,196,240 M,17,100491,100741,196,240,304,240 M,17,100741,100866,304,240 M,0,100867,100928,304,240,333.7929,240 M,0,100929,100991,333.7929,240,361.8625,240 M,17,100991,101116,361.8625,240,419,240 M,0,101117,101178,419,240,416.5885,240 M,0,101179,101241,416.5885,240,414.1769,240 M,17,101241,101366,414.1769,240,408,240 M,0,101367,101428,408,240,417.4815,240 M,0,101429,101491,417.4815,240,435.9615,240 M,0,101492,101553,435.9615,240,461.5015,240 M,0,101554,101616,461.5015,240,490.8652,240 M,17,101616,101866,490.8652,240,540,240 M,0,101867,101928,540,240,542.4115,240 M,0,101929,101991,542.4115,240,544.8231,240 M,0,101992,102053,544.8231,240,542.4115,240 M,0,102054,102116,542.4115,240,540,240 M,17,102116,102241,540,240,531,240 M,0,102242,102303,531,240,501.4491,240 M,0,102304,102366,501.4491,240,477.0215,240 M,0,102367,102428,477.0215,240,451.8585,240 M,0,102429,102491,451.8585,240,423,240 M,17,102491,102741,423,240,271,240 M,0,102742,102803,271,240,241.4218,240 M,0,102804,102866,241.4218,240,212,240 M,0,102867,102928,212,240,241.4218,240 M,0,102929,102991,241.4218,240,271,240 M,17,102991,103116,271,240,344,240 M,0,103117,103178,344,240,327.7019,240 M,0,103179,103241,327.7019,240,303.2059,240 M,17,103241,103366,303.2059,240,228,240 M,17,103366,103616,228,240,181,240 M,17,103616,103866,181,240,331,240 M,0,103867,103928,331,240,360.8605,240 M,0,103929,103991,360.8605,240,390.721,240 M,17,103991,104116,390.721,240,414,240 M,0,104117,104178,414,240,443.8461,240 M,0,104179,104241,443.8461,240,473,240 M,17,104241,104491,473,240,318,240 M,17,104491,104741,318,240,465,240 M,17,104741,104866,465,240 M,0,104867,104928,465,240,450.2832,240 M,0,104929,104991,450.2832,240,427.1146,240 M,17,104991,105116,427.1146,240,351,240 M,17,105116,105241,351,240 M,17,105241,105366,351,240 M,0,105367,105428,351,240,322.7737,240 M,0,105429,105491,322.7737,240,292.9818,240 M,0,105492,105553,292.9818,240,264.4215,240 M,0,105554,105616,264.4215,240,239.7131,240 M,17,105616,105866,239.7131,240,105,240 M,17,105866,105991,105,240 M,0,105992,106053,105,240,134.8408,240 M,0,106054,106116,134.8408,240,164.2519,240 M,0,106117,106178,164.2519,240,186.4687,240 M,0,106179,106241,186.4687,240,208.6855,240 M,0,106242,106303,208.6855,240,186.4687,240 M,0,106304,106366,186.4687,240,164.2519,240 M,0,106367,106428,164.2519,240,134.8408,240 M,0,106429,106491,134.8408,240,105,240 M,17,106491,106741,105,240,183,240 M,17,106741,106866,183,240 M,0,106867,106928,183,240,212.5529,240 M,0,106929,106991,212.5529,240,242.1058,240 M,17,106991,107116,242.1058,240,294,240 M,0,107117,107178,294,240,323.5529,240 M,0,107179,107241,323.5529,240,353.1058,240 S,0,107215,107365,0.78,1.08 R,0,107215,107365,0,1.570796 M,17,107241,107366,320,348.3201,320,414 M,0,107367,107428,320,414,320,406.5923 M,0,107429,107491,320,406.5923,320,390.8888 M,0,107492,107553,320,390.8888,320,367.6244 M,0,107554,107616,320,367.6244,320,339.8398 M,17,107616,107866,320,339.8398,320,172 M,0,107867,107928,320,172,320,165.6544 M,0,107929,107991,320,165.6544,320,159.3087 M,0,107992,108053,320,159.3087,320,152.9631 M,0,108054,108116,320,152.9631,320,146.6175 M,17,108116,108241,320,146.6175,320,80 M,17,108241,108491,320,80,320,231 M,17,108491,108741,320,231,320,224 M,17,108741,108866,320,224 M,0,108867,108928,320,224,320,253.7929 M,0,108929,108991,320,253.7929,320,281.8625 M,17,108991,109116,320,281.8625,320,335 M,0,109117,109178,320,335,320,332.5885 M,0,109179,109241,320,332.5885,320,330.1769 M,17,109241,109366,320,330.1769,320,322 M,0,109367,109428,320,322,320,318.4655 M,0,109429,109491,320,318.4655,320,314.511 M,0,109492,109553,320,314.511,320,289.4844 M,0,109554,109616,320,289.4844,320,264.4578 M,17,109616,109866,320,264.4578,320,124 M,0,109867,109928,320,124,320,128.5016 M,0,109929,109991,320,128.5016,320,140.3901 M,0,109992,110053,320,140.3901,320,128.5016 M,0,110054,110116,320,128.5016,320,124 M,17,110116,110241,320,124,320,71 M,0,110242,110303,320,71,320,76.17141 M,0,110304,110366,320,76.17141,320,91.44084 M,0,110367,110428,320,91.44084,320,105.1902 M,0,110429,110491,320,105.1902,320,110 M,17,110491,110741,320,110,320,138 M,0,110742,110803,320,138,320,143.0132 M,0,110804,110866,320,143.0132,320,148 M,0,110867,110928,320,148,320,143.0132 M,0,110929,110991,320,143.0132,320,138 M,17,110991,111116,320,138,320,140 M,0,111117,111178,320,140,320,164.8492 M,0,111179,111241,320,164.8492,320,181.5443 M,17,111241,111366,320,181.5443,320,179 M,17,111366,111616,320,179,320,271 M,17,111616,111866,320,271,320,295 M,0,111867,111928,320,295,320,324.8605 M,0,111929,111991,320,324.8605,320,354.721 M,17,111991,112116,320,354.721,320,409 M,0,112117,112178,320,409,320,405.9648 M,0,112179,112241,320,405.9648,320,403 M,17,112241,112491,320,403,320,388 M,17,112491,112741,320,388,320,235 M,17,112741,112866,320,235 M,0,112867,112928,320,235,320,209.1546 M,0,112929,112991,320,209.1546,320,190.6187 M,17,112991,113116,320,190.6187,320,166 M,17,113116,113241,320,166 M,17,113241,113366,320,166 M,0,113367,113428,320,166,320,136.3952 M,0,113429,113491,320,136.3952,320,106.7903 M,0,113492,113553,320,106.7903,320,83.81487 M,0,113554,113616,320,83.81487,320,61.26609 M,17,113616,113866,320,61.26609,320,77 M,17,113866,113991,320,77 M,0,113992,114053,320,77,320,78.03568 M,0,114054,114116,320,78.03568,320,85.49736 M,0,114117,114178,320,85.49736,320,99.26126 M,0,114179,114241,320,99.26126,320,118.8515 M,0,114242,114303,320,118.8515,320,99.26127 M,0,114304,114366,320,99.26127,320,85.49736 M,0,114367,114428,320,85.49736,320,78.03569 M,0,114429,114491,320,78.03569,320,77 M,17,114491,114741,320,77,320,169 M,17,114741,114866,320,169 M,0,114867,114928,320,169,320,198.5529 M,0,114929,114991,320,198.5529,320,228.1058 M,17,114991,115116,320,228.1058,320,280 M,0,115117,115178,320,280,320,309.5529 M,0,115179,115241,320,309.5529,320,339.1058 F,0,115215,115365,1,0
Sprite,Background,Centre,"sb\rs\heart.png",0,0 F,0,99215,99365,0,1 M,17,99241,99366,209,127,98,129 S,0,99365,,2 M,0,99367,99428,98,129,101.9327,158.7411 M,0,99429,99491,101.9327,158.7411,105.8654,188.4822 M,0,99492,99553,105.8654,188.4822,109.7981,218.2233 M,0,99554,99616,109.7981,218.2233,113.7308,247.9644 M,17,99616,99866,113.7308,247.9644,137,391 M,0,99867,99928,137,391,164.1603,403.3856 M,0,99929,99991,164.1603,403.3856,193.6435,407.8672 M,0,99992,100053,193.6435,407.8672,223.2221,403.8008 M,0,100054,100116,223.2221,403.8008,250.2504,391.1516 M,17,100116,100241,250.2504,391.1516,333,347 M,17,100241,100491,333,347,196,300 M,17,100491,100741,196,300,304,200 M,17,100741,100866,304,200 M,0,100867,100928,304,200,333.7929,199.9064 M,0,100929,100991,333.7929,199.9064,361.8625,209.7206 M,17,100991,101116,361.8625,209.7206,419,265 M,0,101117,101178,419,265,416.5885,294.9029 M,0,101179,101241,416.5885,294.9029,414.1769,324.8058 M,17,101241,101366,414.1769,324.8058,408,405 M,0,101367,101428,408,405,417.4815,376.7835 M,0,101429,101491,417.4815,376.7835,435.9615,353.5066 M,0,101492,101553,435.9615,353.5066,461.5015,338.2028 M,0,101554,101616,461.5015,338.2028,490.8652,333.03 M,17,101616,101866,490.8652,333.03,540,197 M,0,101867,101928,540,197,542.4115,226.9029 M,0,101929,101991,542.4115,226.9029,544.8231,256.8058 M,0,101992,102053,544.8231,256.8058,542.4115,226.9029 M,0,102054,102116,542.4115,226.9029,540,197 M,17,102116,102241,540,197,531,118 M,0,102242,102303,531,118,501.4491,123.1714 M,0,102304,102366,501.4491,123.1714,477.0215,138.4408 M,0,102367,102428,477.0215,138.4408,451.8585,152.1902 M,0,102429,102491,451.8585,152.1902,423,157 M,17,102491,102741,423,157,271,120 M,0,102742,102803,271,120,241.4218,125.0132 M,0,102804,102866,241.4218,125.0132,212,130 M,0,102867,102928,212,130,241.4218,125.0132 M,0,102929,102991,241.4218,125.0132,271,120 M,17,102991,103116,271,120,344,149 M,0,103117,103178,344,149,327.7019,173.8492 M,0,103179,103241,327.7019,173.8492,303.2059,190.5443 M,17,103241,103366,303.2059,190.5443,228,211 M,17,103366,103616,228,211,181,359 M,17,103616,103866,181,359,331,401 M,0,103867,103928,331,401,360.8605,403.8897 M,0,103929,103991,360.8605,403.8897,390.721,406.7794 M,17,103991,104116,390.721,406.7794,414,332 M,0,104117,104178,414,332,443.8461,328.9648 M,0,104179,104241,443.8461,328.9648,473,326 M,17,104241,104491,473,326,318,236 M,17,104491,104741,318,236,465,196 M,17,104741,104866,465,196 M,0,104867,104928,465,196,450.2832,170.1546 M,0,104929,104991,450.2832,170.1546,427.1146,151.6187 M,17,104991,105116,427.1146,151.6187,351,128 M,17,105116,105241,351,128 M,17,105241,105366,351,128 M,0,105367,105428,351,128,322.7737,118.3611 M,0,105429,105491,322.7737,118.3611,292.9818,117.3829 M,0,105492,105553,292.9818,117.3829,264.4215,125.9079 M,0,105554,105616,264.4215,125.9079,239.7131,142.5293 M,17,105616,105866,239.7131,142.5293,105,249 M,17,105866,105991,105,249 M,0,105992,106053,105,249,134.8408,252.087 M,0,106054,106116,134.8408,252.087,164.2519,256.136 M,0,106117,106178,164.2519,256.136,186.4687,276.2957 M,0,106179,106241,186.4687,276.2957,208.6855,296.4554 M,0,106242,106303,208.6855,296.4554,186.4687,276.2957 M,0,106304,106366,186.4687,276.2957,164.2519,256.136 M,0,106367,106428,164.2519,256.136,134.8408,252.087 M,0,106429,106491,134.8408,252.087,105,249 M,17,106491,106741,105,249,183,386 M,17,106741,106866,183,386 M,0,106867,106928,183,386,212.5529,391.16 M,0,106929,106991,212.5529,391.16,242.1058,396.3201 M,17,106991,107116,242.1058,396.3201,294,338 M,0,107117,107178,294,338,323.5529,343.16 M,0,107179,107241,323.5529,343.16,353.1058,348.3201 M,17,107241,107366,353.1058,348.3201,404,414 M,0,107367,107428,404,414,432.8801,406.5923 M,0,107429,107491,432.8801,406.5923,458.2379,390.8888 M,0,107492,107553,458.2379,390.8888,476.8773,367.6244 M,0,107554,107616,476.8773,367.6244,487.7204,339.8398 M,17,107616,107866,487.7204,339.8398,505,172 M,0,107867,107928,505,172,475.6788,165.6544 M,0,107929,107991,475.6788,165.6544,446.3576,159.3087 M,0,107992,108053,446.3576,159.3087,417.0364,152.9631 M,0,108054,108116,417.0364,152.9631,387.7152,146.6175 M,17,108116,108241,387.7152,146.6175,338,80 M,17,108241,108491,338,80,300,231 M,17,108491,108741,300,231,153,224 M,17,108741,108866,153,224 M,0,108867,108928,153,224,152.9064,253.7929 M,0,108929,108991,152.9064,253.7929,162.7206,281.8625 M,17,108991,109116,162.7206,281.8625,218,335 M,0,109117,109178,218,335,247.9029,332.5885 M,0,109179,109241,247.9029,332.5885,277.8058,330.1769 M,17,109241,109366,277.8058,330.1769,355,322 M,0,109367,109428,355,322,384.791,318.4655 M,0,109429,109491,384.791,318.4655,414.3232,314.511 M,0,109492,109553,414.3232,314.511,430.8662,289.4844 M,0,109554,109616,430.8662,289.4844,447.4092,264.4578 M,17,109616,109866,447.4092,264.4578,516,124 M,0,109867,109928,516,124,545.5391,128.5016 M,0,109929,109991,545.5391,128.5016,572.9161,140.3901 M,0,109992,110053,572.9161,140.3901,545.5391,128.5016 M,0,110054,110116,545.5391,128.5016,516,124 M,17,110116,110241,516,124,458,71 M,0,110242,110303,458,71,428.4491,76.17141 M,0,110304,110366,428.4491,76.17141,404.0215,91.44084 M,0,110367,110428,404.0215,91.44084,378.8585,105.1902 M,0,110429,110491,378.8585,105.1902,350,110 M,17,110491,110741,350,110,195,138 M,0,110742,110803,195,138,165.4218,143.0132 M,0,110804,110866,165.4218,143.0132,136,148 M,0,110867,110928,136,148,165.4218,143.0132 M,0,110929,110991,165.4218,143.0132,195,138 M,17,110991,111116,195,138,273,140 M,0,111117,111178,273,140,289.2981,164.8492 M,0,111179,111241,289.2981,164.8492,313.7941,181.5443 M,17,111241,111366,313.7941,181.5443,391,179 M,17,111366,111616,391,179,265,271 M,17,111616,111866,265,271,419,295 M,0,111867,111928,419,295,416.1103,324.8605 M,0,111929,111991,416.1103,324.8605,413.2206,354.721 M,17,111991,112116,413.2206,354.721,358,409 M,0,112117,112178,358,409,328.1539,405.9648 M,0,112179,112241,328.1539,405.9648,299,403 M,17,112241,112491,299,403,142,388 M,17,112491,112741,142,388,111,235 M,17,112741,112866,111,235 M,0,112867,112928,111,235,125.7168,209.1546 M,0,112929,112991,125.7168,209.1546,148.8854,190.6187 M,17,112991,113116,148.8854,190.6187,223,166 M,17,113116,113241,223,166 M,17,113241,113366,223,166 M,0,113367,113428,223,166,227.8533,136.3952 M,0,113429,113491,227.8533,136.3952,232.7065,106.7903 M,0,113492,113553,232.7065,106.7903,251.591,83.81487 M,0,113554,113616,251.591,83.81487,271.3787,61.26609 M,17,113616,113866,271.3787,61.26609,450,77 M,17,113866,113991,450,77 M,0,113992,114053,450,77,479.8901,78.03568 M,0,114054,114116,479.8901,78.03568,508.8334,85.49736 M,0,114117,114178,508.8334,85.49736,535.3885,99.26126 M,0,114179,114241,535.3885,99.26126,557.9792,118.8515 M,0,114242,114303,557.9792,118.8515,535.3885,99.26127 M,0,114304,114366,535.3885,99.26127,508.8334,85.49736 M,0,114367,114428,508.8334,85.49736,479.8901,78.03569 M,0,114429,114491,479.8901,78.03569,450,77 M,17,114491,114741,450,77,310,169 M,17,114741,114866,310,169 M,0,114867,114928,310,169,315.16,198.5529 M,0,114929,114991,315.16,198.5529,320.3201,228.1058 M,17,114991,115116,320.3201,228.1058,262,280 M,0,115117,115178,262,280,267.16,309.5529 M,0,115179,115241,267.16,309.5529,272.3201,339.1058 F,0,115215,115365,1,0
Sprite,Background,Centre,"sb\ring.png",368,312 S,4,35366,35866,0.25,1 F,1,35566,35966,0.4,0
Sprite,Background,Centre,"sb\ring.png",358,307 S,4,37366,37866,0.25,1 F,1,37566,37966,0.4,0
Sprite,Background,Centre,"sb\ring.png",329,111 S,4,39366,39866,0.25,1 F,1,39566,39966,0.4,0
Sprite,Background,Centre,"sb\ring.png",299,392 S,4,41366,41866,0.25,1 F,1,41566,41966,0.4,0
Sprite,Background,Centre,"sb\ring.png",484,260 S,4,43366,43866,0.25,1 F,1,43566,43966,0.4,0
Sprite,Background,Centre,"sb\ring.png",377,194 S,4,45366,45866,0.25,1 F,1,45566,45966,0.4,0
Sprite,Background,Centre,"sb\ring.png",393,170 S,4,47366,47866,0.25,1 F,1,47566,47966,0.4,0
Sprite,Background,Centre,"sb\ring.png",213,95 S,4,49366,49866,0.25,1 F,1,49566,49966,0.4,0
Sprite,Background,Centre,"sb\ring.png",244,431 S,4,67366,67866,0.25,1 F,1,67566,67966,0.4,0
Sprite,Background,Centre,"sb\ring.png",233,303 S,4,69366,69866,0.25,1 F,1,69566,69966,0.4,0
Sprite,Background,Centre,"sb\ring.png",276,371 S,4,71366,71866,0.25,1 F,1,71566,71966,0.4,0
Sprite,Background,Centre,"sb\ring.png",197,192 S,4,73366,73866,0.25,1 F,1,73566,73966,0.4,0
Sprite,Background,Centre,"sb\ring.png",229,89 S,4,75366,75866,0.25,1 F,1,75566,75966,0.4,0
Sprite,Background,Centre,"sb\ring.png",309,387 S,4,77366,77866,0.25,1 F,1,77566,77966,0.4,0
Sprite,Background,Centre,"sb\ring.png",527,365 S,4,79366,79866,0.25,1 F,1,79566,79966,0.4,0
Sprite,Background,Centre,"sb\ring.png",113,365 S,4,81366,81866,0.25,1 F,1,81566,81966,0.4,0
Sprite,Background,Centre,"sb\ring.png",148,121 S,4,83366,83866,0.25,1 F,1,83566,83966,0.4,0
Sprite,Background,Centre,"sb\ring.png",367,403 S,4,85366,85866,0.25,1 F,1,85566,85966,0.4,0
Sprite,Background,Centre,"sb\ring.png",307,291 S,4,87366,87866,0.25,1 F,1,87566,87966,0.4,0
Sprite,Background,Centre,"sb\ring.png",215,279 S,4,89366,89866,0.25,1 F,1,89566,89966,0.4,0
Sprite,Background,Centre,"sb\ring.png",418,137 S,4,91366,91866,0.25,1 F,1,91566,91966,0.4,0
Sprite,Background,Centre,"sb\ring.png",352,251 S,4,93366,93866,0.25,1 F,1,93566,93966,0.4,0
Sprite,Background,Centre,"sb\ring.png",233,184 S,4,95366,95866,0.25,1 F,1,95566,95966,0.4,0
Sprite,Background,Centre,"sb\ring.png",407,184 S,4,97366,97866,0.25,1 F,1,97566,97966,0.4,0
Sprite,Background,Centre,"sb\ring.png",366,239 S,4,131366,131866,0.25,1 F,1,131566,131966,0.4,0
Sprite,Background,Centre,"sb\ring.png",221,158 S,4,133366,133866,0.25,1 F,1,133566,133966,0.4,0
Sprite,Background,Centre,"sb\ring.png",110,412 S,4,135366,135866,0.25,1 F,1,135566,135966,0.4,0
Sprite,Background,Centre,"sb\ring.png",473,179 S,4,137366,137866,0.25,1 F,1,137566,137966,0.4,0
Sprite,Background,Centre,"sb\ring.png",330,350 S,4,139366,139866,0.25,1 F,1,139566,139966,0.4,0
Sprite,Background,Centre,"sb\ring.png",252,253 S,4,141366,141866,0.25,1 F,1,141566,141966,0.4,0
Sprite,Background,Centre,"sb\ring.png",451,257 S,4,143366,143866,0.25,1 F,1,143566,143966,0.4,0
Sprite,Background,Centre,"sb\ring.png",421,110 S,4,147366,147866,0.25,1 F,1,147566,147966,0.4,0
Sprite,Background,Centre,"sb\ring.png",290,108 S,4,149366,149866,0.25,1 F,1,149566,149966,0.4,0
Sprite,Background,Centre,"sb\ring.png",275,376 S,4,151366,151866,0.25,1 F,1,151566,151966,0.4,0
Sprite,Background,Centre,"sb\ring.png",393,363 S,4,153366,153866,0.25,1 F,1,153566,153966,0.4,0
Sprite,Background,Centre,"sb\ring.png",336,203 S,4,155366,155866,0.25,1 F,1,155566,155966,0.4,0
Sprite,Background,Centre,"sb\ring.png",547,128 S,4,157366,157866,0.25,1 F,1,157566,157966,0.4,0
Sprite,Background,Centre,"sb\ring.png",392,128 S,4,159366,159866,0.25,1 F,1,159566,159966,0.4,0
Sprite,Background,Centre,"sb\ring.png",255,364 S,4,161366,161866,0.25,1 F,1,161566,161966,0.4,0
Sprite,Background,Centre,"sb\ring.png",226,158 S,4,42366,42866,0.25,1 F,1,42566,42966,0.4,0
Sprite,Background,Centre,"sb\ring.png",320,207 S,4,42741,43241,0.25,1 F,1,42941,43341,0.4,0
Sprite,Background,Centre,"sb\ring.png",324,313 S,4,43116,43616,0.25,1 F,1,43316,43716,0.4,0
Sprite,Background,Centre,"sb\ring.png",227,180 S,4,50366,50866,0.25,1 F,1,50566,50966,0.4,0
Sprite,Background,Centre,"sb\ring.png",492,191 S,4,50741,51241,0.25,1 F,1,50941,51341,0.4,0
Sprite,Background,Centre,"sb\ring.png",344,399 S,4,51116,51616,0.25,1 F,1,51316,51716,0.4,0
Sprite,Background,Centre,"sb\ring.png",191,263 S,4,74366,74866,0.25,1 F,1,74566,74966,0.4,0
Sprite,Background,Centre,"sb\ring.png",240,169 S,4,74741,75241,0.25,1 F,1,74941,75341,0.4,0
Sprite,Background,Centre,"sb\ring.png",346,165 S,4,75116,75616,0.25,1 F,1,75316,75716,0.4,0
Sprite,Background,Centre,"sb\ring.png",235,192 S,4,90366,90866,0.25,1 F,1,90566,90966,0.4,0
Sprite,Background,Centre,"sb\ring.png",407,126 S,4,90741,91241,0.25,1 F,1,90941,91341,0.4,0
Sprite,Background,Centre,"sb\ring.png",223,179 S,4,91116,91616,0.25,1 F,1,91316,91716,0.4,0
Sprite,Background,Centre,"sb\ring.png",541,289 S,4,138366,138866,0.25,1 F,1,138566,138966,0.4,0
Sprite,Background,Centre,"sb\ring.png",537,368 S,4,138741,139241,0.25,1 F,1,138941,139341,0.4,0
Sprite,Background,Centre,"sb\ring.png",487,436 S,4,139116,139616,0.25,1 F,1,139316,139716,0.4,0
Sprite,Background,Centre,"sb\ring.png",415,220 S,4,154366,154866,0.25,1 F,1,154566,154966,0.4,0
Sprite,Background,Centre,"sb\ring.png",249,325 S,4,154741,155241,0.25,1 F,1,154941,155341,0.4,0
Sprite,Background,Centre,"sb\ring.png",147,160 S,4,155116,155616,0.25,1 F,1,155316,155716,0.4,0
Sprite,Background,Centre,"sb\ring.png",217,286 S,4,146366,146866,0.25,1 F,1,146566,146966,0.4,0
Sprite,Background,Centre,"sb\ring.png",518,216 S,4,146741,147241,0.25,1 F,1,146941,147341,0.4,0
Sprite,Background,Centre,"sb\ring.png",223,160 S,4,147116,147616,0.25,1 F,1,147316,147716,0.4,0
Sprite,Background,Centre,"sb\ring.png",331,97 S,4,171366,171866,0.25,1 F,1,171566,171966,0.4,0
Sprite,Background,Centre,"sb\ring.png",127,194 S,4,173366,173866,0.25,1 F,1,173566,173966,0.4,0
Sprite,Background,Centre,"sb\ring.png",194,194 S,4,175366,175866,0.25,1 F,1,175566,175966,0.4,0
Sprite,Background,Centre,"sb\ring.png",309,104 S,4,177366,177866,0.25,1 F,1,177566,177966,0.4,0
Sprite,Background,Centre,"sb\ring.png",117,111 S,4,179366,179866,0.25,1 F,1,179566,179966,0.4,0
Sprite,Background,Centre,"sb\ring.png",432,124 S,4,181366,181866,0.25,1 F,1,181566,181966,0.4,0
Sprite,Background,Centre,"sb\ring.png",450,181 S,4,183366,183866,0.25,1 F,1,183566,183966,0.4,0
Sprite,Background,Centre,"sb\ring.png",537,191 S,4,185366,185866,0.25,1 F,1,185566,185966,0.4,0
Sprite,Background,Centre,"sb\ring.png",419,320 S,4,178366,178866,0.25,1 F,1,178566,178966,0.4,0
Sprite,Background,Centre,"sb\ring.png",312,264 S,4,178741,179241,0.25,1 F,1,178941,179341,0.4,0
Sprite,Background,Centre,"sb\ring.png",307,144 S,4,179116,179616,0.25,1 F,1,179316,179716,0.4,0
Sprite,Background,Centre,"sb\ring.png",215,293 S,4,186366,186866,0.25,1 F,1,186566,186966,0.4,0
Sprite,Background,Centre,"sb\ring.png",398,274 S,4,186741,187241,0.25,1 F,1,186941,187341,0.4,0
Sprite,Background,Centre,"sb\ring.png",218,93 S,4,187116,187616,0.25,1 F,1,187316,187716,0.4,0
//Storyboard Layer 1 (Fail)
//Storyboard Layer 2 (Pass)
//Storyboard Layer 3 (Foreground)
Sprite,Foreground,Centre,"sb\rs\bone.png",0,0 R,0,115365,,1.570796 M,0,115365,115765,580,420,-270,420
Sprite,Foreground,Centre,"sb\rs\bone.png",0,0 R,0,115465,,1.658063 M,0,115465,115865,580,420,-266.7655,345.9176
Sprite,Foreground,Centre,"sb\rs\bone.png",0,0 R,0,115565,,1.745329 M,0,115565,115965,580,420,-257.0866,272.399
Sprite,Foreground,Centre,"sb\rs\bone.png",0,0 R,0,115665,,1.832596 M,0,115665,116065,580,420,-241.0369,200.0038
Sprite,Foreground,Centre,"sb\rs\bone.png",0,0 R,0,115765,,1.919862 M,0,115765,116165,580,420,-218.7387,129.2829
Sprite,Foreground,Centre,"sb\rs\bone.png",0,0 R,0,115865,,2.007129 M,0,115865,116265,580,420,-190.3616,60.77447
Sprite,Foreground,Centre,"sb\rs\bone.png",0,0 R,0,115965,,2.094395 M,0,115965,116365,580,420,-156.1216,-5
Sprite,Foreground,Centre,"sb\rs\bone.png",0,0 R,0,116065,,2.181662 M,0,116065,116465,580,420,-116.2793,-67.53999
Sprite,Foreground,Centre,"sb\rs\bone.png",0,0 R,0,116165,,2.268928 M,0,116165,116565,580,420,-71.13777,-126.3695
Sprite,Foreground,Centre,"sb\rs\bone.png",0,0 R,0,116265,,2.356194 M,0,116265,116665,580,420,-21.04075,-181.0408
Sprite,Foreground,Centre,"sb\rs\bone.png",0,0 R,0,116365,,2.443461 M,0,116365,116765,580,420,33.63051,-231.1378
Sprite,Foreground,Centre,"sb\rs\bone.png",0,0 R,0,116465,,2.530727 M,0,116465,116865,580,420,92.46001,-276.2792
Sprite,Foreground,Centre,"sb\rs\bone.png",0,0 R,0,116565,,2.617994 M,0,116565,116965,580,420,155,-316.1216
Sprite,Foreground,Centre,"sb\rs\bone.png",0,0 R,0,116665,,2.70526 M,0,116665,117065,580,420,220.7745,-350.3616
Sprite,Foreground,Centre,"sb\rs\bone.png",0,0 R,0,116765,,2.792527 M,0,116765,117165,580,420,289.2829,-378.7387
Sprite,Foreground,Centre,"sb\rs\bone.png",0,0 R,0,116865,,2.879793 M,0,116865,117265,580,420,360.0038,-401.0369
Sprite,Foreground,Centre,"sb\rs\bone.png",0,0 R,0,116965,,2.96706 M,0,116965,117365,580,420,432.399,-417.0866
Sprite,Foreground,Centre,"sb\rs\bone.png",0,0 R,0,117065,,3.054326 M,0,117065,117465,580,420,505.9176,-426.7655
Sprite,Foreground,Centre,"sb\rs\bl\bl0.png",0,0 F,0,114365,,1 S,0,114365,,1.4 M,1,114365,115065,1380,420,580,420 R,0,114465,,-4.712389 F,0,115265,,0
Animation,Foreground,Centre,"sb\rs\bl\bl.png",580,420,6,30,LoopOnce S,0,115265,,1.4 R,0,115265,,-4.712389 R,0,115365,117165,7.853981,9.424778 M,2,117365,118065,580,420,580,1220
Sprite,Foreground,Centre,"sb\rs\bone.png",0,0 R,0,115365,,-1.570796 M,0,115365,115765,60,60,910,60
Sprite,Foreground,Centre,"sb\rs\bone.png",0,0 R,0,115465,,-1.48353 M,0,115465,115865,60,60,906.7655,134.0824
Sprite,Foreground,Centre,"sb\rs\bone.png",0,0 R,0,115565,,-1.396263 M,0,115565,115965,60,60,897.0865,207.601
Sprite,Foreground,Centre,"sb\rs\bone.png",0,0 R,0,115665,,-1.308997 M,0,115665,116065,60,60,881.0369,279.9962
Sprite,Foreground,Centre,"sb\rs\bone.png",0,0 R,0,115765,,-1.22173 M,0,115765,116165,60,60,858.7387,350.7171
Sprite,Foreground,Centre,"sb\rs\bone.png",0,0 R,0,115865,,-1.134464 M,0,115865,116265,60,60,830.3616,419.2255
Sprite,Foreground,Centre,"sb\rs\bone.png",0,0 R,0,115965,,-1.047198 M,0,115965,116365,60,60,796.1216,485
Sprite,Foreground,Centre,"sb\rs\bone.png",0,0 R,0,116065,,-0.9599311 M,0,116065,116465,60,60,756.2792,547.54
Sprite,Foreground,Centre,"sb\rs\bone.png",0,0 R,0,116165,,-0.8726646 M,0,116165,116565,60,60,711.1378,606.3695
Sprite,Foreground,Centre,"sb\rs\bone.png",0,0 R,0,116265,,-0.7853982 M,0,116265,116665,60,60,661.0408,661.0408
Sprite,Foreground,Centre,"sb\rs\bone.png",0,0 R,0,116365,,-0.6981317 M,0,116365,116765,60,60,606.3695,711.1378
Sprite,Foreground,Centre,"sb\rs\bone.png",0,0 R,0,116465,,-0.6108652 M,0,116465,116865,60,60,547.54,756.2792
Sprite,Foreground,Centre,"sb\rs\bone.png",0,0 R,0,116565,,-0.5235988 M,0,116565,116965,60,60,485,796.1216
Sprite,Foreground,Centre,"sb\rs\bone.png",0,0 R,0,116665,,-0.4363323 M,0,116665,117065,60,60,419.2255,830.3616
Sprite,Foreground,Centre,"sb\rs\bone.png",0,0 R,0,116765,,-0.3490658 M,0,116765,117165,60,60,350.7171,858.7387
Sprite,Foreground,Centre,"sb\rs\bone.png",0,0 R,0,116865,,-0.2617994 M,0,116865,117265,60,60,279.9962,881.0369
Sprite,Foreground,Centre,"sb\rs\bone.png",0,0 R,0,116965,,-0.1745329 M,0,116965,117365,60,60,207.601,897.0865
Sprite,Foreground,Centre,"sb\rs\bone.png",0,0 R,0,117065,,-0.08726646 M,0,117065,117465,60,60,134.0824,906.7655
Sprite,Foreground,Centre,"sb\rs\bl\bl0.png",0,0 F,0,114365,,1 S,0,114365,,1.4 M,1,114365,115065,-740,60,60,60 R,0,114465,,-1.570796 F,0,115265,,0
Animation,Foreground,Centre,"sb\rs\bl\bl.png",60,60,6,30,LoopOnce S,0,115265,,1.4 R,0,115265,,-1.570796 R,0,115365,117165,4.712389,6.283185 M,2,117365,118065,60,60,60,-740
Sprite,Foreground,Centre,"sb\rs\bone.png",0,0 R,0,117365,,-1.570796 M,0,117365,117765,370,240,1220,240
Sprite,Foreground,Centre,"sb\rs\bone.png",0,0 R,0,117465,,-1.48353 M,0,117465,117865,370,240,1216.766,314.0824
Sprite,Foreground,Centre,"sb\rs\bone.png",0,0 R,0,117565,,-1.396263 M,0,117565,117965,370,240,1207.087,387.601
Sprite,Foreground,Centre,"sb\rs\bone.png",0,0 R,0,117665,,-1.308997 M,0,117665,118065,370,240,1191.037,459.9962
Sprite,Foreground,Centre,"sb\rs\bone.png",0,0 R,0,117765,,-1.22173 M,0,117765,118165,370,240,1168.739,530.7171
Sprite,Foreground,Centre,"sb\rs\bone.png",0,0 R,0,117865,,-1.134464 M,0,117865,118265,370,240,1140.362,599.2255
Sprite,Foreground,Centre,"sb\rs\bone.png",0,0 R,0,117965,,-1.047198 M,0,117965,118365,370,240,1106.122,665
Sprite,Foreground,Centre,"sb\rs\bone.png",0,0 R,0,118065,,-0.9599311 M,0,118065,118465,370,240,1066.279,727.54
Sprite,Foreground,Centre,"sb\rs\bone.png",0,0 R,0,118165,,-0.8726646 M,0,118165,118565,370,240,1021.138,786.3695
Sprite,Foreground,Centre,"sb\rs\bone.png",0,0 R,0,118265,,-0.7853982 M,0,118265,118665,370,240,971.0408,841.0408
Sprite,Foreground,Centre,"sb\rs\bone.png",0,0 R,0,118365,,-0.6981317 M,0,118365,118765,370,240,916.3695,891.1378
Sprite,Foreground,Centre,"sb\rs\bone.png",0,0 R,0,118465,,-0.6108652 M,0,118465,118865,370,240,857.54,936.2792
Sprite,Foreground,Centre,"sb\rs\bone.png",0,0 R,0,118565,,-0.5235988 M,0,118565,118965,370,240,795,976.1216
Sprite,Foreground,Centre,"sb\rs\bone.png",0,0 R,0,118665,,-0.4363323 M,0,118665,119065,370,240,729.2255,1010.362
Sprite,Foreground,Centre,"sb\rs\bone.png",0,0 R,0,118765,,-0.3490658 M,0,118765,119165,370,240,660.7171,1038.739
Sprite,Foreground,Centre,"sb\rs\bone.png",0,0 R,0,118865,,-0.2617994 M,0,118865,119265,370,240,589.9962,1061.037
Sprite,Foreground,Centre,"sb\rs\bone.png",0,0 R,0,118965,,-0.1745329 M,0,118965,119365,370,240,517.601,1077.087
Sprite,Foreground,Centre,"sb\rs\bone.png",0,0 R,0,119065,,-0.08726646 M,0,119065,119465,370,240,444.0824,1086.766
Sprite,Foreground,Centre,"sb\rs\bl\bl0.png",0,0 F,0,116365,,1 S,0,116365,,1.4 M,1,116365,117065,-430,240,370,240 R,0,116465,,-1.570796 F,0,117265,,0
Animation,Foreground,Centre,"sb\rs\bl\bl.png",370,240,6,30,LoopOnce S,0,117265,,1.4 R,0,117265,,-1.570796 R,0,117365,119165,4.712389,6.283185 M,2,119365,120065,370,240,370,-560
Sprite,Foreground,Centre,"sb\rs\bone.png",0,0 R,0,117365,,1.570796 M,0,117365,117765,270,240,-580,240
Sprite,Foreground,Centre,"sb\rs\bone.png",0,0 R,0,117465,,1.658063 M,0,117465,117865,270,240,-576.7655,165.9176
Sprite,Foreground,Centre,"sb\rs\bone.png",0,0 R,0,117565,,1.745329 M,0,117565,117965,270,240,-567.0865,92.39905
Sprite,Foreground,Centre,"sb\rs\bone.png",0,0 R,0,117665,,1.832596 M,0,117665,118065,270,240,-551.0369,20.00381
Sprite,Foreground,Centre,"sb\rs\bone.png",0,0 R,0,117765,,1.919862 M,0,117765,118165,270,240,-528.7387,-50.71713
Sprite,Foreground,Centre,"sb\rs\bone.png",0,0 R,0,117865,,2.007129 M,0,117865,118265,270,240,-500.3616,-119.2255
Sprite,Foreground,Centre,"sb\rs\bone.png",0,0 R,0,117965,,2.094395 M,0,117965,118365,270,240,-466.1216,-185
Sprite,Foreground,Centre,"sb\rs\bone.png",0,0 R,0,118065,,2.181662 M,0,118065,118465,270,240,-426.2792,-247.54
Sprite,Foreground,Centre,"sb\rs\bone.png",0,0 R,0,118165,,2.268928 M,0,118165,118565,270,240,-381.1378,-306.3695
Sprite,Foreground,Centre,"sb\rs\bone.png",0,0 R,0,118265,,2.356194 M,0,118265,118665,270,240,-331.0407,-361.0407
Sprite,Foreground,Centre,"sb\rs\bone.png",0,0 R,0,118365,,2.443461 M,0,118365,118765,270,240,-276.3695,-411.1378
Sprite,Foreground,Centre,"sb\rs\bone.png",0,0 R,0,118465,,2.530727 M,0,118465,118865,270,240,-217.54,-456.2792
Sprite,Foreground,Centre,"sb\rs\bone.png",0,0 R,0,118565,,2.617994 M,0,118565,118965,270,240,-155,-496.1216
Sprite,Foreground,Centre,"sb\rs\bone.png",0,0 R,0,118665,,2.70526 M,0,118665,119065,270,240,-89.22553,-530.3616
Sprite,Foreground,Centre,"sb\rs\bone.png",0,0 R,0,118765,,2.792527 M,0,118765,119165,270,240,-20.71713,-558.7387
Sprite,Foreground,Centre,"sb\rs\bone.png",0,0 R,0,118865,,2.879793 M,0,118865,119265,270,240,50.00381,-581.0369
Sprite,Foreground,Centre,"sb\rs\bone.png",0,0 R,0,118965,,2.96706 M,0,118965,119365,270,240,122.399,-597.0865
Sprite,Foreground,Centre,"sb\rs\bone.png",0,0 R,0,119065,,3.054326 M,0,119065,119465,270,240,195.9176,-606.7655
Sprite,Foreground,Centre,"sb\rs\bl\bl0.png",0,0 F,0,116365,,1 S,0,116365,,1.4 M,1,116365,117065,1070,240,270,240 R,0,116465,,-4.712389 F,0,117265,,0
Animation,Foreground,Centre,"sb\rs\bl\bl.png",270,240,6,30,LoopOnce S,0,117265,,1.4 R,0,117265,,-4.712389 R,0,117365,119165,7.853981,9.424778 M,2,119365,120065,270,240,270,1040
Sprite,Foreground,Centre,"sb\rs\bone.png",0,0 R,0,119365,,0.7853982 M,0,119365,119765,580,240,-21.04075,841.0408
Sprite,Foreground,Centre,"sb\rs\bone.png",0,0 R,0,119465,,0.8726646 M,0,119465,119865,580,240,-71.13777,786.3695
Sprite,Foreground,Centre,"sb\rs\bone.png",0,0 R,0,119565,,0.9599311 M,0,119565,119965,580,240,-116.2793,727.54
Sprite,Foreground,Centre,"sb\rs\bone.png",0,0 R,0,119665,,1.047198 M,0,119665,120065,580,240,-156.1216,665
Sprite,Foreground,Centre,"sb\rs\bone.png",0,0 R,0,119765,,1.134464 M,0,119765,120165,580,240,-190.3616,599.2255
Sprite,Foreground,Centre,"sb\rs\bone.png",0,0 R,0,119865,,1.22173 M,0,119865,120265,580,240,-218.7387,530.7171
Sprite,Foreground,Centre,"sb\rs\bone.png",0,0 R,0,119965,,1.308997 M,0,119965,120365,580,240,-241.0369,459.9962
Sprite,Foreground,Centre,"sb\rs\bone.png",0,0 R,0,120065,,1.396263 M,0,120065,120465,580,240,-257.0866,387.601
Sprite,Foreground,Centre,"sb\rs\bone.png",0,0 R,0,120165,,1.48353 M,0,120165,120565,580,240,-266.7655,314.0824
Sprite,Foreground,Centre,"sb\rs\bone.png",0,0 R,0,120265,,1.570796 M,0,120265,120665,580,240,-270,240
Sprite,Foreground,Centre,"sb\rs\bone.png",0,0 R,0,120365,,1.658063 M,0,120365,120765,580,240,-266.7655,165.9176
Sprite,Foreground,Centre,"sb\rs\bone.png",0,0 R,0,120465,,1.745329 M,0,120465,120865,580,240,-257.0866,92.39905
Sprite,Foreground,Centre,"sb\rs\bone.png",0,0 R,0,120565,,1.832596 M,0,120565,120965,580,240,-241.0369,20.00381
Sprite,Foreground,Centre,"sb\rs\bone.png",0,0 R,0,120665,,1.919862 M,0,120665,121065,580,240,-218.7387,-50.71713
Sprite,Foreground,Centre,"sb\rs\bone.png",0,0 R,0,120765,,2.007129 M,0,120765,121165,580,240,-190.3616,-119.2255
Sprite,Foreground,Centre,"sb\rs\bone.png",0,0 R,0,120865,,2.094395 M,0,120865,121265,580,240,-156.1216,-185
Sprite,Foreground,Centre,"sb\rs\bone.png",0,0 R,0,120965,,2.181662 M,0,120965,121365,580,240,-116.2793,-247.54
Sprite,Foreground,Centre,"sb\rs\bone.png",0,0 R,0,121065,,2.268928 M,0,121065,121465,580,240,-71.13777,-306.3695
Sprite,Foreground,Centre,"sb\rs\bl\bl0.png",0,0 F,0,118365,,1 S,0,118365,,1.4 M,1,118365,119065,1145.685,-325.6854,580,240 R,0,118465,,-5.497787 F,0,119265,,0
Animation,Foreground,Centre,"sb\rs\bl\bl.png",580,240,6,30,LoopOnce S,0,119265,,1.4 R,0,119265,,-5.497787 R,0,119365,121165,7.068583,8.63938 M,2,121365,122065,580,240,1145.685,805.6854
Sprite,Foreground,Centre,"sb\rs\bone.png",0,0 R,0,119365,,-0.7853982 M,0,119365,119765,60,240,661.0408,841.0408
Sprite,Foreground,Centre,"sb\rs\bone.png",0,0 R,0,119465,,-0.8726646 M,0,119465,119865,60,240,711.1378,786.3695
Sprite,Foreground,Centre,"sb\rs\bone.png",0,0 R,0,119565,,-0.9599311 M,0,119565,119965,60,240,756.2792,727.54
Sprite,Foreground,Centre,"sb\rs\bone.png",0,0 R,0,119665,,-1.047198 M,0,119665,120065,60,240,796.1216,665
Sprite,Foreground,Centre,"sb\rs\bone.png",0,0 R,0,119765,,-1.134464 M,0,119765,120165,60,240,830.3616,599.2255
Sprite,Foreground,Centre,"sb\rs\bone.png",0,0 R,0,119865,,-1.22173 M,0,119865,120265,60,240,858.7387,530.7171
Sprite,Foreground,Centre,"sb\rs\bone.png",0,0 R,0,119965,,-1.308997 M,0,119965,120365,60,240,881.0369,459.9962
Sprite,Foreground,Centre,"sb\rs\bone.png",0,0 R,0,120065,,-1.396263 M,0,120065,120465,60,240,897.0865,387.601
Sprite,Foreground,Centre,"sb\rs\bone.png",0,0 R,0,120165,,-1.48353 M,0,120165,120565,60,240,906.7655,314.0824
Sprite,Foreground,Centre,"sb\rs\bone.png",0,0 R,0,120265,,-1.570796 M,0,120265,120665,60,240,910,240
Sprite,Foreground,Centre,"sb\rs\bone.png",0,0 R,0,120365,,-1.658063 M,0,120365,120765,60,240,906.7655,165.9176
Sprite,Foreground,Centre,"sb\rs\bone.png",0,0 R,0,120465,,-1.745329 M,0,120465,120865,60,240,897.0865,92.39905
Sprite,Foreground,Centre,"sb\rs\bone.png",0,0 R,0,120565,,-1.832596 M,0,120565,120965,60,240,881.0369,20.00381
Sprite,Foreground,Centre,"sb\rs\bone.png",0,0 R,0,120665,,-1.919862 M,0,120665,121065,60,240,858.7387,-50.71713
Sprite,Foreground,Centre,"sb\rs\bone.png",0,0 R,0,120765,,-2.007129 M,0,120765,121165,60,240,830.3616,-119.2255
Sprite,Foreground,Centre,"sb\rs\bone.png",0,0 R,0,120865,,-2.094395 M,0,120865,121265,60,240,796.1216,-185
Sprite,Foreground,Centre,"sb\rs\bone.png",0,0 R,0,120965,,-2.181662 M,0,120965,121365,60,240,756.2792,-247.54
Sprite,Foreground,Centre,"sb\rs\bone.png",0,0 R,0,121065,,-2.268928 M,0,121065,121465,60,240,711.1378,-306.3695
Sprite,Foreground,Centre,"sb\rs\bl\bl0.png",0,0 F,0,118365,,1 S,0,118365,,1.4 M,1,118365,119065,-505.6854,-325.6854,60,240 R,0,118465,,-0.7853982 F,0,119265,,0
Animation,Foreground,Centre,"sb\rs\bl\bl.png",60,240,6,30,LoopOnce S,0,119265,,1.4 R,0,119265,,-0.7853982 R,0,119365,121165,5.497787,3.926991 M,2,121365,122065,60,240,-505.6854,805.6854
Sprite,Foreground,Centre,"sb\rs\bone.png",0,0 R,0,121365,,3.926991 M,0,121365,121765,370,420,971.0408,-181.0408
Sprite,Foreground,Centre,"sb\rs\bone.png",0,0 R,0,121465,,3.839724 M,0,121465,121865,370,420,916.3695,-231.1378
Sprite,Foreground,Centre,"sb\rs\bone.png",0,0 R,0,121565,,3.752458 M,0,121565,121965,370,420,857.54,-276.2792
Sprite,Foreground,Centre,"sb\rs\bone.png",0,0 R,0,121665,,3.665191 M,0,121665,122065,370,420,795,-316.1216
Sprite,Foreground,Centre,"sb\rs\bone.png",0,0 R,0,121765,,3.577925 M,0,121765,122165,370,420,729.2255,-350.3616
Sprite,Foreground,Centre,"sb\rs\bone.png",0,0 R,0,121865,,3.490659 M,0,121865,122265,370,420,660.7171,-378.7387
Sprite,Foreground,Centre,"sb\rs\bone.png",0,0 R,0,121965,,3.403392 M,0,121965,122365,370,420,589.9962,-401.0369
Sprite,Foreground,Centre,"sb\rs\bone.png",0,0 R,0,122065,,3.316126 M,0,122065,122465,370,420,517.601,-417.0866
Sprite,Foreground,Centre,"sb\rs\bone.png",0,0 R,0,122165,,3.228859 M,0,122165,122565,370,420,444.0824,-426.7655
Sprite,Foreground,Centre,"sb\rs\bone.png",0,0 R,0,122265,,3.141593 M,0,122265,122665,370,420,370,-430
Sprite,Foreground,Centre,"sb\rs\bone.png",0,0 R,0,122365,,3.054326 M,0,122365,122765,370,420,295.9176,-426.7655
Sprite,Foreground,Centre,"sb\rs\bone.png",0,0 R,0,122465,,2.96706 M,0,122465,122865,370,420,222.399,-417.0866
Sprite,Foreground,Centre,"sb\rs\bone.png",0,0 R,0,122565,,2.879793 M,0,122565,122965,370,420,150.0038,-401.0369
Sprite,Foreground,Centre,"sb\rs\bone.png",0,0 R,0,122665,,2.792527 M,0,122665,123065,370,420,79.28287,-378.7387
Sprite,Foreground,Centre,"sb\rs\bone.png",0,0 R,0,122765,,2.70526 M,0,122765,123165,370,420,10.77447,-350.3616
Sprite,Foreground,Centre,"sb\rs\bone.png",0,0 R,0,122865,,2.617994 M,0,122865,123265,370,420,-55,-316.1216
Sprite,Foreground,Centre,"sb\rs\bone.png",0,0 R,0,122965,,2.530727 M,0,122965,123365,370,420,-117.54,-276.2792
Sprite,Foreground,Centre,"sb\rs\bone.png",0,0 R,0,123065,,2.443461 M,0,123065,123465,370,420,-176.3695,-231.1378
Sprite,Foreground,Centre,"sb\rs\bl\bl0.png",0,0 F,0,120365,,1 S,0,120365,,1.4 M,1,120365,121065,-195.6854,985.6854,370,420 R,0,120465,,-8.63938 F,0,121265,,0
Animation,Foreground,Centre,"sb\rs\bl\bl.png",370,420,6,30,LoopOnce S,0,121265,,1.4 R,0,121265,,-8.63938 R,0,121365,123165,10.21018,8.63938 M,2,123365,124065,370,420,935.6854,985.6854
Sprite,Foreground,Centre,"sb\rs\bone.png",0,0 R,0,121365,,2.356194 M,0,121365,121765,270,420,-331.0407,-181.0408
Sprite,Foreground,Centre,"sb\rs\bone.png",0,0 R,0,121465,,2.443461 M,0,121465,121865,270,420,-276.3695,-231.1378
Sprite,Foreground,Centre,"sb\rs\bone.png",0,0 R,0,121565,,2.530727 M,0,121565,121965,270,420,-217.54,-276.2792
Sprite,Foreground,Centre,"sb\rs\bone.png",0,0 R,0,121665,,2.617994 M,0,121665,122065,270,420,-155,-316.1216
Sprite,Foreground,Centre,"sb\rs\bone.png",0,0 R,0,121765,,2.70526 M,0,121765,122165,270,420,-89.22553,-350.3616
Sprite,Foreground,Centre,"sb\rs\bone.png",0,0 R,0,121865,,2.792527 M,0,121865,122265,270,420,-20.71713,-378.7387
Sprite,Foreground,Centre,"sb\rs\bone.png",0,0 R,0,121965,,2.879793 M,0,121965,122365,270,420,50.00381,-401.0369
Sprite,Foreground,Centre,"sb\rs\bone.png",0,0 R,0,122065,,2.96706 M,0,122065,122465,270,420,122.399,-417.0866
Sprite,Foreground,Centre,"sb\rs\bone.png",0,0 R,0,122165,,3.054326 M,0,122165,122565,270,420,195.9176,-426.7655
Sprite,Foreground,Centre,"sb\rs\bone.png",0,0 R,0,122265,,3.141593 M,0,122265,122665,270,420,270,-430
Sprite,Foreground,Centre,"sb\rs\bone.png",0,0 R,0,122365,,3.228859 M,0,122365,122765,270,420,344.0824,-426.7655
Sprite,Foreground,Centre,"sb\rs\bone.png",0,0 R,0,122465,,3.316126 M,0,122465,122865,270,420,417.601,-417.0866
Sprite,Foreground,Centre,"sb\rs\bone.png",0,0 R,0,122565,,3.403392 M,0,122565,122965,270,420,489.9962,-401.0369
Sprite,Foreground,Centre,"sb\rs\bone.png",0,0 R,0,122665,,3.490659 M,0,122665,123065,270,420,560.7171,-378.7387
Sprite,Foreground,Centre,"sb\rs\bone.png",0,0 R,0,122765,,3.577925 M,0,122765,123165,270,420,629.2255,-350.3616
Sprite,Foreground,Centre,"sb\rs\bone.png",0,0 R,0,122865,,3.665191 M,0,122865,123265,270,420,695,-316.1216
Sprite,Foreground,Centre,"sb\rs\bone.png",0,0 R,0,122965,,3.752458 M,0,122965,123365,270,420,757.54,-276.2792
Sprite,Foreground,Centre,"sb\rs\bone.png",0,0 R,0,123065,,3.839724 M,0,123065,123465,270,420,816.3695,-231.1378
Sprite,Foreground,Centre,"sb\rs\bl\bl0.png",0,0 F,0,120365,,1 S,0,120365,,1.4 M,1,120365,121065,835.6854,985.6854,270,420 R,0,120465,,-3.926991 F,0,121265,,0
Animation,Foreground,Centre,"sb\rs\bl\bl.png",270,420,6,30,LoopOnce S,0,121265,,1.4 R,0,121265,,-3.926991 R,0,121365,123165,8.63938,10.21018 M,2,123365,124065,270,420,-295.6854,985.6854
Sprite,Foreground,Centre,"sb\rs\bone.png",0,0 R,0,123365,,-0.7853982 M,0,123365,123765,370,60,971.0408,661.0408
Sprite,Foreground,Centre,"sb\rs\bone.png",0,0 R,0,123465,,-0.6981317 M,0,123465,123865,370,60,916.3695,711.1378
Sprite,Foreground,Centre,"sb\rs\bone.png",0,0 R,0,123565,,-0.6108652 M,0,123565,123965,370,60,857.54,756.2792
Sprite,Foreground,Centre,"sb\rs\bone.png",0,0 R,0,123665,,-0.5235988 M,0,123665,124065,370,60,795,796.1216
Sprite,Foreground,Centre,"sb\rs\bone.png",0,0 R,0,123765,,-0.4363323 M,0,123765,124165,370,60,729.2255,830.3616
Sprite,Foreground,Centre,"sb\rs\bone.png",0,0 R,0,123865,,-0.3490658 M,0,123865,124265,370,60,660.7171,858.7387
Sprite,Foreground,Centre,"sb\rs\bone.png",0,0 R,0,123965,,-0.2617994 M,0,123965,124365,370,60,589.9962,881.0369
Sprite,Foreground,Centre,"sb\rs\bone.png",0,0 R,0,124065,,-0.1745329 M,0,124065,124465,370,60,517.601,897.0865
Sprite,Foreground,Centre,"sb\rs\bone.png",0,0 R,0,124165,,-0.08726646 M,0,124165,124565,370,60,444.0824,906.7655
Sprite,Foreground,Centre,"sb\rs\bone.png",0,0 R,0,124265,,0 M,0,124265,124665,370,60,370,910
Sprite,Foreground,Centre,"sb\rs\bone.png",0,0 R,0,124365,,0.08726646 M,0,124365,124765,370,60,295.9176,906.7655
Sprite,Foreground,Centre,"sb\rs\bone.png",0,0 R,0,124465,,0.1745329 M,0,124465,124865,370,60,222.399,897.0865
Sprite,Foreground,Centre,"sb\rs\bone.png",0,0 R,0,124565,,0.2617994 M,0,124565,124965,370,60,150.0038,881.0369
Sprite,Foreground,Centre,"sb\rs\bone.png",0,0 R,0,124665,,0.3490658 M,0,124665,125065,370,60,79.28287,858.7387
Sprite,Foreground,Centre,"sb\rs\bone.png",0,0 R,0,124765,,0.4363323 M,0,124765,125165,370,60,10.77447,830.3616
Sprite,Foreground,Centre,"sb\rs\bone.png",0,0 R,0,124865,,0.5235988 M,0,124865,125265,370,60,-55,796.1216
Sprite,Foreground,Centre,"sb\rs\bone.png",0,0 R,0,124965,,0.6108652 M,0,124965,125365,370,60,-117.54,756.2792
Sprite,Foreground,Centre,"sb\rs\bone.png",0,0 R,0,125065,,0.6981317 M,0,125065,125465,370,60,-176.3695,711.1378
Sprite,Foreground,Centre,"sb\rs\bl\bl0.png",0,0 F,0,122365,,1 S,0,122365,,1.4 M,1,122365,123065,-195.6854,-505.6854,370,60 R,0,122465,,-0.7853982 F,0,123265,,0
Animation,Foreground,Centre,"sb\rs\bl\bl.png",370,60,6,30,LoopOnce S,0,123265,,1.4 R,0,123265,,-0.7853982 R,0,123365,125165,5.497787,7.068583 M,2,125365,126065,370,60,935.6854,-505.6854
Sprite,Foreground,Centre,"sb\rs\bone.png",0,0 R,0,123365,,0.7853982 M,0,123365,123765,270,60,-331.0407,661.0408
Sprite,Foreground,Centre,"sb\rs\bone.png",0,0 R,0,123465,,0.6981317 M,0,123465,123865,270,60,-276.3695,711.1378
Sprite,Foreground,Centre,"sb\rs\bone.png",0,0 R,0,123565,,0.6108652 M,0,123565,123965,270,60,-217.54,756.2792
Sprite,Foreground,Centre,"sb\rs\bone.png",0,0 R,0,123665,,0.5235988 M,0,123665,124065,270,60,-155,796.1216
Sprite,Foreground,Centre,"sb\rs\bone.png",0,0 R,0,123765,,0.4363323 M,0,123765,124165,270,60,-89.22553,830.3616
Sprite,Foreground,Centre,"sb\rs\bone.png",0,0 R,0,123865,,0.3490658 M,0,123865,124265,270,60,-20.71713,858.7387
Sprite,Foreground,Centre,"sb\rs\bone.png",0,0 R,0,123965,,0.2617994 M,0,123965,124365,270,60,50.00381,881.0369
Sprite,Foreground,Centre,"sb\rs\bone.png",0,0 R,0,124065,,0.1745329 M,0,124065,124465,270,60,122.399,897.0865
Sprite,Foreground,Centre,"sb\rs\bone.png",0,0 R,0,124165,,0.08726646 M,0,124165,124565,270,60,195.9176,906.7655
Sprite,Foreground,Centre,"sb\rs\bone.png",0,0 R,0,124265,,0 M,0,124265,124665,270,60,270,910
Sprite,Foreground,Centre,"sb\rs\bone.png",0,0 R,0,124365,,-0.08726646 M,0,124365,124765,270,60,344.0824,906.7655
Sprite,Foreground,Centre,"sb\rs\bone.png",0,0 R,0,124465,,-0.1745329 M,0,124465,124865,270,60,417.601,897.0865
Sprite,Foreground,Centre,"sb\rs\bone.png",0,0 R,0,124565,,-0.2617994 M,0,124565,124965,270,60,489.9962,881.0369
Sprite,Foreground,Centre,"sb\rs\bone.png",0,0 R,0,124665,,-0.3490658 M,0,124665,125065,270,60,560.7171,858.7387
Sprite,Foreground,Centre,"sb\rs\bone.png",0,0 R,0,124765,,-0.4363323 M,0,124765,125165,270,60,629.2255,830.3616
Sprite,Foreground,Centre,"sb\rs\bone.png",0,0 R,0,124865,,-0.5235988 M,0,124865,125265,270,60,695,796.1216
Sprite,Foreground,Centre,"sb\rs\bone.png",0,0 R,0,124965,,-0.6108652 M,0,124965,125365,270,60,757.54,756.2792
Sprite,Foreground,Centre,"sb\rs\bone.png",0,0 R,0,125065,,-0.6981317 M,0,125065,125465,270,60,816.3695,711.1378
Sprite,Foreground,Centre,"sb\rs\bl\bl0.png",0,0 F,0,122365,,1 S,0,122365,,1.4 M,1,122365,123065,835.6854,-505.6854,270,60 R,0,122465,,-5.497787 F,0,123265,,0
Animation,Foreground,Centre,"sb\rs\bl\bl.png",270,60,6,30,LoopOnce S,0,123265,,1.4 R,0,123265,,-5.497787 R,0,123365,125165,7.068583,5.497787 M,2,125365,126065,270,60,-295.6854,-505.6854
Sprite,Foreground,Centre,"sb\rs\bone.png",0,0 R,0,125365,,-0.7853982 M,0,125365,125765,60,240,661.0408,841.0408
Sprite,Foreground,Centre,"sb\rs\bone.png",0,0 R,0,125465,,-0.8726646 M,0,125465,125865,60,240,711.1378,786.3695
Sprite,Foreground,Centre,"sb\rs\bone.png",0,0 R,0,125565,,-0.9599311 M,0,125565,125965,60,240,756.2792,727.54
Sprite,Foreground,Centre,"sb\rs\bone.png",0,0 R,0,125665,,-1.047198 M,0,125665,126065,60,240,796.1216,665
Sprite,Foreground,Centre,"sb\rs\bone.png",0,0 R,0,125765,,-1.134464 M,0,125765,126165,60,240,830.3616,599.2255
Sprite,Foreground,Centre,"sb\rs\bone.png",0,0 R,0,125865,,-1.22173 M,0,125865,126265,60,240,858.7387,530.7171
Sprite,Foreground,Centre,"sb\rs\bone.png",0,0 R,0,125965,,-1.308997 M,0,125965,126365,60,240,881.0369,459.9962
Sprite,Foreground,Centre,"sb\rs\bone.png",0,0 R,0,126065,,-1.396263 M,0,126065,126465,60,240,897.0865,387.601
Sprite,Foreground,Centre,"sb\rs\bone.png",0,0 R,0,126165,,-1.48353 M,0,126165,126565,60,240,906.7655,314.0824
Sprite,Foreground,Centre,"sb\rs\bone.png",0,0 R,0,126265,,-1.570796 M,0,126265,126665,60,240,910,240
Sprite,Foreground,Centre,"sb\rs\bone.png",0,0 R,0,126365,,-1.658063 M,0,126365,126765,60,240,906.7655,165.9176
Sprite,Foreground,Centre,"sb\rs\bone.png",0,0 R,0,126465,,-1.745329 M,0,126465,126865,60,240,897.0865,92.39905
Sprite,Foreground,Centre,"sb\rs\bone.png",0,0 R,0,126565,,-1.832596 M,0,126565,126965,60,240,881.0369,20.00381
Sprite,Foreground,Centre,"sb\rs\bone.png",0,0 R,0,126665,,-1.919862 M,0,126665,127065,60,240,858.7387,-50.71713
Sprite,Foreground,Centre,"sb\rs\bone.png",0,0 R,0,126765,,-2.007129 M,0,126765,127165,60,240,830.3616,-119.2255
Sprite,Foreground,Centre,"sb\rs\bone.png",0,0 R,0,126865,,-2.094395 M,0,126865,127265,60,240,796.1216,-185
Sprite,Foreground,Centre,"sb\rs\bone.png",0,0 R,0,126965,,-2.181662 M,0,126965,127365,60,240,756.2792,-247.54
Sprite,Foreground,Centre,"sb\rs\bone.png",0,0 R,0,127065,,-2.268928 M,0,127065,127465,60,240,711.1378,-306.3695
Sprite,Foreground,Centre,"sb\rs\bl\bl0.png",0,0 F,0,124365,,1 S,0,124365,,1.4 M,1,124365,125065,-505.6854,-325.6854,60,240 R,0,124465,,-0.7853982 F,0,125265,,0
Animation,Foreground,Centre,"sb\rs\bl\bl.png",60,240,6,30,LoopOnce S,0,125265,,1.4 R,0,125265,,-0.7853982 R,0,125365,127165,5.497787,3.926991 M,2,127365,128065,60,240,-505.6854,805.6854
Sprite,Foreground,Centre,"sb\rs\bone.png",0,0 R,0,125365,,0.7853982 M,0,125365,125765,580,240,-21.04075,841.0408
Sprite,Foreground,Centre,"sb\rs\bone.png",0,0 R,0,125465,,0.8726646 M,0,125465,125865,580,240,-71.13777,786.3695
Sprite,Foreground,Centre,"sb\rs\bone.png",0,0 R,0,125565,,0.9599311 M,0,125565,125965,580,240,-116.2793,727.54
Sprite,Foreground,Centre,"sb\rs\bone.png",0,0 R,0,125665,,1.047198 M,0,125665,126065,580,240,-156.1216,665
Sprite,Foreground,Centre,"sb\rs\bone.png",0,0 R,0,125765,,1.134464 M,0,125765,126165,580,240,-190.3616,599.2255
Sprite,Foreground,Centre,"sb\rs\bone.png",0,0 R,0,125865,,1.22173 M,0,125865,126265,580,240,-218.7387,530.7171
Sprite,Foreground,Centre,"sb\rs\bone.png",0,0 R,0,125965,,1.308997 M,0,125965,126365,580,240,-241.0369,459.9962
Sprite,Foreground,Centre,"sb\rs\bone.png",0,0 R,0,126065,,1.396263 M,0,126065,126465,580,240,-257.0866,387.601
Sprite,Foreground,Centre,"sb\rs\bone.png",0,0 R,0,126165,,1.48353 M,0,126165,126565,580,240,-266.7655,314.0824
Sprite,Foreground,Centre,"sb\rs\bone.png",0,0 R,0,126265,,1.570796 M,0,126265,126665,580,240,-270,240
Sprite,Foreground,Centre,"sb\rs\bone.png",0,0 R,0,126365,,1.658063 M,0,126365,126765,580,240,-266.7655,165.9176
Sprite,Foreground,Centre,"sb\rs\bone.png",0,0 R,0,126465,,1.745329 M,0,126465,126865,580,240,-257.0866,92.39905
Sprite,Foreground,Centre,"sb\rs\bone.png",0,0 R,0,126565,,1.832596 M,0,126565,126965,580,240,-241.0369,20.00381
Sprite,Foreground,Centre,"sb\rs\bone.png",0,0 R,0,126665,,1.919862 M,0,126665,127065,580,240,-218.7387,-50.71713
Sprite,Foreground,Centre,"sb\rs\bone.png",0,0 R,0,126765,,2.007129 M,0,126765,127165,580,240,-190.3616,-119.2255
Sprite,Foreground,Centre,"sb\rs\bone.png",0,0 R,0,126865,,2.094395 M,0,126865,127265,580,240,-156.1216,-185
Sprite,Foreground,Centre,"sb\rs\bone.png",0,0 R,0,126965,,2.181662 M,0,126965,127365,580,240,-116.2793,-247.54
Sprite,Foreground,Centre,"sb\rs\bone.png",0,0 R,0,127065,,2.268928 M,0,127065,127465,580,240,-71.13777,-306.3695
Sprite,Foreground,Centre,"sb\rs\bl\bl0.png",0,0 F,0,124365,,1 S,0,124365,,1.4 M,1,124365,125065,1145.685,-325.6854,580,240 R,0,124465,,-5.497787 F,0,125265,,0
Animation,Foreground,Centre,"sb\rs\bl\bl.png",580,240,6,30,LoopOnce S,0,125265,,1.4 R,0,125265,,-5.497787 R,0,125365,127165,7.068583,8.63938 M,2,127365,128065,580,240,1145.685,805.6854
Sprite,Foreground,TopCentre,"sb\pixel.png",0,0 R,0,59366,,4.712389 V,1,59366,59566,0,800,42,800 V,2,59566,59766,42,800,0,800 M,2,59566,60266,77,224,-723,223
Sprite,Foreground,Centre,"sb\rs\bl\bl0.png",0,0 F,0,58366,,1 S,0,58366,,1.4 M,1,58366,59066,-723,223,77,224 R,0,58466,,4.712389 F,0,59266,,0
Animation,Foreground,Centre,"sb\rs\bl\bl.png",77,224,6,30,LoopOnce S,0,59266,,1.4 R,0,59266,,4.712389 M,2,59566,60266,77,224,-723,223
Sprite,Foreground,TopCentre,"sb\pixel.png",0,0 R,0,61366,,1.570796 V,1,61366,61566,0,800,42,800 V,2,61566,61766,42,800,0,800 M,2,61566,62266,468,214,1268,214
Sprite,Foreground,Centre,"sb\rs\bl\bl0.png",0,0 F,0,60366,,1 S,0,60366,,1.4 M,1,60366,61066,1268,214,468,214 R,0,60466,,1.570796 F,0,61266,,0
Animation,Foreground,Centre,"sb\rs\bl\bl.png",468,214,6,30,LoopOnce S,0,61266,,1.4 R,0,61266,,1.570796 M,2,61566,62266,468,214,1268,214
Sprite,Foreground,TopCentre,"sb\pixel.png",0,0 R,0,63366,,1.570796 V,1,63366,63566,0,800,42,800 V,2,63566,63766,42,800,0,800 M,2,63566,64266,533,311,1333,311
Sprite,Foreground,Centre,"sb\rs\bl\bl0.png",0,0 F,0,62366,,1 S,0,62366,,1.4 M,1,62366,63066,1333,311,533,311 R,0,62466,,1.570796 F,0,63266,,0
Animation,Foreground,Centre,"sb\rs\bl\bl.png",533,311,6,30,LoopOnce S,0,63266,,1.4 R,0,63266,,1.570796 M,2,63566,64266,533,311,1333,311
Sprite,Foreground,TopCentre,"sb\pixel.png",0,0 R,0,65366,,1.570796 V,1,65366,65566,0,800,42,800 V,2,65566,65766,42,800,0,800 M,2,65566,66266,493,95,1293,95
Sprite,Foreground,Centre,"sb\rs\bl\bl0.png",0,0 F,0,64366,,1 S,0,64366,,1.4 M,1,64366,65066,1293,95,493,95 R,0,64466,,1.570796 F,0,65266,,0
Animation,Foreground,Centre,"sb\rs\bl\bl.png",493,95,6,30,LoopOnce S,0,65266,,1.4 R,0,65266,,1.570796 M,2,65566,66266,493,95,1293,95
Sprite,Foreground,TopCentre,"sb\pixel.png",0,0 R,0,67366,,1.570796 V,1,67366,67566,0,800,42,800 V,2,67566,67766,42,800,0,800 M,2,67566,68266,544,431,1344,431
Sprite,Foreground,Centre,"sb\rs\bl\bl0.png",0,0 F,0,66366,,1 S,0,66366,,1.4 M,1,66366,67066,1344,431,544,431 R,0,66466,,1.570796 F,0,67266,,0
Animation,Foreground,Centre,"sb\rs\bl\bl.png",544,431,6,30,LoopOnce S,0,67266,,1.4 R,0,67266,,1.570796 M,2,67566,68266,544,431,1344,431
Sprite,Foreground,TopCentre,"sb\pixel.png",0,0 R,0,59366,,3.926991 V,1,59366,59566,0,800,42,800 V,2,59566,59766,42,800,0,800 M,2,59566,60266,165,436,-400,1001
Sprite,Foreground,Centre,"sb\rs\bl\bl0.png",0,0 F,0,58366,,1 S,0,58366,,1.4 M,1,58366,59066,-400,1001,165,436 R,0,58466,,3.926991 F,0,59266,,0
Animation,Foreground,Centre,"sb\rs\bl\bl.png",165,436,6,30,LoopOnce S,0,59266,,1.4 R,0,59266,,3.926991 M,2,59566,60266,165,436,-400,1001
Sprite,Foreground,TopCentre,"sb\pixel.png",0,0 R,0,61366,,2.356194 V,1,61366,61566,0,800,42,800 V,2,61566,61766,42,800,0,800 M,2,61566,62266,380,426,945,991
Sprite,Foreground,Centre,"sb\rs\bl\bl0.png",0,0 F,0,60366,,1 S,0,60366,,1.4 M,1,60366,61066,945,991,380,426 R,0,60466,,2.356194 F,0,61266,,0
Animation,Foreground,Centre,"sb\rs\bl\bl.png",380,426,6,30,LoopOnce S,0,61266,,1.4 R,0,61266,,2.356194 M,2,61566,62266,380,426,945,991
Sprite,Foreground,TopCentre,"sb\pixel.png",0,0 R,0,63366,,0.7853982 V,1,63366,63566,0,800,42,800 V,2,63566,63766,42,800,0,800 M,2,63566,64266,445,99,1010,-466
Sprite,Foreground,Centre,"sb\rs\bl\bl0.png",0,0 F,0,62366,,1 S,0,62366,,1.4 M,1,62366,63066,1010,-466,445,99 R,0,62466,,0.7853982 F,0,63266,,0
Animation,Foreground,Centre,"sb\rs\bl\bl.png",445,99,6,30,LoopOnce S,0,63266,,1.4 R,0,63266,,0.7853982 M,2,63566,64266,445,99,1010,-466
Sprite,Foreground,TopCentre,"sb\pixel.png",0,0 R,0,65366,,2.356194 V,1,65366,65566,0,800,42,800 V,2,65566,65766,42,800,0,800 M,2,65566,66266,405,307,970,872
Sprite,Foreground,Centre,"sb\rs\bl\bl0.png",0,0 F,0,64366,,1 S,0,64366,,1.4 M,1,64366,65066,970,872,405,307 R,0,64466,,2.356194 F,0,65266,,0
Animation,Foreground,Centre,"sb\rs\bl\bl.png",405,307,6,30,LoopOnce S,0,65266,,1.4 R,0,65266,,2.356194 M,2,65566,66266,405,307,970,872
Sprite,Foreground,TopCentre,"sb\pixel.png",0,0 R,0,67366,,0.7853982 V,1,67366,67566,0,800,42,800 V,2,67566,67766,42,800,0,800 M,2,67566,68266,456,219,1021,-346
Sprite,Foreground,Centre,"sb\rs\bl\bl0.png",0,0 F,0,66366,,1 S,0,66366,,1.4 M,1,66366,67066,1021,-346,456,219 R,0,66466,,0.7853982 F,0,67266,,0
Animation,Foreground,Centre,"sb\rs\bl\bl.png",456,219,6,30,LoopOnce S,0,67266,,1.4 R,0,67266,,0.7853982 M,2,67566,68266,456,219,1021,-346
Sprite,Foreground,TopCentre,"sb\pixel.png",0,0 R,0,51366,,3.141593 V,1,51366,51566,0,800,42,800 V,2,51566,51766,42,800,0,800 M,2,51566,52266,238,449,237,1249
Sprite,Foreground,Centre,"sb\rs\bl\bl0.png",0,0 F,0,50366,,1 S,0,50366,,1.4 M,1,50366,51066,237,1249,238,449 R,0,50466,,3.141593 F,0,51266,,0
Animation,Foreground,Centre,"sb\rs\bl\bl.png",238,449,6,30,LoopOnce S,0,51266,,1.4 R,0,51266,,3.141593 M,2,51566,52266,238,449,237,1249
Sprite,Foreground,TopCentre,"sb\pixel.png",0,0 R,0,53366,,3.141593 V,1,53366,53566,0,800,42,800 V,2,53566,53766,42,800,0,800 M,2,53566,54266,268,382,267,1182
Sprite,Foreground,Centre,"sb\rs\bl\bl0.png",0,0 F,0,52366,,1 S,0,52366,,1.4 M,1,52366,53066,267,1182,268,382 R,0,52466,,3.141593 F,0,53266,,0
Animation,Foreground,Centre,"sb\rs\bl\bl.png",268,382,6,30,LoopOnce S,0,53266,,1.4 R,0,53266,,3.141593 M,2,53566,54266,268,382,267,1182
Sprite,Foreground,TopCentre,"sb\pixel.png",0,0 R,0,55366,,3.141593 V,1,55366,55566,0,800,42,800 V,2,55566,55766,42,800,0,800 M,2,55566,56266,307,312,306,1112
Sprite,Foreground,Centre,"sb\rs\bl\bl0.png",0,0 F,0,54366,,1 S,0,54366,,1.4 M,1,54366,55066,306,1112,307,312 R,0,54466,,3.141593 F,0,55266,,0
Animation,Foreground,Centre,"sb\rs\bl\bl.png",307,312,6,30,LoopOnce S,0,55266,,1.4 R,0,55266,,3.141593 M,2,55566,56266,307,312,306,1112
Sprite,Foreground,TopCentre,"sb\pixel.png",0,0 R,0,57366,,3.141593 V,1,57366,57566,0,800,42,800 V,2,57566,57766,42,800,0,800 M,2,57566,58266,195,404,194,1204
Sprite,Foreground,Centre,"sb\rs\bl\bl0.png",0,0 F,0,56366,,1 S,0,56366,,1.4 M,1,56366,57066,194,1204,195,404 R,0,56466,,3.141593 F,0,57266,,0
Animation,Foreground,Centre,"sb\rs\bl\bl.png",195,404,6,30,LoopOnce S,0,57266,,1.4 R,0,57266,,3.141593 M,2,57566,58266,195,404,194,1204
Sprite,Foreground,TopCentre,"sb\pixel.png",0,0 R,0,51366,,2.356194 V,1,51366,51566,0,800,42,800 V,2,51566,51766,42,800,0,800 M,2,51566,52266,397,383,962,948
Sprite,Foreground,Centre,"sb\rs\bl\bl0.png",0,0 F,0,50366,,1 S,0,50366,,1.4 M,1,50366,51066,962,948,397,383 R,0,50466,,2.356194 F,0,51266,,0
Animation,Foreground,Centre,"sb\rs\bl\bl.png",397,383,6,30,LoopOnce S,0,51266,,1.4 R,0,51266,,2.356194 M,2,51566,52266,397,383,962,948
Sprite,Foreground,TopCentre,"sb\pixel.png",0,0 R,0,53366,,2.356194 V,1,53366,53566,0,800,42,800 V,2,53566,53766,42,800,0,800 M,2,53566,54266,427,316,992,881
Sprite,Foreground,Centre,"sb\rs\bl\bl0.png",0,0 F,0,52366,,1 S,0,52366,,1.4 M,1,52366,53066,992,881,427,316 R,0,52466,,2.356194 F,0,53266,,0
Animation,Foreground,Centre,"sb\rs\bl\bl.png",427,316,6,30,LoopOnce S,0,53266,,1.4 R,0,53266,,2.356194 M,2,53566,54266,427,316,992,881
Sprite,Foreground,TopCentre,"sb\pixel.png",0,0 R,0,55366,,2.356194 V,1,55366,55566,0,800,42,800 V,2,55566,55766,42,800,0,800 M,2,55566,56266,466,246,1031,811
Sprite,Foreground,Centre,"sb\rs\bl\bl0.png",0,0 F,0,54366,,1 S,0,54366,,1.4 M,1,54366,55066,1031,811,466,246 R,0,54466,,2.356194 F,0,55266,,0
Animation,Foreground,Centre,"sb\rs\bl\bl.png",466,246,6,30,LoopOnce S,0,55266,,1.4 R,0,55266,,2.356194 M,2,55566,56266,466,246,1031,811
Sprite,Foreground,TopCentre,"sb\pixel.png",0,0 R,0,57366,,2.356194 V,1,57366,57566,0,800,42,800 V,2,57566,57766,42,800,0,800 M,2,57566,58266,354,338,919,903
Sprite,Foreground,Centre,"sb\rs\bl\bl0.png",0,0 F,0,56366,,1 S,0,56366,,1.4 M,1,56366,57066,919,903,354,338 R,0,56466,,2.356194 F,0,57266,,0
Animation,Foreground,Centre,"sb\rs\bl\bl.png",354,338,6,30,LoopOnce S,0,57266,,1.4 R,0,57266,,2.356194 M,2,57566,58266,354,338,919,903
Sprite,Foreground,TopLeft,"sb\pixel.png",40,340 F,0,865,,1 C,0,865,,255,255,255 V,0,865,,560,120 F,0,12553,,0 F,0,12803,,1 F,0,19365,,0
Sprite,Foreground,TopLeft,"sb\pixel.png",45,345 F,0,865,,1 C,0,865,,0,0,0 V,0,865,,550,110 F,0,12553,,0 F,0,12803,,1 F,0,19365,,0
Sprite,Foreground,Centre,"sb\rs\asterisk.jpg",210,375 F,0,865,,1 S,0,865,,0.3 F,0,12553,,0 F,0,12803,,1 F,0,19365,,0
Sprite,Foreground,Centre,"sb\rs\sans\closed.png",130,400 F,0,865,,1 S,0,865,,0.6 F,0,12553,,0
Sprite,Foreground,Centre,"sb\rs\sans\noeyes.png",130,400 F,0,12803,,1 S,0,12803,,0.6 F,0,19365,,0
Sprite,Foreground,Centre,"sb\f\006d.png",248,386.25 F,0,1177,,0 F,0,1178,,1 S,0,1178,,0.5 F,0,5240,,0
Sprite,Foreground,Centre,"sb\f\0065.png",265.5,386.25 F,0,1177,,0 S,0,1178,,0.5 F,0,1234,,1 F,0,5240,,0
Sprite,Foreground,Centre,"sb\f\0067.png",281,390 F,0,1177,,0 S,0,1178,,0.5 F,0,1290,,1 F,0,5240,,0
Sprite,Foreground,Centre,"sb\f\0061.png",296.5,386.25 F,0,1177,,0 S,0,1178,,0.5 F,0,1346,,1 F,0,5240,,0
Sprite,Foreground,Centre,"sb\f\006c.png",308.25,383.25 F,0,1177,,0 S,0,1178,,0.5 F,0,1402,,1 F,0,5240,,0
Sprite,Foreground,Centre,"sb\f\006f.png",320,386.25 F,0,1177,,0 S,0,1178,,0.5 F,0,1458,,1 F,0,5240,,0
Sprite,Foreground,Centre,"sb\f\0076.png",335.5,386.25 F,0,1177,,0 S,0,1178,,0.5 F,0,1514,,1 F,0,5240,,0
Sprite,Foreground,Centre,"sb\f\0061.png",351,386.25 F,0,1177,,0 S,0,1178,,0.5 F,0,1570,,1 F,0,5240,,0
Sprite,Foreground,Centre,"sb\f\006e.png",366.5,386.25 F,0,1177,,0 S,0,1178,,0.5 F,0,1626,,1 F,0,5240,,0
Sprite,Foreground,Centre,"sb\f\0069.png",378.25,383.25 F,0,1177,,0 S,0,1178,,0.5 F,0,1682,,1 F,0,5240,,0
Sprite,Foreground,Centre,"sb\f\0061.png",390,386.25 F,0,1177,,0 S,0,1178,,0.5 F,0,1738,,1 F,0,5240,,0
Sprite,Foreground,Centre,"sb\f\0074.png",246,415.25 F,0,1177,,0 S,0,1178,,0.5 F,0,1850,,1 F,0,5240,,0
Sprite,Foreground,Centre,"sb\f\006f.png",261.5,417.25 F,0,1177,,0 S,0,1178,,0.5 F,0,1906,,1 F,0,5240,,0
Sprite,Foreground,Centre,"sb\f\0062.png",277,414.25 F,0,1177,,0 S,0,1178,,0.5 F,0,1962,,1 F,0,5240,,0
Sprite,Foreground,Centre,"sb\f\0079.png",293.5,421 F,0,1177,,0 S,0,1178,,0.5 F,0,2018,,1 F,0,5240,,0
Sprite,Foreground,Centre,"sb\f\0066.png",320,415.25 F,0,1177,,0 S,0,1178,,0.5 F,0,2130,,1 F,0,5240,,0
Sprite,Foreground,Centre,"sb\f\006f.png",335.5,417.25 F,0,1177,,0 S,0,1178,,0.5 F,0,2186,,1 F,0,5240,,0
Sprite,Foreground,Centre,"sb\f\0078.png",352,417.25 F,0,1177,,0 S,0,1178,,0.5 F,0,2242,,1 F,0,5240,,0
Sprite,Foreground,Centre,"sb\f\0026.png",381.5,414.25 F,0,1177,,0 S,0,1178,,0.5 F,0,2354,,1 F,0,5240,,0
Sprite,Foreground,Centre,"sb\f\0072.png",408,417.25 F,0,1177,,0 S,0,1178,,0.5 F,0,2466,,1 F,0,5240,,0
Sprite,Foreground,Centre,"sb\f\0069.png",419.75,414.25 F,0,1177,,0 S,0,1178,,0.5 F,0,2522,,1 F,0,5240,,0
Sprite,Foreground,Centre,"sb\f\0063.png",431.5,417.25 F,0,1177,,0 S,0,1178,,0.5 F,0,2578,,1 F,0,5240,,0
Sprite,Foreground,Centre,"sb\f\0068.png",447,414.25 F,0,1177,,0 S,0,1178,,0.5 F,0,2634,,1 F,0,5240,,0
Sprite,Foreground,Centre,"sb\f\0061.png",462.5,417.25 F,0,1177,,0 S,0,1178,,0.5 F,0,2690,,1 F,0,5240,,0
Sprite,Foreground,Centre,"sb\f\0061.png",478,417.25 F,0,1177,,0 S,0,1178,,0.5 F,0,2746,,1 F,0,5240,,0
Sprite,Foreground,Centre,"sb\f\0064.png",494.5,414.25 F,0,1177,,0 S,0,1178,,0.5 F,0,2802,,1 F,0,5240,,0
Sprite,Foreground,Centre,"sb\f\0065.png",511,417.25 F,0,1177,,0 S,0,1178,,0.5 F,0,2858,,1 F,0,5240,,0
Sprite,Foreground,Centre,"sb\f\0062.png",526.5,414.25 F,0,1177,,0 S,0,1178,,0.5 F,0,2914,,1 F,0,5240,,0
Sprite,Foreground,Centre,"sb\f\006d.png",248,386.25 F,0,5489,,0 F,0,5490,,1 S,0,5490,,0.5 F,0,6740,,0
Sprite,Foreground,Centre,"sb\f\0061.png",265.5,386.25 F,0,5489,,0 S,0,5490,,0.5 F,0,5541,,1 F,0,6740,,0
Sprite,Foreground,Centre,"sb\f\0070.png",281,390 F,0,5489,,0 S,0,5490,,0.5 F,0,5592,,1 F,0,6740,,0
Sprite,Foreground,Centre,"sb\f\0073.png",295.5,386.25 F,0,5489,,0 S,0,5490,,0.5 F,0,5643,,1 F,0,6740,,0
Sprite,Foreground,Centre,"sb\f\0065.png",310,386.25 F,0,5489,,0 S,0,5490,,0.5 F,0,5694,,1 F,0,6740,,0
Sprite,Foreground,Centre,"sb\f\0074.png",325.5,384.25 F,0,5489,,0 S,0,5490,,0.5 F,0,5745,,1 F,0,6740,,0
Sprite,Foreground,Centre,"sb\f\0062.png",351,383.25 F,0,5489,,0 S,0,5490,,0.5 F,0,5847,,1 F,0,6740,,0
Sprite,Foreground,Centre,"sb\f\0079.png",367.5,390 F,0,5489,,0 S,0,5490,,0.5 F,0,5898,,1 F,0,6740,,0
Sprite,Foreground,Centre,"sb\f\0066.png",246,415.25 F,0,5489,,0 S,0,5490,,0.5 F,0,6000,,1 F,0,6740,,0
Sprite,Foreground,Centre,"sb\f\0061.png",261.5,417.25 F,0,5489,,0 S,0,5490,,0.5 F,0,6051,,1 F,0,6740,,0
Sprite,Foreground,Centre,"sb\f\0074.png",277,415.25 F,0,5489,,0 S,0,5490,,0.5 F,0,6102,,1 F,0,6740,,0
Sprite,Foreground,Centre,"sb\f\0066.png",292.5,415.25 F,0,5489,,0 S,0,5490,,0.5 F,0,6153,,1 F,0,6740,,0
Sprite,Foreground,Centre,"sb\f\0061.png",308,417.25 F,0,5489,,0 S,0,5490,,0.5 F,0,6204,,1 F,0,6740,,0
Sprite,Foreground,Centre,"sb\f\006e.png",323.5,417.25 F,0,5489,,0 S,0,5490,,0.5 F,0,6255,,1 F,0,6740,,0
Sprite,Foreground,Centre,"sb\f\006b.png",349,414.25 F,0,5489,,0 S,0,5490,,0.5 F,0,6357,,1 F,0,6740,,0
Sprite,Foreground,Centre,"sb\f\006f.png",364.5,417.25 F,0,5489,,0 S,0,5490,,0.5 F,0,6408,,1 F,0,6740,,0
Sprite,Foreground,Centre,"sb\f\006c.png",376.25,414.25 F,0,5489,,0 S,0,5490,,0.5 F,0,6459,,1 F,0,6740,,0
Sprite,Foreground,Centre,"sb\f\0065.png",388,417.25 F,0,5489,,0 S,0,5490,,0.5 F,0,6510,,1 F,0,6740,,0
Sprite,Foreground,Centre,"sb\f\006b.png",403.5,414.25 F,0,5489,,0 S,0,5490,,0.5 F,0,6561,,1 F,0,6740,,0
Sprite,Foreground,Centre,"sb\f\0064.png",247,383.25 F,0,6989,,0 F,0,6990,,1 S,0,6990,,0.5 F,0,8990,,0
Sprite,Foreground,Centre,"sb\f\0069.png",259.75,383.25 F,0,6989,,0 S,0,6990,,0.5 F,0,7047,,1 F,0,8990,,0
Sprite,Foreground,Centre,"sb\f\0066.png",271.5,384.25 F,0,6989,,0 S,0,6990,,0.5 F,0,7104,,1 F,0,8990,,0
Sprite,Foreground,Centre,"sb\f\0066.png",287,384.25 F,0,6989,,0 S,0,6990,,0.5 F,0,7161,,1 F,0,8990,,0
Sprite,Foreground,Centre,"sb\f\0069.png",298.75,383.25 F,0,6989,,0 S,0,6990,,0.5 F,0,7218,,1 F,0,8990,,0
Sprite,Foreground,Centre,"sb\f\0063.png",310.5,386.25 F,0,6989,,0 S,0,6990,,0.5 F,0,7275,,1 F,0,8990,,0
Sprite,Foreground,Centre,"sb\f\0075.png",326,386.25 F,0,6989,,0 S,0,6990,,0.5 F,0,7332,,1 F,0,8990,,0
Sprite,Foreground,Centre,"sb\f\006c.png",337.75,383.25 F,0,6989,,0 S,0,6990,,0.5 F,0,7389,,1 F,0,8990,,0
Sprite,Foreground,Centre,"sb\f\0074.png",349.5,384.25 F,0,6989,,0 S,0,6990,,0.5 F,0,7446,,1 F,0,8990,,0
Sprite,Foreground,Centre,"sb\f\0079.png",366,390 F,0,6989,,0 S,0,6990,,0.5 F,0,7503,,1 F,0,8990,,0
Sprite,Foreground,Centre,"sb\f\0062.png",392.5,383.25 F,0,6989,,0 S,0,6990,,0.5 F,0,7617,,1 F,0,8990,,0
Sprite,Foreground,Centre,"sb\f\0079.png",409,390 F,0,6989,,0 S,0,6990,,0.5 F,0,7674,,1 F,0,8990,,0
Sprite,Foreground,Centre,"sb\f\0066.png",246,415.25 F,0,6989,,0 S,0,6990,,0.5 F,0,7788,,1 F,0,8990,,0
Sprite,Foreground,Centre,"sb\f\0061.png",261.5,417.25 F,0,6989,,0 S,0,6990,,0.5 F,0,7845,,1 F,0,8990,,0
Sprite,Foreground,Centre,"sb\f\0074.png",277,415.25 F,0,6989,,0 S,0,6990,,0.5 F,0,7902,,1 F,0,8990,,0
Sprite,Foreground,Centre,"sb\f\0066.png",292.5,415.25 F,0,6989,,0 S,0,6990,,0.5 F,0,7959,,1 F,0,8990,,0
Sprite,Foreground,Centre,"sb\f\0061.png",308,417.25 F,0,6989,,0 S,0,6990,,0.5 F,0,8016,,1 F,0,8990,,0
Sprite,Foreground,Centre,"sb\f\006e.png",323.5,417.25 F,0,6989,,0 S,0,6990,,0.5 F,0,8073,,1 F,0,8990,,0
Sprite,Foreground,Centre,"sb\f\006b.png",349,414.25 F,0,6989,,0 S,0,6990,,0.5 F,0,8187,,1 F,0,8990,,0
Sprite,Foreground,Centre,"sb\f\006f.png",364.5,417.25 F,0,6989,,0 S,0,6990,,0.5 F,0,8244,,1 F,0,8990,,0
Sprite,Foreground,Centre,"sb\f\006c.png",376.25,414.25 F,0,6989,,0 S,0,6990,,0.5 F,0,8301,,1 F,0,8990,,0
Sprite,Foreground,Centre,"sb\f\0065.png",388,417.25 F,0,6989,,0 S,0,6990,,0.5 F,0,8358,,1 F,0,8990,,0
Sprite,Foreground,Centre,"sb\f\006b.png",403.5,414.25 F,0,6989,,0 S,0,6990,,0.5 F,0,8415,,1 F,0,8990,,0
Sprite,Foreground,Centre,"sb\f\0073.png",245,386.25 F,0,9239,,0 F,0,9240,,1 S,0,9240,,0.5 F,0,10490,,0
Sprite,Foreground,Centre,"sb\f\0074.png",259.5,384.25 F,0,9239,,0 S,0,9240,,0.5 F,0,9299,,1 F,0,10490,,0
Sprite,Foreground,Centre,"sb\f\006f.png",275,386.25 F,0,9239,,0 S,0,9240,,0.5 F,0,9358,,1 F,0,10490,,0
Sprite,Foreground,Centre,"sb\f\0072.png",290.5,386.25 F,0,9239,,0 S,0,9240,,0.5 F,0,9417,,1 F,0,10490,,0
Sprite,Foreground,Centre,"sb\f\0079.png",307,390 F,0,9239,,0 S,0,9240,,0.5 F,0,9476,,1 F,0,10490,,0
Sprite,Foreground,Centre,"sb\f\0062.png",323.5,383.25 F,0,9239,,0 S,0,9240,,0.5 F,0,9535,,1 F,0,10490,,0
Sprite,Foreground,Centre,"sb\f\006f.png",339,386.25 F,0,9239,,0 S,0,9240,,0.5 F,0,9594,,1 F,0,10490,,0
Sprite,Foreground,Centre,"sb\f\0061.png",354.5,386.25 F,0,9239,,0 S,0,9240,,0.5 F,0,9653,,1 F,0,10490,,0
Sprite,Foreground,Centre,"sb\f\0072.png",370,386.25 F,0,9239,,0 S,0,9240,,0.5 F,0,9712,,1 F,0,10490,,0
Sprite,Foreground,Centre,"sb\f\0064.png",386.5,383.25 F,0,9239,,0 S,0,9240,,0.5 F,0,9771,,1 F,0,10490,,0
Sprite,Foreground,Centre,"sb\f\0062.png",413,383.25 F,0,9239,,0 S,0,9240,,0.5 F,0,9889,,1 F,0,10490,,0
Sprite,Foreground,Centre,"sb\f\0079.png",429.5,390 F,0,9239,,0 S,0,9240,,0.5 F,0,9948,,1 F,0,10490,,0
Sprite,Foreground,Centre,"sb\f\0062.png",246,414.25 F,0,9239,,0 S,0,9240,,0.5 F,0,10066,,1 F,0,10490,,0
Sprite,Foreground,Centre,"sb\f\0065.png",261.5,417.25 F,0,9239,,0 S,0,9240,,0.5 F,0,10125,,1 F,0,10490,,0
Sprite,Foreground,Centre,"sb\f\0072.png",277,417.25 F,0,9239,,0 S,0,9240,,0.5 F,0,10184,,1 F,0,10490,,0
Sprite,Foreground,Centre,"sb\f\0067.png",292.5,421 F,0,9239,,0 S,0,9240,,0.5 F,0,10243,,1 F,0,10490,,0
Sprite,Foreground,Centre,"sb\f\0079.png",309,421 F,0,9239,,0 S,0,9240,,0.5 F,0,10302,,1 F,0,10490,,0
Sprite,Foreground,Centre,"sb\f\006f.png",246,386.25 F,0,10739,,0 F,0,10740,,1 S,0,10740,,0.5 F,0,12553,,0
Sprite,Foreground,Centre,"sb\f\006e.png",261.5,386.25 F,0,10739,,0 S,0,10740,,0.5 F,0,10771,,1 F,0,12553,,0
Sprite,Foreground,Centre,"sb\f\0064.png",288,383.25 F,0,10739,,0 S,0,10740,,0.5 F,0,10833,,1 F,0,12553,,0
Sprite,Foreground,Centre,"sb\f\0061.png",304.5,386.25 F,0,10739,,0 S,0,10740,,0.5 F,0,10864,,1 F,0,12553,,0
Sprite,Foreground,Centre,"sb\f\0079.png",321,390 F,0,10739,,0 S,0,10740,,0.5 F,0,10895,,1 F,0,12553,,0
Sprite,Foreground,Centre,"sb\f\0073.png",336.5,386.25 F,0,10739,,0 S,0,10740,,0.5 F,0,10926,,1 F,0,12553,,0
Sprite,Foreground,Centre,"sb\f\006c.png",357.25,383.25 F,0,10739,,0 S,0,10740,,0.5 F,0,10988,,1 F,0,12553,,0
Sprite,Foreground,Centre,"sb\f\0069.png",365.25,383.25 F,0,10739,,0 S,0,10740,,0.5 F,0,11019,,1 F,0,12553,,0
Sprite,Foreground,Centre,"sb\f\006b.png",377,383.25 F,0,10739,,0 S,0,10740,,0.5 F,0,11050,,1 F,0,12553,,0
Sprite,Foreground,Centre,"sb\f\0065.png",392.5,386.25 F,0,10739,,0 S,0,10740,,0.5 F,0,11081,,1 F,0,12553,,0
Sprite,Foreground,Centre,"sb\f\0074.png",418,384.25 F,0,10739,,0 S,0,10740,,0.5 F,0,11143,,1 F,0,12553,,0
Sprite,Foreground,Centre,"sb\f\0068.png",433.5,383.25 F,0,10739,,0 S,0,10740,,0.5 F,0,11174,,1 F,0,12553,,0
Sprite,Foreground,Centre,"sb\f\0065.png",449,386.25 F,0,10739,,0 S,0,10740,,0.5 F,0,11205,,1 F,0,12553,,0
Sprite,Foreground,Centre,"sb\f\0073.png",463.5,386.25 F,0,10739,,0 S,0,10740,,0.5 F,0,11236,,1 F,0,12553,,0
Sprite,Foreground,Centre,"sb\f\0065.png",478,386.25 F,0,10739,,0 S,0,10740,,0.5 F,0,11267,,1 F,0,12553,,0
Sprite,Foreground,Centre,"sb\f\002c.png",489.75,394 F,0,10739,,0 S,0,10740,,0.5 F,0,11298,,1 F,0,12553,,0
Sprite,Foreground,Centre,"sb\f\006b.png",246,414.25 F,0,10739,,0 S,0,10740,,0.5 F,0,11360,,1 F,0,12553,,0
Sprite,Foreground,Centre,"sb\f\0069.png",257.75,414.25 F,0,10739,,0 S,0,10740,,0.5 F,0,11391,,1 F,0,12553,,0
Sprite,Foreground,Centre,"sb\f\0064.png",270.5,414.25 F,0,10739,,0 S,0,10740,,0.5 F,0,11422,,1 F,0,12553,,0
Sprite,Foreground,Centre,"sb\f\0073.png",286,417.25 F,0,10739,,0 S,0,10740,,0.5 F,0,11453,,1 F,0,12553,,0
Sprite,Foreground,Centre,"sb\f\006c.png",306.75,414.25 F,0,10739,,0 S,0,10740,,0.5 F,0,11515,,1 F,0,12553,,0
Sprite,Foreground,Centre,"sb\f\0069.png",314.75,414.25 F,0,10739,,0 S,0,10740,,0.5 F,0,11546,,1 F,0,12553,,0
Sprite,Foreground,Centre,"sb\f\006b.png",326.5,414.25 F,0,10739,,0 S,0,10740,,0.5 F,0,11577,,1 F,0,12553,,0
Sprite,Foreground,Centre,"sb\f\0065.png",342,417.25 F,0,10739,,0 S,0,10740,,0.5 F,0,11608,,1 F,0,12553,,0
Sprite,Foreground,Centre,"sb\f\0079.png",368.5,421 F,0,10739,,0 S,0,10740,,0.5 F,0,11670,,1 F,0,12553,,0
Sprite,Foreground,Centre,"sb\f\006f.png",385,417.25 F,0,10739,,0 S,0,10740,,0.5 F,0,11701,,1 F,0,12553,,0
Sprite,Foreground,Centre,"sb\f\0075.png",400.5,417.25 F,0,10739,,0 S,0,10740,,0.5 F,0,11732,,1 F,0,12553,,0
Sprite,Foreground,Centre,"sb\f\002e.png",412.25,422 F,0,10739,,0 S,0,10740,,0.5 F,0,11763,,1 F,0,12553,,0
Sprite,Foreground,Centre,"sb\f\002e.png",423.75,422 F,0,10739,,0 S,0,10740,,0.5 F,0,11794,,1 F,0,12553,,0
Sprite,Foreground,Centre,"sb\f\002e.png",435.25,422 F,0,10739,,0 S,0,10740,,0.5 F,0,11825,,1 F,0,12553,,0
Sprite,Foreground,Centre,"sb\f\0073.png",245,386.25 F,0,13364,,0 F,0,13365,,1 S,0,13365,,0.5 F,0,19365,,0
Sprite,Foreground,Centre,"sb\f\0068.png",259.5,383.25 F,0,13364,,0 S,0,13365,,0.5 F,0,13480,,1 F,0,19365,,0
Sprite,Foreground,Centre,"sb\f\006f.png",275,386.25 F,0,13364,,0 S,0,13365,,0.5 F,0,13595,,1 F,0,19365,,0
Sprite,Foreground,Centre,"sb\f\0075.png",290.5,386.25 F,0,13364,,0 S,0,13365,,0.5 F,0,13710,,1 F,0,19365,,0
Sprite,Foreground,Centre,"sb\f\006c.png",302.25,383.25 F,0,13364,,0 S,0,13365,,0.5 F,0,13825,,1 F,0,19365,,0
Sprite,Foreground,Centre,"sb\f\0064.png",315,383.25 F,0,13364,,0 S,0,13365,,0.5 F,0,13940,,1 F,0,19365,,0
Sprite,Foreground,Centre,"sb\f\0062.png",341.5,383.25 F,0,13364,,0 S,0,13365,,0.5 F,0,14170,,1 F,0,19365,,0
Sprite,Foreground,Centre,"sb\f\0065.png",357,386.25 F,0,13364,,0 S,0,13365,,0.5 F,0,14285,,1 F,0,19365,,0
Sprite,Foreground,Centre,"sb\f\0062.png",382.5,383.25 F,0,13364,,0 S,0,13365,,0.5 F,0,14515,,1 F,0,19365,,0
Sprite,Foreground,Centre,"sb\f\0075.png",398,386.25 F,0,13364,,0 S,0,13365,,0.5 F,0,14630,,1 F,0,19365,,0
Sprite,Foreground,Centre,"sb\f\0072.png",413.5,386.25 F,0,13364,,0 S,0,13365,,0.5 F,0,14745,,1 F,0,19365,,0
Sprite,Foreground,Centre,"sb\f\006e.png",429,386.25 F,0,13364,,0 S,0,13365,,0.5 F,0,14860,,1 F,0,19365,,0
Sprite,Foreground,Centre,"sb\f\0069.png",440.75,383.25 F,0,13364,,0 S,0,13365,,0.5 F,0,14975,,1 F,0,19365,,0
Sprite,Foreground,Centre,"sb\f\006e.png",452.5,386.25 F,0,13364,,0 S,0,13365,,0.5 F,0,15090,,1 F,0,19365,,0
Sprite,Foreground,Centre,"sb\f\0067.png",468,390 F,0,13364,,0 S,0,13365,,0.5 F,0,15205,,1 F,0,19365,,0
Sprite,Foreground,Centre,"sb\f\0069.png",242.25,414.25 F,0,13364,,0 S,0,13365,,0.5 F,0,15435,,1 F,0,19365,,0
Sprite,Foreground,Centre,"sb\f\006e.png",254,417.25 F,0,13364,,0 S,0,13365,,0.5 F,0,15550,,1 F,0,19365,,0
Sprite,Foreground,Centre,"sb\f\0068.png",279.5,414.25 F,0,13364,,0 S,0,13365,,0.5 F,0,15780,,1 F,0,19365,,0
Sprite,Foreground,Centre,"sb\f\0065.png",295,417.25 F,0,13364,,0 S,0,13365,,0.5 F,0,15895,,1 F,0,19365,,0
Sprite,Foreground,Centre,"sb\f\006c.png",306.75,414.25 F,0,13364,,0 S,0,13365,,0.5 F,0,16010,,1 F,0,19365,,0
Sprite,Foreground,Centre,"sb\f\006c.png",314.75,414.25 F,0,13364,,0 S,0,13365,,0.5 F,0,16125,,1 F,0,19365,,0
Sprite,Foreground,Centre,"sb\f\002e.png",322.75,422 F,0,13364,,0 S,0,13365,,0.5 F,0,16240,,1 F,0,19365,,0
Sprite,Foreground,Centre,"sb\pixel.png",320,240 F,0,179365,,0.5 C,0,179365,,0,0,0 V,0,179365,,854,480 F,0,179678,,0 F,0,181365,,0.5 F,0,181678,,0 F,0,183365,,0.5 F,0,183678,,0 F,0,185365,,0.5 F,0,185678,,0
Sprite,Foreground,Centre,"sb\bg\bw.jpg",320,240 F,0,179365,,0.5 F,0,179365,,0.5 S,0,179365,,0.4444444 C,0,179365,,255,0,0 F,0,179397,,0 F,0,179428,,0.5 F,0,179460,,0 F,0,179491,,0.5 F,0,179523,,0 F,0,179554,,0.5 F,0,179586,,0 F,0,179617,,0.5 F,0,179649,,0 F,0,181365,,0.5 F,0,181397,,0 F,0,181428,,0.5 F,0,181460,,0 F,0,181491,,0.5 F,0,181523,,0 F,0,181554,,0.5 F,0,181586,,0 F,0,181617,,0.5 F,0,181649,,0 F,0,183365,,0.5 F,0,183397,,0 F,0,183428,,0.5 F,0,183460,,0 F,0,183491,,0.5 F,0,183523,,0 F,0,183554,,0.5 F,0,183586,,0 F,0,183617,,0.5 F,0,183649,,0 F,0,185365,,0.5 F,0,185397,,0 F,0,185428,,0.5 F,0,185460,,0 F,0,185491,,0.5 F,0,185523,,0 F,0,185554,,0.5 F,0,185586,,0 F,0,185617,,0.5 F,0,185649,,0
Sprite,Foreground,Centre,"sb\pl.png",117,111 C,0,179266,,178,17,17 F,0,179266,179366,0,1 S,2,179366,179966,0.5,0 F,2,179866,179966,1,0
Sprite,Foreground,Centre,"sb\pl.png",432,124 C,0,181266,,178,17,17 F,0,181266,181366,0,1 S,2,181366,181966,0.5,0 F,2,181866,181966,1,0
Sprite,Foreground,Centre,"sb\pl.png",450,181 C,0,183266,,178,17,17 F,0,183266,183366,0,1 S,2,183366,183966,0.5,0 F,2,183866,183966,1,0
Sprite,Foreground,Centre,"sb\pl.png",537,191 C,0,185266,,178,17,17 F,0,185266,185366,0,1 S,2,185366,185966,0.5,0 F,2,185866,185966,1,0
//Storyboard Sound Samples

[TimingPoints]
366,250,4,2,1,50,1,0
12553,-100,4,3,98,70,0,0
13366,-100,4,3,98,10,0,0
13866,-100,4,3,98,15,0,0
14366,-100,4,3,98,20,0,0
14866,-100,4,3,98,25,0,0
15366,-100,4,3,98,30,0,0
15866,-100,4,3,98,35,0,0
16366,-100,4,3,98,40,0,0
16866,-100,4,3,98,45,0,0
17366,-100,4,3,98,50,0,0
17866,-100,4,3,98,55,0,0
18366,-100,4,3,98,60,0,0
18866,-100,4,3,98,65,0,0
19241,-100,4,2,1,5,0,0
19366,-200,4,2,97,50,0,0
22366,-200,4,2,97,5,0,0
22491,-200,4,2,97,50,0,0
22616,-200,4,2,97,5,0,0
22741,-200,4,2,97,50,0,0
22866,-200,4,2,97,5,0,0
22991,-200,4,2,97,50,0,0
26366,-200,4,2,97,50,0,0
26491,-200,4,2,97,50,0,0
26616,-200,4,2,97,50,0,0
26741,-200,4,2,97,50,0,0
26866,-200,4,2,97,50,0,0
26991,-200,4,2,97,50,0,0
27366,-133.333333333333,4,2,98,65,0,0
35366,-100,4,2,1,85,0,1
42366,-100,4,2,98,85,0,1
43366,-100,4,2,1,85,0,1
50366,-100,4,2,98,85,0,1
51366,-117.647058823529,4,2,1,85,0,0
58366,-117.647058823529,4,2,98,85,0,0
59366,-100,4,2,1,85,0,0
64366,-133.333333333333,4,2,1,85,0,0
65366,-133.333333333333,4,2,1,85,0,0
65866,-100,4,2,1,85,0,0
66366,-100,4,2,98,85,0,0
67366,-100,4,2,98,85,0,1
70366,-100,4,2,1,85,0,1
74366,-100,4,2,98,85,0,0
75366,-100,4,2,98,85,0,1
80366,-100,4,2,1,85,0,1
81366,-100,4,2,1,85,0,1
82366,-100,4,2,98,85,0,0
83366,-100,4,2,98,85,0,1
86366,-100,4,2,1,85,0,1
89366,-100,4,2,1,85,0,1
90366,-100,4,2,98,85,0,0
91366,-100,4,2,98,85,0,1
96366,-100,4,2,1,85,0,1
97366,-100,4,2,98,85,0,1
98366,-100,4,2,98,85,0,0
99366,-133.333333333333,4,2,98,70,0,0
127616,-133.333333333333,4,2,1,70,0,1
130116,-133.333333333333,4,2,98,70,0,1
130366,-133.333333333333,4,2,98,70,0,1
131366,-100,4,2,1,85,0,0
137366,-133.333333333333,4,2,1,85,0,0
138366,-100,4,2,98,85,0,0
139366,-100,4,2,1,85,0,1
139866,-100,4,2,99,85,0,1
141366,-100,4,2,1,85,0,0
146366,-100,4,2,98,85,0,0
147366,-100,4,2,99,85,0,1
149116,-100,4,2,99,85,0,0
149366,-100,4,2,99,85,0,1
151116,-100,4,2,99,85,0,0
151366,-100,4,2,99,85,0,1
153116,-100,4,2,99,85,0,0
153366,-100,4,2,99,85,0,1
154366,-100,4,2,98,85,0,1
155366,-100,4,2,1,85,0,0
158366,-100,4,2,98,85,0,0
159366,-100,4,2,1,85,0,1
161241,-100,4,2,1,85,0,0
161366,-100,4,2,98,85,0,1
162241,-100,4,2,98,85,0,1
163366,-100,4,2,1,70,0,0
171366,-100,4,2,1,85,0,1
178366,-100,4,2,98,85,0,1
179366,-100,4,2,98,85,0,1
179616,-100,4,2,1,85,0,1
181366,-100,4,2,98,85,0,1
181616,-100,4,2,1,85,0,1
183241,-100,4,2,98,85,0,1
183616,-100,4,2,1,85,0,1
185241,-100,4,2,98,85,0,1
185616,-100,4,2,1,85,0,1
186366,-100,4,2,98,85,0,1
187241,-333,4,2,1,85,0,0
187803,-333,4,2,1,5,0,0

[Colours]
Combo1 : 151,0,0
Combo2 : 243,109,46
Combo3 : 184,52,14
Combo4 : 215,215,215
Combo5 : 126,126,126
Combo6 : 255,201,174
Combo7 : 255,156,108
Combo8 : 230,0,0
SliderBorder : 255,204,153

[HitObjects]
144,192,12553,117,0,0:0:0:0:
368,192,12803,1,0,0:0:0:0:
256,192,13366,12,0,19241,0:0:0:0:
385,258,19366,38,0,L|431:262,2,39.9999976158142,2|0|2,0:2|0:0|0:2,0:0:0:0:
257,245,19866,1,2,0:2:0:0:
133,98,20241,2,0,B|93:101|93:101|42:123,2,79.9999952316285,2|2|2,0:2|0:2|0:2,0:0:0:0:
256,65,20991,1,0,0:0:0:0:
246,94,21116,1,2,0:2:0:0:
235,124,21241,1,0,0:0:0:0:
224,153,21366,6,0,P|194:185|146:201,1,79.9999952316285,2|2,0:2|0:2,0:0:0:0:
64,282,21866,1,2,0:2:0:0:
252,317,22241,2,0,L|270:354,1,39.9999976158142,2|0,0:2|0:0,0:0:0:0:
293,252,22491,2,0,L|275:215,1,39.9999976158142,2|0,0:2|0:0,0:0:0:0:
365,282,22741,2,0,P|405:271|436:247,1,79.9999952316285,2|0,0:2|0:0,0:0:0:0:
485,190,23116,1,2,0:2:0:0:
485,190,23241,1,0,0:0:0:0:
485,190,23366,102,0,L|485:143,1,39.9999976158142,2|0,0:2|0:0,0:0:0:0:
476,74,23616,2,0,B|448:79|448:79|431:96|431:96|404:101,1,79.9999952316285,2|2,0:2|0:2,0:0:0:0:
224,32,24241,1,2,0:2:0:0:
196,156,24491,1,2,0:2:0:0:
168,281,24741,1,2,0:2:0:0:
60,212,24991,2,0,L|18:218,2,39.9999976158142,0|2|0,0:0|0:2|0:0,0:0:0:0:
134,198,25366,6,0,P|172:192|220:206,1,79.9999952316285,2|2,0:2|0:2,0:0:0:0:
263,318,25866,1,2,0:2:0:0:
428,221,26241,2,0,P|412:204|391:193,1,39.9999976158142,2|0,0:2|0:0,0:0:0:0:
388,124,26491,2,0,P|365:129|345:142,1,39.9999976158142,2|0,0:2|0:0,0:0:0:0:
284,104,26741,2,0,P|277:126|278:150,1,39.9999976158142,2|0,0:2|0:0,0:0:0:0:
318,213,26991,1,0,0:0:0:0:
308,242,27116,1,2,0:2:0:0:
297,272,27241,1,2,0:2:0:0:
286,301,27366,102,0,P|256:338|179:357,2,119.999997425079,6|2|2,0:2|0:2|0:2,0:0:0:0:
405,150,28116,1,0,0:0:0:0:
405,150,28241,2,0,L|395:88,1,59.9999987125397,2|0,0:2|0:0,0:0:0:0:
307,52,28491,2,0,L|316:111,1,59.9999987125397,2|0,0:2|0:0,0:0:0:0:
305,206,28741,2,0,L|285:87,1,119.999997425079,2|0,0:2|0:0,0:0:0:0:
408,32,29116,1,2,0:2:0:0:
414,70,29241,1,0,0:0:0:0:
420,108,29366,6,0,B|428:167|428:167|366:225,1,119.999997425079,6|2,0:2|0:2,0:0:0:0:
211,294,29866,2,0,B|252:301|252:301|278:326|278:326|318:334,1,119.999997425079,2|0,0:2|0:0,0:0:0:0:
405,292,30241,1,2,0:2:0:0:
243,187,30491,1,2,0:2:0:0:
110,326,30741,2,0,L|86:245,1,59.9999987125397,2|0,0:2|0:0,0:0:0:0:
9,221,30991,1,0,0:0:0:0:
41,186,31116,1,2,0:2:0:0:
87,171,31241,1,0,0:0:0:0:
133,180,31366,102,0,P|161:198|180:225,2,59.9999987125397,6|0|2,0:2|0:0|0:2,0:0:0:0:
249,26,31866,2,0,P|236:84|256:155,1,119.999997425079,2|0,0:2|0:0,0:0:0:0:
329,194,32241,2,0,L|386:171,1,59.9999987125397,2|0,0:2|0:0,0:0:0:0:
465,224,32491,2,0,L|408:247,1,59.9999987125397,2|0,0:2|0:0,0:0:0:0:
400,338,32741,2,0,B|359:331|359:331|333:306|333:306|293:298,1,119.999997425079,2|0,0:2|0:0,0:0:0:0:
206,284,33116,1,2,0:2:0:0:
158,290,33241,1,0,0:0:0:0:
116,313,33366,6,0,B|94:264|94:264|114:192,1,119.999997425079,6|2,0:2|0:2,0:0:0:0:
286,51,33866,1,2,0:2:0:0:
350,331,34241,2,0,B|410:343|410:343|476:317,2,119.999997425079,2|2|2,0:2|0:2|0:2,0:0:0:0:
176,248,34991,2,0,B|146:245|146:245|113:255,2,59.9999987125397,0|10|0,3:0|1:2|0:0,0:0:0:0:
304,256,35366,70,0,P|256:194|253:113,1,159.999990463257,6|10,3:2|1:2,0:0:0:0:
465,44,35866,2,0,B|354:55|354:55|296:23,1,159.999990463257,2|8,3:2|1:2,0:0:0:0:
200,13,36241,2,0,P|167:37|144:80,1,79.9999952316285,2|0,0:2|3:0,0:0:0:0:
90,127,36491,2,0,L|106:216,1,79.9999952316285,2|8,3:2|1:2,0:0:0:0:
171,259,36741,2,0,P|191:292|223:316,1,79.9999952316285,2|0,3:2|0:0,0:0:0:0:
342,333,36991,2,0,L|431:317,2,79.9999952316285,2|10|2,3:2|1:2|0:2,0:0:0:0:
294,251,37366,5,6,3:2:0:0:
294,251,37491,1,0,3:2:0:0:
294,251,37616,2,0,B|248:249|222:280|222:280|197:311|151:312,1,159.999990463257,10|2,1:2|3:2,0:0:0:0:
5,141,38116,1,8,1:2:0:0:
5,141,38241,2,0,P|46:156|79:193,1,79.9999952316285,2|0,3:2|0:0,0:0:0:0:
168,158,38491,2,0,P|148:196|149:246,1,79.9999952316285,2|8,3:2|1:2,0:0:0:0:
152,311,38741,1,2,3:2:0:0:
107,91,38991,2,0,L|128:8,1,79.9999952316285,2|10,3:2|1:2,0:0:0:0:
206,2,39241,1,0,0:2:0:0:
265,55,39366,102,0,B|318:65|318:65|353:99|353:99|409:108,1,159.999990463257,6|10,3:2|1:2,0:0:0:0:
441,329,39866,2,0,P|377:264|297:245,1,159.999990463257,2|8,3:2|1:2,0:0:0:0:
234,336,40241,2,0,P|211:304|201:254,1,79.9999952316285,2|0,3:2|0:0,0:0:0:0:
210,187,40491,2,0,P|234:156|280:133,1,79.9999952316285,2|8,3:2|1:2,0:0:0:0:
347,132,40741,2,0,P|382:148|416:186,1,79.9999952316285,2|0,3:2|0:0,0:0:0:0:
430,253,40991,1,2,3:2:0:0:
394,327,41116,1,10,1:2:0:0:
316,352,41241,1,2,3:2:0:0:
235,336,41366,6,0,L|71:349,1,159.999990463257,6|10,3:2|1:2,0:0:0:0:
97,189,41866,2,0,L|15:195,2,79.9999952316285,2|0|8,3:2|0:0|1:2,0:0:0:0:
177,181,42241,1,2,3:2:0:0:
162,102,42366,102,0,P|148:65|113:32,1,79.9999952316285,4|2,1:2|3:2,0:0:0:0:
178,198,42616,1,8,1:2:0:0:
256,151,42741,2,0,P|281:120|292:73,1,79.9999952316285,6|0,1:2|0:0,0:0:0:0:
180,212,42991,1,2,1:2:0:0:
260,257,43116,2,0,P|299:263|345:249,1,79.9999952316285,14|2,1:2|0:2,0:0:0:0:
420,204,43366,6,0,P|357:218|305:298,1,159.999990463257,6|10,3:2|1:2,0:0:0:0:
91,359,43866,2,0,B|80:248|80:248|112:190,1,159.999990463257,2|8,3:2|1:2,0:0:0:0:
53,123,44241,2,0,L|138:113,1,79.9999952316285,2|0,3:2|0:0,0:0:0:0:
207,61,44491,2,0,L|217:146,1,79.9999952316285,2|8,3:2|1:2,0:0:0:0:
188,223,44741,2,0,L|268:214,1,79.9999952316285,2|0,3:2|0:0,0:0:0:0:
385,195,44991,2,0,P|419:173|445:129,2,79.9999952316285,2|10|2,3:2|1:2|1:2,0:0:0:0:
313,138,45366,101,6,3:2:0:0:
313,138,45491,1,0,3:0:0:0:
313,138,45616,2,0,B|283:228|283:228|306:294,1,159.999990463257,10|2,1:2|3:2,0:0:0:0:
97,378,46116,1,8,1:2:0:0:
97,378,46241,2,0,P|84:336|48:301,1,79.9999952316285,2|0,3:2|0:0,0:0:0:0:
19,164,46491,2,0,P|39:202|38:252,1,79.9999952316285,2|8,3:2|1:2,0:0:0:0:
122,251,46741,1,2,3:2:0:0:
187,36,46991,2,0,L|272:46,1,79.9999952316285,2|10,3:2|1:2,0:0:0:0:
363,31,47241,1,2,0:2:0:0:
329,114,47366,6,0,B|276:124|276:124|241:158|241:158|185:167,1,159.999990463257,6|10,3:2|1:2,0:0:0:0:
363,31,47866,2,0,L|378:194,1,159.999990463257,2|8,3:2|1:2,0:0:0:0:
462,264,48241,2,0,P|429:291|385:302,1,79.9999952316285,2|0,3:2|0:0,0:0:0:0:
341,366,48491,2,0,P|301:350|269:318,1,79.9999952316285,2|8,3:2|1:2,0:0:0:0:
193,319,48741,2,0,P|186:276|198:233,1,79.9999952316285,2|0,3:2|0:0,0:0:0:0:
251,183,48991,1,2,3:2:0:0:
278,110,49116,1,10,1:2:0:0:
228,48,49241,1,2,3:2:0:0:
149,39,49366,102,0,B|103:37|77:68|77:68|51:102|6:100,1,159.999990463257,6|10,3:2|1:2,0:0:0:0:
118,295,49866,2,0,L|124:377,2,79.9999952316285,2|0|8,3:2|0:0|1:2,0:0:0:0:
110,214,50241,1,2,3:2:0:0:
163,124,50366,6,0,L|247:136,1,79.9999952316285,4|2,1:2|3:2,0:0:0:0:
305,207,50616,1,8,3:0:0:0:
428,135,50741,2,0,L|375:201,1,79.9999952316285,6|0,1:2|3:0,0:0:0:0:
305,207,50991,1,2,1:2:0:0:
280,343,51116,2,0,L|248:264,1,79.9999952316285,14|2,1:2|1:2,0:0:0:0:
174,168,51366,38,0,L|226:296,1,135.999994487762,6|10,3:2|1:2,0:0:0:0:
142,368,51741,2,0,P|85:332|58:263,1,135.999994487762,2|2,0:2|3:2,0:0:0:0:
84,185,52116,1,8,1:2:0:0:
174,168,52241,2,0,L|250:176,1,67.9999972438812,2|0,3:2|0:0,0:0:0:0:
324,221,52491,2,0,L|391:213,1,67.9999972438812,2|8,3:2|1:2,0:0:0:0:
415,78,52741,2,0,P|356:49|281:67,1,135.999994487762,2|0,3:2|3:0,0:0:0:0:
204,101,53116,1,8,1:2:0:0:
204,101,53241,1,0,0:0:0:0:
204,101,53366,6,0,B|151:105|151:105|126:131|126:131|76:136,1,135.999994487762,6|10,3:2|1:2,0:0:0:0:
32,239,53741,2,0,P|47:269|76:288,1,67.9999972438812,2|2,0:2|3:2,0:0:0:0:
135,362,53991,2,0,P|168:364|199:348,1,67.9999972438812,0|8,0:0|1:2,0:0:0:0:
373,331,54241,2,0,B|365:283|365:283|336:253|336:253|328:209,1,135.999994487762,2|2,3:2|3:2,0:0:0:0:
398,144,54616,1,10,1:2:0:0:
398,144,54741,1,2,3:2:0:0:
398,144,54866,2,0,P|429:149|463:165,2,67.9999972438812,2|2|8,0:2|3:2|1:2,0:0:0:0:
243,31,55366,102,0,L|232:168,1,135.999994487762,6|10,3:2|1:2,0:0:0:0:
128,171,55741,2,0,P|133:205|153:236,1,67.9999972438812,2|0,0:2|3:0,0:0:0:0:
121,324,55991,2,0,P|154:329|190:320,1,67.9999972438812,2|8,3:2|1:2,0:0:0:0:
261,380,56241,2,0,P|276:349|278:312,1,67.9999972438812,2|0,0:2|3:0,0:0:0:0:
359,265,56491,2,0,P|334:240|300:227,1,67.9999972438812,2|8,3:2|1:2,0:0:0:0:
276,136,56741,2,0,P|245:151|221:179,1,67.9999972438812,2|0,3:2|0:0,0:0:0:0:
121,324,56991,2,0,B|113:276|113:276|84:246|84:246|76:202,1,135.999994487762,2|0,3:2|0:3,0:0:0:0:
131,123,57366,5,6,3:2:0:0:
293,24,57616,1,10,1:2:0:0:
58,35,57866,1,2,3:2:0:0:
35,77,57991,1,2,3:2:0:0:
23,123,58116,1,10,1:2:0:0:
23,172,58241,1,2,3:2:0:0:
36,216,58366,102,0,L|112:204,1,67.9999972438812,4|0,1:2|3:0,0:0:0:0:
187,245,58616,1,8,1:2:0:0:
313,168,58741,2,0,L|245:178,1,67.9999972438812,4|0,1:2|0:0,0:0:0:0:
165,134,58991,1,0,1:2:0:0:
35,215,59116,2,0,L|103:205,1,67.9999972438812,12|0,1:2|0:0,0:0:0:0:
313,168,59366,54,0,B|384:205|384:205|356:281,1,159.999990463257,6|10,3:2|1:2,0:0:0:0:
126,348,59866,1,0,3:0:0:0:
126,348,59991,2,0,L|101:258,1,79.9999952316285,2|8,3:2|1:2,0:0:0:0:
104,158,60241,2,0,L|129:248,1,79.9999952316285,2|0,3:2|0:0,0:0:0:0:
30,292,60491,2,0,P|6:247|8:198,1,79.9999952316285,2|8,3:2|1:2,0:0:0:0:
55,77,60741,2,0,P|139:73|191:123,1,159.999990463257,2|0,3:2|3:0,0:0:0:0:
213,33,61116,2,0,P|173:33|135:51,1,79.9999952316285,8|0,1:2|0:0,0:0:0:0:
104,158,61366,6,0,B|187:149|187:149|254:195,1,159.999990463257,6|10,3:2|1:2,0:0:0:0:
445,121,61866,2,0,P|449:81|471:48,2,79.9999952316285,0|2|8,3:2|3:2|1:0,0:0:0:0:
471,228,62241,2,0,L|385:263,1,79.9999952316285,2|0,3:2|0:0,0:0:0:0:
254,315,62491,2,0,L|266:223,1,79.9999952316285,2|8,3:2|1:0,0:0:0:0:
278,77,62741,2,0,L|351:133,1,79.9999952316285,2|0,3:2|0:0,0:0:0:0:
339,207,62991,1,2,3:2:0:0:
339,207,63116,2,0,B|296:203|296:203|249:216,1,79.9999952316285,10|0,1:2|3:0,0:0:0:0:
169,255,63366,102,0,L|149:341,1,79.9999952316285,6|0,3:2|3:0,0:0:0:0:
81,272,63616,2,0,L|63:195,1,79.9999952316285,10|0,1:2|0:0,0:0:0:0:
170,143,63866,2,0,L|150:229,1,79.9999952316285,2|0,3:2|3:0,0:0:0:0:
82,160,64116,2,0,L|64:83,1,79.9999952316285,10|0,1:2|0:0,0:0:0:0:
162,243,64366,6,0,L|144:318,1,59.9999987125397,2|0,3:2|3:0,0:0:0:0:
83,249,64616,2,0,L|69:191,1,59.9999987125397,10|0,1:2|3:0,0:0:0:0:
163,146,64866,2,0,L|145:221,1,59.9999987125397,2|0,3:2|3:0,0:0:0:0:
84,152,65116,2,0,L|70:94,1,59.9999987125397,10|0,1:2|3:0,0:0:0:0:
129,39,65366,102,0,L|130:0,4,29.9999993562698,6|0|0|0|10,1:2|1:0|1:0|1:0|1:2,0:0:0:0:
364,53,65866,1,2,0:2:0:0:
364,53,65991,2,0,P|328:71|297:100,1,79.9999952316285,2|10,0:2|1:2,0:0:0:0:
280,180,66241,1,2,3:2:0:0:
356,226,66366,6,0,P|362:265|350:302,1,79.9999952316285,4|0,1:2|0:0,0:0:0:0:
279,347,66616,1,8,1:0:0:0:
198,227,66741,2,0,P|191:266|203:303,1,79.9999952316285,4|0,1:2|0:3,0:0:0:0:
279,359,66991,1,0,3:0:0:0:
357,239,67116,2,0,P|363:278|351:315,1,79.9999952316285,12|0,1:2|1:2,0:0:0:0:
180,375,67366,38,0,P|146:305|177:234,1,159.999990463257,4|8,3:2|1:0,0:0:0:0:
371,98,67866,2,0,P|401:169|367:238,1,159.999990463257,0|8,3:0|1:0,0:0:0:0:
165,136,68366,21,2,3:2:0:0:
92,101,68491,1,0,3:0:0:0:
117,25,68616,2,0,P|155:12|200:13,1,79.9999952316285,10|0,1:2|3:0,0:0:0:0:
271,89,68866,1,2,3:2:0:0:
344,124,68991,1,0,3:0:0:0:
319,200,69116,2,0,P|281:213|236:212,1,79.9999952316285,10|0,1:2|3:0,0:0:0:0:
169,247,69366,6,0,L|126:247,4,39.9999976158142,6|2|2|2|10,3:2|0:2|3:2|0:0|1:2,0:0:0:0:
233,297,69741,1,0,3:0:0:0:
300,343,69866,2,0,B|307:305|344:267|389:251|434:250|434:250|509:163|441:17|278:37|214:175|310:260,1,639.999961853028,2|0,3:2|3:0,0:0:0:0:
367,180,70991,2,0,P|285:166|224:211,1,159.999990463257,2|2,3:2|3:2,0:0:0:0:
212,315,71366,6,0,B|128:313|128:313|70:231,1,159.999990463257,6|10,3:2|1:2,0:0:0:0:
63,174,71741,1,2,3:2:0:0:
63,174,71866,2,0,L|136:135,1,79.9999952316285,2|2,3:2|3:2,0:0:0:0:
90,68,72116,2,0,L|163:29,1,79.9999952316285,10|2,1:2|3:2,0:0:0:0:
240,27,72366,6,0,B|280:33|308:62|308:62|332:34|378:27,1,159.999990463257,2|10,3:2|1:2,0:0:0:0:
480,227,72866,2,0,B|439:220|411:191|411:191|387:219|341:226,1,159.999990463257,2|10,3:2|1:2,0:0:0:0:
133,136,73366,1,6,3:2:0:0:
356,128,73616,1,10,1:2:0:0:
190,278,73866,2,0,P|207:315|237:345,2,79.9999952316285,2|6|10,3:2|3:2|1:2,0:0:0:0:
210,193,74241,1,6,3:2:0:0:
127,207,74366,102,0,P|90:221|57:256,1,79.9999952316285,4|0,1:2|3:0,0:0:0:0:
223,191,74616,1,8,1:2:0:0:
176,113,74741,2,0,P|145:88|98:77,1,79.9999952316285,4|0,1:2|3:0,0:0:0:0:
237,189,74991,1,0,1:2:0:0:
282,109,75116,2,0,P|288:70|274:24,1,79.9999952316285,12|0,1:2|3:2,0:0:0:0:
165,33,75366,54,0,B|197:101|197:101|282:109,1,159.999990463257,6|10,3:2|1:2,0:0:0:0:
488,194,75866,2,0,B|456:262|456:262|371:269,1,159.999990463257,2|10,3:2|1:2,0:0:0:0:
146,262,76366,2,0,B|214:259|252:305|252:305|289:350|358:352,1,239.999985694885,2|0,0:2|3:0,0:0:0:0:
493,348,76866,2,0,P|459:254|336:265,1,239.999985694885,2|0,0:2|3:0,0:0:0:0:
245,331,77366,6,0,P|227:295|225:243,1,79.9999952316285,6|0,3:2|3:0,0:0:0:0:
162,200,77616,2,0,P|184:166|228:138,1,79.9999952316285,8|0,1:0|0:0,0:0:0:0:
219,60,77866,2,0,P|259:62|305:86,1,79.9999952316285,2|0,3:2|3:0,0:0:0:0:
373,53,78116,2,0,P|391:89|393:141,1,79.9999952316285,8|0,1:0|0:0,0:0:0:0:
457,198,78366,102,0,P|401:161|302:176,1,159.999990463257,2|8,3:2|1:0,0:0:0:0:
119,287,78866,2,0,P|175:250|274:265,1,159.999990463257,2|8,0:2|1:0,0:0:0:0:
463,309,79366,54,0,B|333:191|333:191|246:116|100:184|120:347|258:411|343:315,1,639.999961853028,6|2,3:2|3:2,0:0:0:0:
456,121,80616,5,10,1:2:0:0:
236,76,80866,2,0,P|195:79|149:102,1,79.9999952316285,2|2,0:2|3:2,0:0:0:0:
90,154,81116,2,0,L|70:237,1,79.9999952316285,10|2,1:2|3:2,0:0:0:0:
49,309,81366,2,0,B|178:191|178:191|265:116|411:184|391:347|253:411|168:315,1,639.999961853028,6|6,3:2|1:2,0:0:0:0:
25,133,82616,101,0,0:0:0:0:
0,204,82741,2,0,P|39:206|78:186,1,79.9999952316285,6|0,0:0|0:0,0:0:0:0:
147,151,82991,2,0,L|244:163,2,79.9999952316285,2|6|2,1:2|1:2|1:2,0:0:0:0:
84,65,83366,54,0,L|247:86,1,159.999990463257,4|8,3:2|1:0,0:0:0:0:
466,110,83866,2,0,P|496:181|462:250,1,159.999990463257,0|8,3:0|1:0,0:0:0:0:
252,333,84366,21,2,3:2:0:0:
176,307,84491,1,0,3:0:0:0:
152,230,84616,2,0,L|184:140,1,79.9999952316285,10|2,1:2|3:2,0:0:0:0:
278,91,84866,1,2,3:2:0:0:
354,117,84991,1,2,3:2:0:0:
378,194,85116,2,0,L|346:284,1,79.9999952316285,10|2,1:2|3:2,0:0:0:0:
303,347,85366,6,0,L|346:361,4,39.9999976158142,6|2|2|2|10,3:2|0:2|3:2|0:0|1:2,0:0:0:0:
225,315,85741,1,0,3:0:0:0:
157,363,85866,2,0,B|149:325|112:287|67:271|22:270|22:270|-52:183|15:37|178:57|242:195|146:280,1,639.999961853028,2|0,3:2|3:0,0:0:0:0:
42,347,86991,2,0,P|38:274|87:206,1,159.999990463257,2|2,3:2|3:2,0:0:0:0:
243,235,87366,6,0,B|169:207|169:207|147:122,1,159.999990463257,6|10,3:2|1:2,0:0:0:0:
159,23,87741,1,2,3:2:0:0:
159,23,87866,2,0,L|181:106,1,79.9999952316285,2|2,3:2|3:2,0:0:0:0:
237,148,88116,2,0,L|215:65,1,79.9999952316285,10|2,1:2|3:2,0:0:0:0:
279,20,88366,6,0,B|332:30|332:30|367:64|367:64|423:73,1,159.999990463257,2|10,3:2|1:2,0:0:0:0:
488,288,88866,2,0,B|435:298|435:298|400:332|400:332|344:341,1,159.999990463257,2|10,3:2|1:2,0:0:0:0:
151,223,89366,1,6,3:2:0:0:
361,146,89616,1,10,1:2:0:0:
191,299,89866,2,0,P|216:328|256:339,2,79.9999952316285,2|6|10,3:2|3:2|1:2,0:0:0:0:
151,223,90241,1,6,3:2:0:0:
171,136,90366,102,0,L|191:49,1,79.9999952316285,4|0,1:2|3:0,0:0:0:0:
271,7,90616,1,8,1:2:0:0:
343,70,90741,2,0,L|323:157,1,79.9999952316285,4|0,1:2|0:0,0:0:0:0:
243,199,90991,1,0,1:2:0:0:
159,123,91116,2,0,L|179:36,1,79.9999952316285,12|0,1:2|0:0,0:0:0:0:
354,81,91366,54,0,L|315:250,1,159.999990463257,6|10,3:2|1:2,0:0:0:0:
122,347,91866,2,0,P|135:271|209:206,1,159.999990463257,2|10,3:2|1:2,0:0:0:0:
291,13,92366,2,0,B|288:81|334:119|334:119|379:156|381:225,1,239.999985694885,2|0,0:2|0:0,0:0:0:0:
491,203,92866,2,0,P|457:109|334:120,1,239.999985694885,2|0,0:2|0:0,0:0:0:0:
288,195,93366,6,0,L|188:209,1,79.9999952316285,6|0,3:2|3:0,0:0:0:0:
148,270,93616,2,0,L|48:284,1,79.9999952316285,8|0,1:0|0:0,0:0:0:0:
0,203,93866,2,0,L|100:189,1,79.9999952316285,2|0,3:2|3:0,0:0:0:0:
140,128,94116,2,0,L|240:114,1,79.9999952316285,8|0,1:0|0:0,0:0:0:0:
283,56,94366,102,0,P|339:19|438:34,1,159.999990463257,2|8,3:2|1:0,0:0:0:0:
459,202,94866,2,0,P|403:239|304:224,1,159.999990463257,2|8,0:2|1:0,0:0:0:0:
169,128,95366,54,0,B|84:32|-54:96|-74:259|72:327|159:252|159:252|289:134,1,639.999961853028,6|2,3:2|3:2,0:0:0:0:
421,17,96616,5,10,1:2:0:0:
502,173,96866,2,0,P|497:211|462:251,1,79.9999952316285,2|2,0:2|3:2,0:0:0:0:
394,286,97116,2,0,L|358:192,1,79.9999952316285,10|2,1:2|3:2,0:0:0:0:
343,128,97366,2,0,B|428:32|566:96|586:259|440:327|353:252|353:252|223:134,1,639.999961853028,6|6,3:2|1:2,0:0:0:0:
44,271,98616,101,0,0:0:0:0:
121,232,98741,2,0,L|133:139,1,79.9999952316285,6|0,1:2|0:0,0:0:0:0:
145,71,98991,2,0,P|183:56|230:54,2,79.9999952316285,2|6|2,1:2|1:2|1:2,0:0:0:0:
34,73,99366,22,0,L|50:194,1,119.999997425079,0|0,3:3|3:3,0:0:0:0:
73,335,99866,2,0,P|126:352|194:330,1,119.999997425079,8|0,1:0|0:0,0:0:0:0:
269,291,100241,1,0,3:3:0:0:
132,244,100491,1,8,1:3:0:0:
240,144,100741,1,0,3:3:0:0:
240,144,100866,2,0,P|272:144|307:159,1,59.9999987125397,0|0,0:0|3:3,0:0:0:0:
355,209,101116,2,0,L|350:271,1,59.9999987125397,8|0,1:3|3:3,0:0:0:0:
344,349,101366,6,0,P|371:298|428:277,1,119.999997425079,0|0,3:3|3:3,0:0:0:0:
476,141,101866,2,0,L|481:203,2,59.9999987125397,8|0|0,1:0|3:3|0:0,0:0:0:0:
467,62,102241,2,0,B|427:69|427:69|401:94|401:94|359:101,1,119.999997425079,0|8,3:3|1:3,0:0:0:0:
207,64,102741,2,0,L|148:74,2,59.9999987125397,0|0|0,3:3|0:0|3:3,0:0:0:0:
280,93,103116,2,0,P|261:121|231:138,1,59.9999987125397,8|8,1:3|1:3,0:0:0:0:
164,155,103366,101,0,3:3:0:0:
117,303,103616,1,0,3:3:0:0:
267,345,103866,2,0,L|329:351,1,59.9999987125397,8|0,1:0|3:3,0:0:0:0:
350,276,104116,2,0,L|409:270,1,59.9999987125397,0|0,0:0|3:3,0:0:0:0:
254,180,104491,1,8,1:3:0:0:
401,140,104741,1,0,3:3:0:0:
401,140,104866,2,0,P|382:109|354:91,1,59.9999987125397,0|0,0:0|3:3,0:0:0:0:
287,72,105116,1,8,1:3:0:0:
287,72,105241,1,0,0:3:0:0:
287,72,105366,6,0,P|224:62|162:102,1,119.999997425079,0|0,3:3|3:3,0:0:0:0:
41,193,105866,1,8,1:0:0:0:
41,193,105991,2,0,B|99:199|99:199|153:248,2,119.999997425079,0|0|8,3:3|3:3|1:3,0:0:0:0:
119,330,106741,1,0,3:3:0:0:
119,330,106866,2,0,L|182:341,1,59.9999987125397,0|0,0:0|3:3,0:0:0:0:
230,282,107116,2,0,L|293:293,1,59.9999987125397,8|0,1:3|3:3,0:0:0:0:
340,358,107366,102,0,P|393:336|425:276,1,119.999997425079,0|0,3:3|3:3,0:0:0:0:
441,116,107866,2,0,L|307:87,1,119.999997425079,8|0,1:0|0:0,0:0:0:0:
274,24,108241,1,0,3:3:0:0:
236,175,108491,1,8,1:3:0:0:
89,168,108741,1,0,3:3:0:0:
89,168,108866,2,0,P|89:200|104:235,1,59.9999987125397,0|0,0:0|3:3,0:0:0:0:
154,279,109116,2,0,L|216:274,1,59.9999987125397,8|0,1:3|3:3,0:0:0:0:
291,266,109366,6,0,B|350:259|350:259|389:200,1,119.999997425079,0|0,3:3|3:3,0:0:0:0:
452,68,109866,2,0,P|484:73|518:90,2,59.9999987125397,8|0|0,1:0|3:3|0:0,0:0:0:0:
394,15,110241,2,0,B|354:22|354:22|328:47|328:47|286:54,1,119.999997425079,0|8,3:3|1:3,0:0:0:0:
131,82,110741,2,0,L|72:92,2,59.9999987125397,0|0|0,3:3|0:0|3:3,0:0:0:0:
209,84,111116,2,0,P|228:112|258:129,1,59.9999987125397,8|8,1:3|3:3,0:0:0:0:
327,123,111366,101,0,3:3:0:0:
201,215,111616,1,0,3:3:0:0:
355,239,111866,2,0,L|349:301,1,59.9999987125397,8|0,1:0|3:3,0:0:0:0:
294,353,112116,2,0,L|235:347,1,59.9999987125397,0|0,0:0|3:3,0:0:0:0:
78,332,112491,1,8,1:3:0:0:
47,179,112741,1,0,3:3:0:0:
47,179,112866,2,0,P|66:148|94:130,1,59.9999987125397,0|0,0:0|3:3,0:0:0:0:
159,110,113116,1,8,1:3:0:0:
159,110,113241,1,0,3:3:0:0:
159,110,113366,6,0,B|169:49|169:49|212:0,1,119.999997425079,0|0,3:3|3:3,0:0:0:0:
386,21,113866,1,8,1:0:0:0:
386,21,113991,2,0,P|444:29|505:76,2,119.999997425079,0|0|8,3:3|3:3|1:3,0:0:0:0:
246,113,114741,1,0,3:3:0:0:
246,113,114866,2,0,L|257:176,1,59.9999987125397,8|0,1:3|3:3,0:0:0:0:
198,224,115116,2,0,L|209:287,1,59.9999987125397,8|0,1:3|3:3,0:0:0:0:
222,359,115366,102,0,P|186:357|158:342,2,59.9999987125397,2|0|2,3:2|0:0|3:2,0:0:0:0:
372,314,115866,2,0,P|415:272|429:215,1,119.999997425079,10|0,1:2|0:0,0:0:0:0:
424,136,116241,2,0,P|413:103|391:80,1,59.9999987125397,2|0,3:2|0:0,0:0:0:0:
320,103,116491,2,0,P|285:96|255:103,1,59.9999987125397,10|0,1:2|0:0,0:0:0:0:
228,171,116741,2,0,P|204:197|196:227,1,59.9999987125397,2|0,3:2|0:0,0:0:0:0:
194,298,116991,1,2,3:2:0:0:
123,331,117116,2,0,L|106:267,1,59.9999987125397,10|2,1:2|3:2,0:0:0:0:
44,226,117366,6,0,L|76:104,2,119.999997425079,2|2|10,3:2|3:2|1:2,0:0:0:0:
163,125,118116,1,0,0:0:0:0:
163,125,118241,2,0,B|177:98|177:98|213:78,1,59.9999987125397,2|0,3:2|0:0,0:0:0:0:
236,12,118491,2,0,B|239:72|239:72|275:124,1,119.999997425079,10|2,1:2|3:2,0:0:0:0:
368,245,118991,2,0,P|393:222|405:197,1,59.9999987125397,2|10,3:2|1:2,0:0:0:0:
424,123,119241,1,2,3:2:0:0:
424,123,119366,101,2,3:2:0:0:
488,265,119616,1,2,3:2:0:0:
344,325,119866,1,10,1:2:0:0:
148,196,120241,2,0,P|94:224|54:268,2,119.999997425079,2|10|2,3:2|1:2|3:2,0:0:0:0:
260,305,120991,2,0,L|274:370,2,59.9999987125397,2|10|2,3:2|1:2|3:2,0:0:0:0:
272,228,121366,6,0,P|236:230|208:245,2,59.9999987125397,2|0|2,3:2|0:0|3:2,0:0:0:0:
418,172,121866,2,0,P|376:129|319:115,1,119.999997425079,10|0,1:2|0:0,0:0:0:0:
244,138,122241,2,0,L|232:67,1,59.9999987125397,2|0,3:2|0:0,0:0:0:0:
198,9,122491,2,0,L|186:80,1,59.9999987125397,10|0,1:2|0:0,0:0:0:0:
151,137,122741,2,0,L|139:66,1,59.9999987125397,2|0,3:2|0:0,0:0:0:0:
73,39,122991,1,2,3:2:0:0:
8,82,123116,2,0,P|-2:113|-1:143,1,59.9999987125397,10|2,1:2|3:2,0:0:0:0:
43,203,123366,102,0,L|167:217,2,119.999997425079,2|2|10,3:2|3:2|1:2,0:0:0:0:
86,353,124116,1,0,0:0:0:0:
86,353,124241,2,0,P|114:349|145:332,1,59.9999987125397,2|0,3:2|0:0,0:0:0:0:
203,286,124491,2,0,P|254:317|332:321,1,119.999997425079,10|2,1:2|3:2,0:0:0:0:
467,302,124991,2,0,L|459:237,1,59.9999987125397,2|10,3:2|1:2,0:0:0:0:
449,165,125241,1,2,3:2:0:0:
449,165,125366,5,2,3:2:0:0:
308,233,125616,1,2,3:2:0:0:
333,79,125866,1,10,1:2:0:0:
104,26,126241,2,0,P|50:54|10:98,2,119.999997425079,2|10|2,3:2|1:2|3:2,0:0:0:0:
249,82,126991,2,0,L|263:17,2,59.9999987125397,2|10|2,3:2|1:2|3:2,0:0:0:0:
231,158,127366,1,2,0:2:0:0:
92,290,127616,37,14,0:2:0:0:
278,336,127866,1,14,0:2:0:0:
65,281,128241,1,14,0:2:0:0:
304,344,128491,1,14,0:2:0:0:
236,125,128741,1,14,0:2:0:0:
180,308,128991,1,10,3:2:0:0:
190,273,129116,1,10,1:2:0:0:
200,238,129241,1,10,1:2:0:0:
210,203,129366,1,12,3:0:0:0:
420,94,129616,5,14,0:2:0:0:
234,48,129866,1,14,0:2:0:0:
447,103,130241,1,14,1:2:0:0:
208,40,130491,1,14,0:2:0:0:
276,259,130741,1,14,1:2:0:0:
332,76,130991,1,10,1:2:0:0:
322,111,131116,1,10,1:2:0:0:
312,146,131241,1,10,1:2:0:0:
302,183,131366,70,0,P|269:105|199:65,2,159.999990463257,4|8|0,3:2|1:0|3:0,0:0:0:0:
115,358,132116,2,0,L|127:263,1,79.9999952316285,8|0,1:0|3:0,0:0:0:0:
43,200,132366,2,0,P|109:169|196:189,1,159.999990463257,2|8,0:2|1:0,0:0:0:0:
250,246,132741,2,0,B|201:183|201:183|209:97,1,159.999990463257,2|0,0:2|3:0,0:0:0:0:
250,11,133116,2,0,L|239:90,1,79.9999952316285,10|10,1:2|1:2,0:0:0:0:
157,102,133366,6,0,B|203:100|229:131|229:131|254:162|300:163,1,159.999990463257,6|8,3:2|1:0,0:0:0:0:
484,37,133866,2,0,P|465:74|465:123,1,79.9999952316285,0|0,3:0|3:0,0:0:0:0:
481,194,134116,2,0,L|396:214,1,79.9999952316285,8|0,1:0|3:0,0:0:0:0:
285,268,134366,2,0,P|314:197|390:185,1,159.999990463257,2|8,0:2|1:0,0:0:0:0:
420,298,134741,2,0,B|367:308|367:308|332:342|332:342|276:351,1,159.999990463257,2|0,3:2|3:0,0:0:0:0:
199,325,135116,2,0,B|161:318|161:318|120:325,1,79.9999952316285,10|0,1:2|1:0,0:0:0:0:
46,356,135366,102,0,P|39:314|59:271,1,79.9999952316285,6|2,3:2|3:2,0:0:0:0:
120,232,135616,2,0,P|127:190|107:147,1,79.9999952316285,10|2,1:2|0:2,0:0:0:0:
89,74,135866,2,0,L|169:64,1,79.9999952316285,2|2,3:2|3:2,0:0:0:0:
235,15,136116,2,0,L|315:25,1,79.9999952316285,10|2,1:2|3:2,0:0:0:0:
393,49,136366,6,0,P|417:83|421:126,1,79.9999952316285,2|2,3:2|3:2,0:0:0:0:
405,201,136616,2,0,P|371:225|328:229,1,79.9999952316285,10|2,1:2|3:2,0:0:0:0:
256,206,136866,2,0,P|232:172|228:129,1,79.9999952316285,2|2,3:2|3:2,0:0:0:0:
244,54,137116,2,0,P|278:29|321:26,1,79.9999952316285,10|2,1:2|1:2,0:0:0:0:
409,123,137366,102,0,L|386:59,1,59.9999987125397,6|2,3:2|3:2,0:0:0:0:
313,39,137616,2,0,L|249:62,1,59.9999987125397,10|2,1:2|3:2,0:0:0:0:
239,133,137866,2,0,L|262:197,1,59.9999987125397,2|2,3:2|3:2,0:0:0:0:
325,219,138116,2,0,L|389:196,1,59.9999987125397,10|2,1:2|3:2,0:0:0:0:
477,233,138366,6,0,P|456:269|422:292,1,79.9999952316285,2|2,1:2|3:2,0:0:0:0:
310,296,138616,1,10,1:2:0:0:
473,312,138741,2,0,P|436:332|395:335,1,79.9999952316285,2|0,1:2|0:0,0:0:0:0:
289,294,138991,1,0,3:0:0:0:
423,380,139116,2,0,P|381:379|344:361,1,79.9999952316285,8|0,1:0|1:0,0:0:0:0:
266,294,139366,38,0,L|93:315,1,159.999990463257,6|8,3:2|1:0,0:0:0:0:
91,96,139866,2,0,P|65:77|27:63,2,53.333330154419,2|0|0,3:2|0:0|0:0,0:0:0:0:
143,170,140116,2,0,P|168:188|206:202,2,53.333330154419,10|0|0,1:0|0:0|0:0,0:0:0:0:
168,101,140366,6,0,P|186:75|200:37,2,53.333330154419,2|0|0,0:2|0:0|0:0,0:0:0:0:
65,168,140616,2,0,P|46:193|32:231,2,53.333330154419,10|0|0,1:0|0:0|0:0,0:0:0:0:
168,101,140866,2,0,L|258:116,1,79.9999952316285,2|0,3:2|3:0,0:0:0:0:
348,131,141116,2,0,L|258:146,1,79.9999952316285,10|0,1:0|1:0,0:0:0:0:
188,197,141366,38,0,B|265:182|265:182|340:224,1,159.999990463257,6|8,3:2|1:0,0:0:0:0:
502,339,141866,2,0,B|425:354|425:354|350:312,1,159.999990463257,0|8,3:0|1:0,0:0:0:0:
136,258,142366,2,0,B|145:202|145:202|179:167|179:167|189:114,1,159.999990463257,2|8,0:2|1:0,0:0:0:0:
259,25,142741,2,0,P|294:83|278:176,1,159.999990463257,0|0,3:0|3:0,0:0:0:0:
232,252,143116,2,0,L|312:261,1,79.9999952316285,8|0,1:0|1:0,0:0:0:0:
387,201,143366,6,0,P|417:176|432:133,2,79.9999952316285,6|2|10,3:2|3:2|1:2,0:0:0:0:
342,281,143741,2,0,P|378:294|423:285,2,79.9999952316285,2|2|2,0:2|3:2|3:2,0:0:0:0:
243,283,144116,2,0,P|249:321|279:355,2,79.9999952316285,10|2|2,1:2|3:2|3:2,0:0:0:0:
196,204,144491,2,0,P|166:229|151:272,2,79.9999952316285,2|10|2,3:2|1:2|3:2,0:0:0:0:
289,149,144866,102,0,P|319:123|333:86,2,79.9999952316285,2|2|10,3:2|3:2|1:2,0:0:0:0:
242,70,145241,2,0,P|235:31|210:0,2,79.9999952316285,2|6|2,1:2|3:2|3:2,0:0:0:0:
143,72,145616,2,0,P|105:58|66:64,2,79.9999952316285,10|2|2,1:2|3:2|3:2,0:0:0:0:
98,152,145991,2,0,P|67:177|53:214,2,79.9999952316285,2|10|2,3:2|1:2|3:2,0:0:0:0:
153,230,146366,6,0,L|235:241,1,79.9999952316285,2|0,1:2|3:2,0:0:0:0:
323,252,146616,1,8,1:2:0:0:
454,160,146741,2,0,L|372:171,1,79.9999952316285,2|0,1:2|0:2,0:0:0:0:
284,182,146991,1,0,3:2:0:0:
159,104,147116,2,0,L|241:115,1,79.9999952316285,10|0,1:2|1:2,0:0:0:0:
357,54,147366,38,0,P|295:82|254:169,1,159.999990463257,6|8,3:2|1:0,0:0:0:0:
366,355,147866,2,0,L|430:365,2,53.333330154419,2|0|0,3:2|0:0|0:0,0:0:0:0:
323,284,148116,2,0,L|375:275,2,53.333330154419,8|0|0,1:0|0:0|0:0,0:0:0:0:
281,361,148366,6,0,L|228:369,2,53.333330154419,2|0|0,0:2|0:0|0:0,0:0:0:0:
238,290,148616,2,0,L|185:281,2,53.333330154419,8|0|0,1:0|0:0|0:0,0:0:0:0:
275,220,148866,2,0,B|328:210|328:210|363:176|363:176|419:167,1,159.999990463257,2|10,3:2|1:0,0:0:0:0:
226,52,149366,102,0,P|235:26|254:6,2,53.333330154419,6|0|0,3:2|0:0|0:0,0:0:0:0:
171,107,149616,2,0,P|152:86|145:59,2,53.333330154419,8|0|0,1:0|0:0|0:0,0:0:0:0:
251,132,149866,2,0,P|166:149|125:209,1,159.999990463257,2|8,3:2|1:0,0:0:0:0:
331,117,150366,6,0,P|322:91|303:71,2,53.333330154419,2|0|0,0:2|0:0|0:0,0:0:0:0:
386,172,150616,2,0,P|404:151|411:124,2,53.333330154419,8|0|0,1:0|0:0|0:0,0:0:0:0:
306,197,150866,2,0,P|391:214|432:274,1,159.999990463257,2|10,0:0|1:0,0:0:0:0:
211,320,151366,102,0,L|218:376,2,53.333330154419,6|0|0,3:2|0:0|0:0,0:0:0:0:
157,255,151616,2,0,L|150:199,2,53.333330154419,8|0|0,1:0|0:0|0:0,0:0:0:0:
132,360,151866,2,0,L|121:276,1,79.9999952316285,2|0,3:2|0:0,0:0:0:0:
50,233,152116,2,0,L|39:149,1,79.9999952316285,8|0,1:0|0:0,0:0:0:0:
86,66,152366,6,0,L|79:10,2,53.333330154419,6|0|0,3:2|0:0|0:0,0:0:0:0:
140,131,152616,2,0,L|147:187,2,53.333330154419,8|0|0,1:0|0:0|0:0,0:0:0:0:
165,26,152866,2,0,L|175:109,1,79.9999952316285,2|0,0:0|0:0,0:0:0:0:
247,153,153116,2,0,L|257:236,1,79.9999952316285,10|0,1:0|0:0,0:0:0:0:
329,307,153366,102,0,P|328:334|318:357,2,53.333330154419,6|0|0,3:2|0:0|0:0,0:0:0:0:
406,251,153616,2,0,P|419:276|423:305,2,53.333330154419,10|0|0,1:0|0:0|0:0,0:0:0:0:
351,164,153866,2,0,B|342:123|342:123|353:79,1,79.9999952316285,2|0,0:0|0:0,0:0:0:0:
446,26,154116,2,0,B|455:67|455:67|444:111,1,79.9999952316285,10|0,1:0|0:0,0:0:0:0:
351,164,154366,6,0,L|265:146,1,79.9999952316285,2|0,1:2|3:0,0:0:0:0:
162,121,154616,1,8,1:0:0:0:
185,269,154741,2,0,L|203:183,1,79.9999952316285,2|0,1:2|0:0,0:0:0:0:
228,80,154991,1,0,3:0:0:0:
83,104,155116,2,0,L|169:122,1,79.9999952316285,10|0,1:2|1:0,0:0:0:0:
272,147,155366,38,0,B|318:145|344:176|344:176|369:207|415:208,1,159.999990463257,6|8,3:2|1:0,0:0:0:0:
230,337,155866,2,0,P|194:321|173:288,1,79.9999952316285,0|0,3:0|3:0,0:0:0:0:
90,310,156116,2,0,P|85:270|103:236,1,79.9999952316285,8|0,1:0|3:0,0:0:0:0:
30,189,156366,2,0,P|83:126|161:104,1,159.999990463257,0|8,0:0|1:0,0:0:0:0:
191,183,156741,2,0,L|214:21,1,159.999990463257,0|0,0:0|3:0,0:0:0:0:
301,3,157116,2,0,L|381:14,1,79.9999952316285,10|2,1:2|1:2,0:0:0:0:
483,72,157366,6,0,B|427:81|427:81|392:115|392:115|339:125,1,159.999990463257,6|8,3:2|1:0,0:0:0:0:
130,210,157866,2,0,L|211:226,1,79.9999952316285,0|0,3:0|3:0,0:0:0:0:
236,308,158116,2,0,L|317:324,1,79.9999952316285,8|0,1:0|3:0,0:0:0:0:
411,340,158366,102,0,P|448:354|481:389,1,79.9999952316285,6|0,1:2|3:0,0:0:0:0:
490,274,158616,1,8,1:0:0:0:
362,246,158741,2,0,P|393:221|440:210,1,79.9999952316285,4|0,1:2|0:0,0:0:0:0:
345,148,158991,1,0,1:0:0:0:
256,242,159116,2,0,P|250:203|264:157,1,79.9999952316285,12|0,1:2|1:0,0:0:0:0:
328,72,159366,53,6,3:2:0:0:
328,72,159491,1,0,3:0:0:0:
328,72,159616,2,0,L|157:56,1,159.999990463257,10|2,1:2|3:2,0:0:0:0:
40,241,160116,1,8,1:0:0:0:
40,241,160241,2,0,P|65:210|108:187,1,79.9999952316285,2|0,3:2|3:0,0:0:0:0:
193,172,160491,2,0,L|272:179,1,79.9999952316285,2|8,3:2|1:0,0:0:0:0:
362,209,160741,2,0,P|396:229|421:260,1,79.9999952316285,2|0,3:2|3:0,0:0:0:0:
429,352,160991,1,2,3:2:0:0:
341,362,161116,1,10,1:2:0:0:
279,298,161241,1,2,1:2:0:0:
191,308,161366,86,0,L|178:386,2,79.9999952316285,6|2|10,3:2|3:2|1:2,0:0:0:0:
205,219,161741,1,2,3:2:0:0:
219,133,161866,2,0,P|199:93|160:63,1,79.9999952316285,2|2,3:2|3:2,0:0:0:0:
84,63,162116,1,10,1:2:0:0:
48,170,162241,2,0,L|133:158,1,79.9999952316285,6|2,3:2|0:0,0:0:0:0:
303,158,162491,2,0,L|245:221,1,79.9999952316285,6|10,3:2|1:2,0:0:0:0:
168,359,162741,2,0,L|141:277,1,79.9999952316285,14|0,3:2|3:2,0:0:0:0:
13,135,162991,5,10,3:2:0:0:
47,245,163116,1,14,1:2:0:0:
127,158,163241,1,6,1:2:0:0:
256,192,167366,12,2,171241,3:2:0:0:
267,41,171366,6,0,B|312:43|336:74|336:74|360:106|406:105,1,159.999990463257,6|10,3:2|1:2,0:0:0:0:
432,361,171866,2,0,B|332:362|332:362|268:306,1,159.999990463257,2|8,3:2|1:2,0:0:0:0:
205,223,172241,2,0,P|215:263|212:307,1,79.9999952316285,2|0,0:2|3:0,0:0:0:0:
152,367,172491,2,0,L|61:360,1,79.9999952316285,2|8,3:2|1:2,0:0:0:0:
19,291,172741,2,0,P|22:251|36:214,1,79.9999952316285,2|0,3:2|0:0,0:0:0:0:
144,103,172991,2,0,P|158:65|161:26,2,79.9999952316285,2|10|2,3:2|1:2|0:2,0:0:0:0:
63,138,173366,5,6,3:2:0:0:
63,138,173491,1,0,3:0:0:0:
63,138,173616,2,0,B|122:117|122:117|220:144,1,159.999990463257,10|2,1:2|3:2,0:0:0:0:
462,70,174116,1,8,1:2:0:0:
462,70,174241,2,0,L|432:154,1,79.9999952316285,2|0,3:2|0:0,0:0:0:0:
331,133,174491,2,0,L|361:217,1,79.9999952316285,2|8,3:2|1:2,0:0:0:0:
431,275,174741,1,2,3:2:0:0:
192,368,174991,2,0,P|173:334|172:283,1,79.9999952316285,2|10,3:2|1:2,0:0:0:0:
200,205,175241,1,2,0:2:0:0:
130,138,175366,102,0,B|183:128|183:128|218:94|218:94|274:85,1,159.999990463257,6|10,3:2|1:2,0:0:0:0:
469,252,175866,2,0,P|405:317|325:336,1,159.999990463257,2|8,3:2|1:2,0:0:0:0:
245,350,176241,2,0,L|160:340,1,79.9999952316285,2|0,3:2|0:0,0:0:0:0:
44,284,176491,2,0,L|129:274,1,79.9999952316285,2|8,3:2|1:2,0:0:0:0:
251,221,176741,2,0,L|166:211,1,79.9999952316285,2|0,3:2|0:0,0:0:0:0:
40,195,176991,1,2,3:2:0:0:
63,104,177116,1,10,1:2:0:0:
145,60,177241,1,2,3:2:0:0:
245,48,177366,6,0,L|409:35,1,159.999990463257,6|10,3:2|1:2,0:0:0:0:
479,243,177866,2,0,L|485:325,2,79.9999952316285,2|0|8,3:2|0:0|1:2,0:0:0:0:
417,168,178241,1,2,3:2:0:0:
355,264,178366,102,0,P|370:305|410:343,1,79.9999952316285,4|2,1:2|3:2,0:0:0:0:
336,155,178616,1,8,1:2:0:0:
248,208,178741,2,0,P|219:243|207:296,1,79.9999952316285,6|0,1:2|0:0,0:0:0:0:
334,139,178991,1,2,1:2:0:0:
243,88,179116,2,0,P|198:81|146:97,1,79.9999952316285,14|2,1:2|1:2,0:0:0:0:
53,55,179366,6,0,L|70:225,1,159.999990463257,6|10,3:2|1:2,0:0:0:0:
235,361,179866,2,0,B|258:318|258:318|247:207,1,159.999990463257,2|8,3:2|1:2,0:0:0:0:
237,108,180241,2,0,P|276:112|313:135,1,79.9999952316285,2|0,3:2|0:0,0:0:0:0:
392,258,180491,2,0,L|382:173,1,79.9999952316285,2|8,3:2|1:2,0:0:0:0:
509,92,180741,2,0,P|470:96|433:119,1,79.9999952316285,2|0,3:2|0:0,0:0:0:0:
368,68,180991,1,2,3:2:0:0:
368,68,181116,1,10,1:2:0:0:
368,68,181241,1,2,1:2:0:0:
368,68,181366,102,0,B|272:57|272:57|208:99,1,159.999990463257,6|10,3:2|1:2,0:0:0:0:
71,301,181866,1,2,3:2:0:0:
122,50,182116,1,8,1:2:0:0:
122,50,182241,2,0,L|131:138,1,79.9999952316285,2|0,3:2|0:0,0:0:0:0:
184,235,182491,2,0,L|175:155,1,79.9999952316285,2|8,3:2|1:2,0:0:0:0:
216,63,182741,1,2,3:2:0:0:
310,300,182991,2,0,P|352:298|396:274,1,79.9999952316285,2|10,3:2|1:2,0:0:0:0:
445,201,183241,1,2,0:2:0:0:
386,125,183366,6,0,B|333:115|333:115|298:81|298:81|242:72,1,159.999990463257,6|10,3:2|1:2,0:0:0:0:
13,18,183866,2,0,L|27:177,1,159.999990463257,2|8,3:2|1:2,0:0:0:0:
12,290,184241,2,0,P|45:263|89:252,1,79.9999952316285,2|0,3:2|3:0,0:0:0:0:
133,188,184491,2,0,P|173:204|205:236,1,79.9999952316285,2|8,3:2|1:2,0:0:0:0:
281,235,184741,2,0,P|288:278|276:321,1,79.9999952316285,2|0,3:2|3:0,0:0:0:0:
370,364,184991,1,2,3:2:0:0:
447,309,185116,1,10,1:2:0:0:
414,216,185241,1,2,0:2:0:0:
473,135,185366,102,0,B|427:137|401:106|401:106|375:72|330:74,1,159.999990463257,6|10,3:2|1:2,0:0:0:0:
97,149,185866,2,0,L|15:155,2,79.9999952316285,2|0|8,3:2|0:0|1:2,0:0:0:0:
189,139,186241,1,2,3:2:0:0:
151,237,186366,6,0,P|161:276|201:309,1,79.9999952316285,4|2,1:2|3:2,0:0:0:0:
295,318,186616,1,8,3:0:0:0:
334,218,186741,2,0,P|324:179|284:146,1,79.9999952316285,6|0,1:2|3:0,0:0:0:0:
189,139,186991,1,2,1:2:0:0:
154,37,187116,69,14,1:2:0:0:
154,37,187241,2,0,P|92:33|42:11,1,108.108101664363,6|0,1:2|0:0,0:0:0:0:
