osu file format v14

[General]
AudioFilename: audio.mp3
AudioLeadIn: 0
PreviewTime: 35303
Countdown: 0
SampleSet: Soft
StackLeniency: 0.7
Mode: 0
LetterboxInBreaks: 0
EpilepsyWarning: 1
WidescreenStoryboard: 1

[Editor]
DistanceSpacing: 1.3
BeatDivisor: 4
GridSize: 4
TimelineZoom: 2.1

[Metadata]
Title:Megalovania Dual Mix
TitleUnicode:Megalovania Dual Mix
Artist:toby fox & RichaadEB
ArtistUnicode:toby fox & RichaadEB
Creator:Fatfan Kolek
Version:Insane
Source:UNDERTALE
Tags:Chiptune Radiation Sans Boss Battle Ost Soundtrack Nihilist ThunderScott Ace Waters Determination Emilia Kalibe Celektus Kyshiro Bergy
BeatmapID:1605059
BeatmapSetID:763337

[Difficulty]
HPDrainRate:6
CircleSize:4
OverallDifficulty:8
ApproachRate:9.2
SliderMultiplier:1.79999990463257
SliderTickRate:1

[Events]
//Background and Video events
0,0,"megalovania.jpg",0,0
//Break Periods
2,163441,166796
//Storyboard Layer 0 (Background)
Sprite,Background,Centre,"sb\bg\bw.jpg",320,240 F,0,19215,19365,0,0.4 S,0,19365,,0.4444444 F,0,35215,35365,0.4,0
Sprite,Background,Centre,"sb\bg\bw.jpg",320,240 F,0,115215,115365,0,0.2 S,0,115365,,0.4444444 F,0,127215,127365,0.2,0
Sprite,Background,Centre,"sb\bg\red.jpg",320,240 F,0,159215,159365,0,1 S,0,159365,,0.4444444 F,0,163215,163365,1,0
Sprite,Background,Centre,"megalovania.jpg",320,240 F,0,155215,155365,0,1 S,0,155365,,0.4444444 F,0,159215,159365,1,0
Sprite,Background,Centre,"sb\bg\green.jpg",320,240 F,0,147215,147365,0,1 S,0,147365,,0.4444444 F,0,155215,155365,1,0
Sprite,Background,Centre,"megalovania.jpg",320,240 F,0,141215,141365,0,1 S,0,141365,,0.4444444 F,0,147215,147365,1,0
Sprite,Background,Centre,"sb\bg\green.jpg",320,240 F,0,139215,139365,0,1 S,0,139365,,0.4444444 F,0,141215,141365,1,0
Sprite,Background,Centre,"megalovania.jpg",320,240 F,0,131215,131365,0,1 S,0,131365,,0.4444444 F,0,139215,139365,1,0
Sprite,Background,Centre,"sb\bg\red.jpg",320,240 F,0,67215,67365,0,1 S,0,67365,,0.4444444 F,0,99215,99365,1,0
Sprite,Background,Centre,"sb\bg\red.jpg",320,240 F,0,35215,35365,0,1 S,0,35365,,0.4444444 F,0,51215,51365,1,0
Sprite,Background,Centre,"sb\bg\black.jpg",320,240 F,0,127215,127365,0,0.3 S,0,127365,,0.4444444 F,0,131215,131365,0.3,0
Sprite,Background,Centre,"sb\bg\red.jpg",320,240 F,0,171215,171365,0,1 S,0,171365,,0.4444444 F,0,187090,187240,1,0
Sprite,Background,Centre,"sb\bg\black.jpg",320,240 F,0,51215,51365,0,0.4 S,0,51365,,0.4444444 F,0,59215,59365,0.4,0
Sprite,Background,Centre,"megalovania.jpg",320,240 F,0,59215,59365,0,0.4 S,0,59365,,0.4444444 F,0,67215,67365,0.4,0
Sprite,Background,Centre,"sb\bg\bw.jpg",320,240 F,0,163215,163365,0,0.4 S,0,163365,,0.4444444 F,0,171215,171365,0.4,0
Sprite,Background,Centre,"megalovania.jpg",320,240 F,0,-150,0,0,0.1 S,0,0,,0.4444444 F,0,12553,,0
Sprite,Background,Centre,"sb\bg\black.jpg",320,240 S,0,12803,,0.4444444 F,0,19215,19365,0.1,0
Sprite,Background,Centre,"sb\bg\blurred.jpg",0,0 F,0,159215,159365,0,0.8 M,0,159241,159366,320.0887,241.1284,320.37,239.76 S,0,159365,,0.4466667 M,0,159366,159491,320.37,239.76,319.34,239.18 M,0,159491,159616,319.34,239.18,318.29,239.97 M,0,159617,159647,318.29,239.97,318.4466,240.1315 M,0,159648,159678,318.4466,240.1315,318.6033,240.2931 M,0,159679,159709,318.6033,240.2931,318.8204,240.3456 M,0,159710,159741,318.8204,240.3456,319.0403,240.3932 M,0,159741,159866,319.0403,240.3932,318.53,238.59 M,0,159867,159897,318.53,238.59,318.3137,238.6518 M,0,159898,159928,318.3137,238.6518,318.0973,238.7136 M,0,159929,159959,318.0973,238.7136,317.881,238.7754 M,0,159960,159991,317.881,238.7754,317.6829,238.8554 M,0,159992,160022,317.6829,238.8554,317.6219,239.072 M,0,160023,160053,317.6219,239.072,317.5609,239.2886 M,0,160054,160084,317.5609,239.2886,317.4999,239.5051 M,0,160085,160116,317.4999,239.5051,317.4389,239.7217 M,0,160116,160241,317.4389,239.7217,317.64,241.61 M,0,160242,160272,317.64,241.61,317.7015,241.3936 M,0,160273,160303,317.7015,241.3936,317.763,241.1771 M,0,160304,160334,317.763,241.1771,317.8245,240.9607 M,0,160335,160366,317.8245,240.9607,317.886,240.7443 M,0,160366,160491,317.886,240.7443,319.04,240.39 M,0,160492,160522,319.04,240.39,319.1015,240.1736 M,0,160523,160553,319.1015,240.1736,319.163,239.9571 M,0,160554,160584,319.163,239.9571,319.2245,239.7407 M,0,160585,160616,319.2245,239.7407,319.286,239.5243 M,0,160616,160741,319.286,239.5243,320.42,239.12 M,0,160742,160772,320.42,239.12,320.4815,238.9036 M,0,160773,160803,320.4815,238.9036,320.543,238.6871 M,0,160804,160834,320.543,238.6871,320.6045,238.4707 M,0,160835,160866,320.6045,238.4707,320.666,238.2543 M,0,160866,160991,320.666,238.2543,321.94,239.5 M,0,160991,161116,321.94,239.5,320.98,240.27 M,0,161116,161241,320.98,240.27,321.91,241.04 M,0,161241,161366,321.91,241.04,320.66,241.69 M,0,161367,161397,320.66,241.69,320.6082,241.4716 M,0,161398,161428,320.6082,241.4716,320.522,241.2645 M,0,161429,161459,320.522,241.2645,320.4016,241.0751 M,0,161460,161491,320.4016,241.0751,320.2503,240.9091 M,0,161492,161522,320.2503,240.9091,320.0712,240.7738 M,0,161523,161553,320.0712,240.7738,319.8725,240.6698 M,0,161554,161584,319.8725,240.6698,319.6588,240.6014 M,0,161585,161616,319.6588,240.6014,319.4365,240.5707 M,0,161616,161866,319.4365,240.5707,318.04,238.29 M,0,161867,161897,318.04,238.29,317.9876,238.5088 M,0,161898,161928,317.9876,238.5088,317.9352,238.7276 M,0,161929,161959,317.9352,238.7276,317.8827,238.9464 M,0,161960,161991,317.8827,238.9464,317.8303,239.1652 M,0,161991,162116,317.8303,239.1652,318.41,240.35 M,0,162116,162241,318.41,240.35 M,0,162242,162272,318.41,240.35,318.4812,240.1375 M,0,162273,162303,318.4812,240.1375,318.5945,239.9443 M,0,162304,162334,318.5945,239.9443,318.7515,239.7846 M,0,162335,162366,318.7515,239.7846,318.938,239.6606 M,0,162366,162491,318.938,239.6606,319.56,238.35 M,0,162492,162522,319.56,238.35,319.7795,238.305 M,0,162523,162553,319.7795,238.305,320.0034,238.3065 M,0,162554,162584,320.0034,238.3065,320.2204,238.3619 M,0,162585,162616,320.2204,238.3619,320.4212,238.4612 M,0,162616,162741,320.4212,238.4612,321.9,238.31 M,0,162742,162772,321.9,238.31,322.0468,238.4793 M,0,162773,162803,322.0468,238.4793,322.1549,238.6754 M,0,162804,162834,322.1549,238.6754,322.212,238.8919 M,0,162835,162866,322.212,238.8919,322.2225,239.1157 M,0,162866,162991,322.2225,239.1157,321.92,240.6 M,0,162991,163116,321.92,240.6,320.44,240.75 M,0,163116,163241,320.44,240.75,321.01,239.33 F,0,163215,163365,0.8,0
Sprite,Background,Centre,"sb\bg\blurblue.jpg",0,0 F,0,155215,155365,0,0.8 M,0,155241,155366,318.8649,240.6248,320.65,240.84 S,0,155365,,0.4466667 M,0,155367,155397,320.65,240.84,320.872,240.8032 M,0,155398,155428,320.872,240.8032,321.0939,240.7664 M,0,155429,155459,321.0939,240.7664,321.3159,240.7296 M,0,155460,155491,321.3159,240.7296,321.5379,240.6928 M,0,155492,155522,321.5379,240.6928,321.7599,240.6561 M,0,155523,155553,321.7599,240.6561,321.9818,240.6192 M,0,155554,155584,321.9818,240.6192,322.2038,240.5825 M,0,155585,155616,322.2038,240.5825,322.4258,240.5457 M,0,155617,155647,322.4258,240.5457,322.2038,240.5825 M,0,155648,155678,322.2038,240.5825,321.9818,240.6192 M,0,155679,155709,321.9818,240.6192,321.7599,240.6561 M,0,155710,155741,321.7599,240.6561,321.5379,240.6928 M,0,155742,155772,321.5379,240.6928,321.3159,240.7296 M,0,155773,155803,321.3159,240.7296,321.0939,240.7664 M,0,155804,155834,321.0939,240.7664,320.872,240.8032 M,0,155835,155866,320.872,240.8032,320.65,240.84 M,0,155866,156116,320.65,240.84,317.64,241.72 M,0,156117,156147,317.64,241.72,317.8619,241.683 M,0,156148,156178,317.8619,241.683,318.0839,241.646 M,0,156179,156209,318.0839,241.646,318.3058,241.609 M,0,156210,156241,318.3058,241.609,318.5277,241.572 M,0,156241,156366,318.5277,241.572,319.63,240.5 M,0,156367,156397,319.63,240.5,319.4495,240.3657 M,0,156398,156428,319.4495,240.3657,319.269,240.2313 M,0,156429,156459,319.269,240.2313,319.0628,240.2022 M,0,156460,156491,319.0628,240.2022,318.8407,240.2381 M,0,156492,156522,318.8407,240.2381,318.6186,240.2741 M,0,156523,156553,318.6186,240.2741,318.3965,240.31 M,0,156554,156584,318.3965,240.31,318.1743,240.3459 M,0,156585,156616,318.1743,240.3459,317.9522,240.3819 M,0,156616,156741,317.9522,240.3819,317.53,239.19 M,0,156742,156772,317.53,239.19,317.623,238.9861 M,0,156773,156803,317.623,238.9861,317.757,238.8068 M,0,156804,156834,317.757,238.8068,317.9283,238.6624 M,0,156835,156866,317.9283,238.6624,318.1283,238.5607 M,0,156866,156991,318.1283,238.5607,319.06,239.08 M,0,156991,157116,319.06,239.08 M,0,157117,157147,319.06,239.08,319.2828,239.0562 M,0,157148,157178,319.2828,239.0562,319.5051,239.0816 M,0,157179,157209,319.5051,239.0816,319.7155,239.1584 M,0,157210,157241,319.7155,239.1584,319.9,239.28 M,0,157241,157366,319.9,239.28,320.03,241.02 M,0,157367,157397,320.03,241.02,320.2543,241.0119 M,0,157398,157428,320.2543,241.0119,320.4742,240.9675 M,0,157429,157459,320.4742,240.9675,320.6831,240.8855 M,0,157460,157491,320.6831,240.8855,320.873,240.7659 M,0,157492,157522,320.873,240.7659,321.0401,240.6163 M,0,157523,157553,321.0401,240.6163,321.1786,240.4399 M,0,157554,157584,321.1786,240.4399,321.2844,240.2419 M,0,157585,157616,321.2844,240.2419,321.3512,240.0276 M,0,157617,157647,321.3512,240.0276,321.2844,240.2419 M,0,157648,157678,321.2844,240.2419,321.1786,240.4399 M,0,157679,157709,321.1786,240.4399,321.0401,240.6163 M,0,157710,157741,321.0401,240.6163,320.873,240.7659 M,0,157742,157772,320.873,240.7659,320.6831,240.8855 M,0,157773,157803,320.6831,240.8855,320.4742,240.9675 M,0,157804,157834,320.4742,240.9675,320.2543,241.0119 M,0,157835,157866,320.2543,241.0119,320.03,241.02 M,0,157866,158116,320.03,241.02,318.41,238.48 M,0,158117,158147,318.41,238.48,318.3694,238.7013 M,0,158148,158178,318.3694,238.7013,318.3287,238.9226 M,0,158179,158209,318.3287,238.9226,318.2881,239.1439 M,0,158210,158241,318.2881,239.1439,318.2474,239.3652 M,0,158241,158366,318.2474,239.3652,318.53,240.83 M,0,158367,158397,318.53,240.83,318.7545,240.8206 M,0,158398,158428,318.7545,240.8206,318.973,240.7686 M,0,158429,158459,318.973,240.7686,319.1733,240.6674 M,0,158460,158491,319.1733,240.6674,319.3425,240.5199 M,0,158492,158522,319.3425,240.5199,319.5034,240.3631 M,0,158523,158553,319.5034,240.3631,319.6943,240.2451 M,0,158554,158584,319.6943,240.2451,319.9095,240.1823 M,0,158585,158616,319.9095,240.1823,320.13,240.18 M,0,158616,158741,320.13,240.18,321.21,239.09 M,0,158742,158772,321.21,239.09,321.3811,239.2361 M,0,158773,158803,321.3811,239.2361,321.5522,239.3823 M,0,158804,158834,321.5522,239.3823,321.6822,239.543 M,0,158835,158866,321.6822,239.543,321.6421,239.7644 M,0,158867,158897,321.6421,239.7644,321.602,239.9858 M,0,158898,158928,321.602,239.9858,321.5619,240.2072 M,0,158929,158959,321.5619,240.2072,321.5218,240.4286 M,0,158960,158991,321.5218,240.4286,321.4817,240.65 M,0,158991,159116,321.4817,240.65,320.65,241.78 M,0,159117,159147,320.65,241.78,320.4526,241.6744 M,0,159148,159178,320.4526,241.6744,320.2851,241.5262 M,0,159179,159209,320.2851,241.5262,320.1594,241.3408 M,0,159210,159241,320.1594,241.3408,320.0887,241.1284 F,0,159215,159365,0.8,0
Sprite,Background,Centre,"sb\bg\blurgreen.jpg",0,0 F,0,147215,147365,0,0.8 M,0,147241,147366,319.4675,239.1498,318.55,238.53 S,0,147365,,0.4466667 M,0,147367,147397,318.55,238.53,318.3364,238.4606 M,0,147398,147428,318.3364,238.4606,318.1151,238.4233 M,0,147429,147459,318.1151,238.4233,318.0403,238.4186 M,0,147460,147491,318.0403,238.4186,318.2634,238.4443 M,0,147492,147522,318.2634,238.4443,318.4795,238.5047 M,0,147523,147532,318.4795,238.5047,318.55,238.53 M,0,147532,147616,318.55,238.53,319.46,239.14 M,0,147617,147647,319.46,239.14,319.6736,239.0706 M,0,147648,147678,319.6736,239.0706,319.8949,239.0333 M,0,147679,147709,319.8949,239.0333,319.9697,239.0286 M,0,147710,147741,319.9697,239.0286,319.7466,239.0543 M,0,147742,147772,319.7466,239.0543,319.5305,239.1147 M,0,147773,147782,319.5305,239.1147,319.46,239.14 M,0,147782,147866,319.46,239.14,318.28,239.69 M,0,147867,147897,318.28,239.69,318.0664,239.6206 M,0,147898,147928,318.0664,239.6206,317.8451,239.5833 M,0,147929,147959,317.8451,239.5833,317.7703,239.5786 M,0,147960,147991,317.7703,239.5786,317.9933,239.6043 M,0,147992,148022,317.9933,239.6043,318.2095,239.6647 M,0,148023,148032,318.2095,239.6647,318.28,239.69 M,0,148032,148116,318.28,239.69,319.19,240.3 M,0,148117,148147,319.19,240.3,319.4036,240.2306 M,0,148148,148178,319.4036,240.2306,319.6249,240.1933 M,0,148179,148209,319.6249,240.1933,319.6997,240.1886 M,0,148210,148241,319.6997,240.1886,319.4767,240.2143 M,0,148242,148272,319.4767,240.2143,319.2605,240.2746 M,0,148273,148282,319.2605,240.2746,319.19,240.3 M,0,148282,148366,319.19,240.3,318.1,241.35 M,0,148366,148449,318.1,241.35 M,0,148450,148480,318.1,241.35,318.0691,241.1271 M,0,148481,148511,318.0691,241.1271,318.0381,240.9043 M,0,148512,148532,318.0381,240.9043,318.0175,240.7557 M,0,148532,148616,318.0175,240.7557,319.32,241.13 M,0,148616,148699,319.32,241.13 M,0,148700,148730,319.32,241.13,319.2903,241.353 M,0,148731,148761,319.2903,241.353,319.2605,241.576 M,0,148762,148782,319.2605,241.576,319.2407,241.7247 M,0,148782,148866,319.2407,241.7247,320.51,241.34 M,0,148866,148949,320.51,241.34 M,0,148950,148980,320.51,241.34,320.479,241.1171 M,0,148981,149011,320.479,241.1171,320.4481,240.8943 M,0,149012,149032,320.4481,240.8943,320.4275,240.7457 M,0,149032,149116,320.4275,240.7457,321.73,241.12 M,0,149116,149199,321.73,241.12 M,0,149200,149230,321.73,241.12,321.7003,241.343 M,0,149231,149261,321.7003,241.343,321.6705,241.5661 M,0,149262,149282,321.6705,241.5661,321.6507,241.7147 M,0,149282,149366,321.6507,241.7147,321.47,239.66 M,0,149367,149397,321.47,239.66,321.5566,239.4542 M,0,149398,149428,321.5566,239.4542,321.699,239.2829 M,0,149429,149459,321.699,239.2829,321.7577,239.2368 M,0,149460,149491,321.7577,239.2368,321.598,239.3922 M,0,149492,149522,321.598,239.3922,321.4947,239.5894 M,0,149523,149532,321.4947,239.5894,321.47,239.66 M,0,149532,149616,321.47,239.66,320.57,239.01 M,0,149617,149647,320.57,239.01,320.5954,238.7869 M,0,149648,149678,320.5954,238.7869,320.6541,238.5702 M,0,149679,149709,320.6541,238.5702,320.6842,238.5016 M,0,149710,149741,320.6842,238.5016,320.6111,238.7137 M,0,149742,149772,320.6111,238.7137,320.5763,238.9353 M,0,149773,149782,320.5763,238.9353,320.57,239.01 M,0,149782,149866,320.57,239.01,319.43,239.01 M,0,149867,149897,319.43,239.01,319.4046,238.7869 M,0,149898,149928,319.4046,238.7869,319.3459,238.5702 M,0,149929,149959,319.3459,238.5702,319.3158,238.5016 M,0,149960,149991,319.3158,238.5016,319.3889,238.7137 M,0,149992,150022,319.3889,238.7137,319.4237,238.9353 M,0,150023,150032,319.4237,238.9353,319.43,239.01 M,0,150032,150116,319.43,239.01,318.53,239.66 M,0,150117,150147,318.53,239.66,318.4434,239.4542 M,0,150148,150178,318.4434,239.4542,318.301,239.2829 M,0,150179,150209,318.301,239.2829,318.2423,239.2368 M,0,150210,150241,318.2423,239.2368,318.402,239.3922 M,0,150242,150272,318.402,239.3922,318.5053,239.5894 M,0,150273,150282,318.5053,239.5894,318.53,239.66 M,0,150282,150366,318.53,239.66,318.66,241.81 M,0,150367,150397,318.66,241.81,318.5969,241.594 M,0,150398,150428,318.5969,241.594,318.5338,241.378 M,0,150429,150459,318.5338,241.378,318.4708,241.1621 M,0,150460,150491,318.4708,241.1621,318.4077,240.9461 M,0,150491,150616,318.4077,240.9461,319.44,239.89 M,0,150617,150647,319.44,239.89,319.4594,240.1142 M,0,150648,150678,319.4594,240.1142,319.4788,240.3383 M,0,150679,150709,319.4788,240.3383,319.4982,240.5625 M,0,150710,150741,319.4982,240.5625,319.5176,240.7867 M,0,150741,150866,319.5176,240.7867,321.34,241.81 M,0,150867,150897,321.34,241.81,321.4021,241.5938 M,0,150898,150928,321.4021,241.5938,321.4643,241.3775 M,0,150929,150959,321.4643,241.3775,321.5264,241.1613 M,0,150960,150991,321.5264,241.1613,321.5886,240.945 M,0,150991,151116,321.5886,240.945,320.56,239.89 M,0,151117,151147,320.56,239.89,320.5399,240.1141 M,0,151148,151178,320.5399,240.1141,320.5197,240.3382 M,0,151179,151209,320.5197,240.3382,320.4996,240.5623 M,0,151210,151241,320.4996,240.5623,320.48,240.78 M,0,151241,151366,320.48,240.78,322.04,240.02 M,0,151367,151397,322.04,240.02,321.8591,239.8881 M,0,151398,151428,321.8591,239.8881,321.6521,239.804 M,0,151429,151459,321.6521,239.804,321.5794,239.7873 M,0,151460,151491,321.5794,239.7873,321.7932,239.8529 M,0,151492,151522,321.7932,239.8529,321.9813,239.9735 M,0,151523,151532,321.9813,239.9735,322.04,240.02 M,0,151532,151616,322.04,240.02,320.69,238.74 M,0,151617,151647,320.69,238.74,320.8708,238.608 M,0,151648,151678,320.8708,238.608,321.0779,238.524 M,0,151679,151709,321.0779,238.524,321.1506,238.5073 M,0,151710,151741,321.1506,238.5073,320.9368,238.5729 M,0,151742,151772,320.9368,238.5729,320.7487,238.6935 M,0,151773,151782,320.7487,238.6935,320.69,238.74 M,0,151782,151866,320.69,238.74,319.31,238.74 M,0,151867,151897,319.31,238.74,319.1292,238.608 M,0,151898,151928,319.1292,238.608,318.9221,238.524 M,0,151929,151959,318.9221,238.524,318.8494,238.5073 M,0,151960,151991,318.8494,238.5073,319.0632,238.5729 M,0,151992,152022,319.0632,238.5729,319.2513,238.6935 M,0,152023,152032,319.2513,238.6935,319.31,238.74 M,0,152032,152116,319.31,238.74,317.96,240.02 M,0,152117,152147,317.96,240.02,318.1409,239.8881 M,0,152148,152178,318.1409,239.8881,318.3479,239.804 M,0,152179,152209,318.3479,239.804,318.4206,239.7873 M,0,152210,152241,318.4206,239.7873,318.2068,239.8529 M,0,152242,152272,318.2068,239.8529,318.0187,239.9735 M,0,152273,152282,318.0187,239.9735,317.96,240.02 M,0,152282,152366,317.96,240.02,317.97,241.44 M,0,152366,152449,317.97,241.44,318.49,241.73 M,0,152449,152533,318.49,241.73,319.08,241.62 M,0,152533,152616,319.08,241.62,319.48,241.18 M,0,152617,152647,319.48,241.18,319.437,240.9592 M,0,152648,152678,319.437,240.9592,319.394,240.7383 M,0,152679,152709,319.394,240.7383,319.3796,240.6647 M,0,152710,152741,319.3796,240.6647,319.4226,240.8855 M,0,152742,152772,319.4226,240.8855,319.4657,241.1064 M,0,152773,152782,319.4657,241.1064,319.48,241.18 M,0,152782,152866,319.48,241.18,322.03,241.44 M,0,152866,152949,322.03,241.44,321.51,241.73 M,0,152949,153033,321.51,241.73,320.92,241.62 M,0,153033,153116,320.92,241.62,320.52,241.18 M,0,153117,153147,320.52,241.18,320.563,240.9592 M,0,153148,153178,320.563,240.9592,320.606,240.7383 M,0,153179,153209,320.606,240.7383,320.6204,240.6647 M,0,153210,153241,320.6204,240.6647,320.5774,240.8855 M,0,153242,153272,320.5774,240.8855,320.5343,241.1064 M,0,153273,153282,320.5343,241.1064,320.52,241.18 M,0,153282,153366,320.52,241.18,321.44,239.31 M,0,153367,153397,321.44,239.31,321.3538,239.1022 M,0,153398,153428,321.3538,239.1022,321.265,238.8965 M,0,153429,153459,321.265,238.8965,321.0804,238.7677 M,0,153460,153491,321.0804,238.7677,320.8959,238.639 M,0,153491,153616,320.8959,238.639,319.1,238.63 M,0,153617,153647,319.1,238.63,318.9182,238.7626 M,0,153648,153678,318.9182,238.7626,318.7365,238.8953 M,0,153679,153709,318.7365,238.8953,318.6469,239.1004 M,0,153710,153741,318.6469,239.1004,318.5607,239.3083 M,0,153741,153866,318.5607,239.3083,318.56,240.85 M,0,153867,153897,318.56,240.85,318.6462,241.0578 M,0,153898,153928,318.6462,241.0578,318.735,241.2635 M,0,153929,153959,318.735,241.2635,318.9191,241.3929 M,0,153960,153991,318.9191,241.3929,319.1,241.52 M,0,153991,154116,319.1,241.52,320.89,241.52 M,0,154117,154147,320.89,241.52,321.0757,241.3929 M,0,154148,154178,321.0757,241.3929,321.2614,241.2659 M,0,154179,154209,321.2614,241.2659,321.3522,241.0618 M,0,154210,154241,321.3522,241.0618,321.4384,240.854 M,0,154241,154366,321.4384,240.854,321.7,239.62 M,0,154367,154397,321.7,239.62,321.4875,239.5498 M,0,154398,154428,321.4875,239.5498,321.2646,239.5319 M,0,154429,154459,321.2646,239.5319,321.0454,239.5759 M,0,154460,154491,321.0454,239.5759,320.8442,239.6728 M,0,154491,154616,320.8442,239.6728,320.22,240.68 M,0,154616,154741,320.22,240.68,319.93,238.89 M,0,154742,154772,319.93,238.89,319.7628,239.0388 M,0,154773,154803,319.7628,239.0388,319.6361,239.2229 M,0,154804,154834,319.6361,239.2229,319.5648,239.4349 M,0,154835,154866,319.5648,239.4349,319.549,239.6575 M,0,154866,154991,319.549,239.6575,320.43,240.76 M,0,154991,155116,320.43,240.76,318.39,239.91 M,0,155117,155147,318.39,239.91,318.4365,240.129 M,0,155148,155178,318.4365,240.129,318.5333,240.3305 M,0,155179,155209,318.5333,240.3305,318.6782,240.5014 M,0,155210,155241,318.6782,240.5014,318.8649,240.6248 F,0,155215,155365,0.8,0
Sprite,Background,Centre,"sb\bg\blurblue.jpg",0,0 F,0,141215,141365,0,0.8 M,0,141282,141366,318.3182,239.2966,318.32,240.26 S,0,141365,,0.4466667 M,0,141367,141397,318.32,240.26,318.2735,240.4801 M,0,141398,141428,318.2735,240.4801,318.2269,240.7003 M,0,141429,141459,318.2269,240.7003,318.1804,240.9204 M,0,141460,141491,318.1804,240.9204,318.1339,241.1405 M,0,141492,141522,318.1339,241.1405,318.0873,241.3607 M,0,141523,141553,318.0873,241.3607,318.1022,241.5727 M,0,141554,141584,318.1022,241.5727,318.2044,241.7731 M,0,141585,141616,318.2044,241.7731,318.3067,241.9735 M,0,141617,141647,318.3067,241.9735,318.2044,241.7731 M,0,141648,141678,318.2044,241.7731,318.1022,241.5727 M,0,141679,141709,318.1022,241.5727,318.0873,241.3607 M,0,141710,141741,318.0873,241.3607,318.1339,241.1405 M,0,141742,141772,318.1339,241.1405,318.1804,240.9204 M,0,141773,141803,318.1804,240.9204,318.2269,240.7003 M,0,141804,141834,318.2269,240.7003,318.2735,240.4801 M,0,141835,141866,318.2735,240.4801,318.32,240.26 M,0,141866,142116,318.32,240.26,319.93,238.63 M,0,142117,142147,319.93,238.63,320.1528,238.6615 M,0,142148,142178,320.1528,238.6615,320.3756,238.693 M,0,142179,142209,320.3756,238.693,320.5984,238.7244 M,0,142210,142241,320.5984,238.7244,320.8211,238.7559 M,0,142241,142366,320.8211,238.7559,322.11,239.23 M,0,142367,142397,322.11,239.23,321.8898,239.2742 M,0,142398,142428,321.8898,239.2742,321.6782,239.349 M,0,142429,142459,321.6782,239.349,321.4802,239.4552 M,0,142460,142491,321.4802,239.4552,321.3028,239.5929 M,0,142492,142522,321.3028,239.5929,321.1471,239.7546 M,0,142523,142553,321.1471,239.7546,321.0177,239.9381 M,0,142554,142584,321.0177,239.9381,320.9203,240.1404 M,0,142585,142616,320.9203,240.1404,320.8534,240.3547 M,0,142616,142866,320.8534,240.3547,318.59,241.69 M,0,142867,142897,318.59,241.69,318.6378,241.4701 M,0,142898,142928,318.6378,241.4701,318.6856,241.2503 M,0,142929,142959,318.6856,241.2503,318.7334,241.0304 M,0,142960,142991,318.7334,241.0304,318.7812,240.8105 M,0,142991,143116,318.7812,240.8105,318.08,240.12 M,0,143117,143147,318.08,240.12,318.1278,239.9001 M,0,143148,143178,318.1278,239.9001,318.1756,239.6803 M,0,143179,143209,318.1756,239.6803,318.2234,239.4604 M,0,143210,143241,318.2234,239.4604,318.2712,239.2405 M,0,143241,143366,318.2712,239.2405,318.07,238.23 M,0,143366,143491,318.07,238.23,318.93,238.44 M,0,143492,143522,318.93,238.44,318.7319,238.3343 M,0,143523,143553,318.7319,238.3343,318.5196,238.262 M,0,143554,143584,318.5196,238.262,318.2979,238.2272 M,0,143585,143616,318.2979,238.2272,318.08,238.23 M,0,143616,143741,318.08,238.23,319.46,239.28 M,0,143741,143866,319.46,239.28,320.28,238.92 M,0,143867,143897,320.28,238.92,320.074,239.0105 M,0,143898,143928,320.074,239.0105,319.868,239.1009 M,0,143929,143959,319.868,239.1009,319.6619,239.1913 M,0,143960,143991,319.6619,239.1913,319.46,239.28 M,0,143991,144116,319.46,239.28,321.67,240.15 M,0,144116,144241,321.67,240.15,320.84,239.79 M,0,144242,144272,320.84,239.79,321.0469,239.8783 M,0,144273,144303,321.0469,239.8783,321.2539,239.9667 M,0,144304,144334,321.2539,239.9667,321.4608,240.055 M,0,144335,144366,321.4608,240.055,321.66,240.14 M,0,144366,144491,321.66,240.14,320.71,240.9 M,0,144491,144616,320.71,240.9,319.85,241.12 M,0,144617,144647,319.85,241.12,320.0487,241.0153 M,0,144648,144678,320.0487,241.0153,320.2607,240.9418 M,0,144679,144709,320.2607,240.9418,320.4818,240.9033 M,0,144710,144741,320.4818,240.9033,320.7,240.9 M,0,144741,144866,320.7,240.9,319.22,240.22 M,0,144867,144897,319.22,240.22,319.035,240.3481 M,0,144898,144928,319.035,240.3481,318.85,240.4762 M,0,144929,144959,318.85,240.4762,318.7838,240.6853 M,0,144960,144991,318.7838,240.6853,318.7321,240.9043 M,0,144992,145022,318.7321,240.9043,318.7838,240.6853 M,0,145023,145053,318.7838,240.6853,318.85,240.4762 M,0,145054,145084,318.85,240.4762,319.035,240.3481 M,0,145085,145116,319.035,240.3481,319.22,240.22 M,0,145116,145241,319.22,240.22,319.46,239.02 M,0,145242,145272,319.46,239.02,319.645,238.8919 M,0,145273,145303,319.645,238.8919,319.83,238.7639 M,0,145304,145334,319.83,238.7639,319.892,238.5538 M,0,145335,145366,319.892,238.5538,319.9392,238.3338 M,0,145367,145397,319.9392,238.3338,319.892,238.5538 M,0,145398,145428,319.892,238.5538,319.83,238.7639 M,0,145429,145459,319.83,238.7639,319.645,238.8919 M,0,145460,145491,319.645,238.8919,319.46,239.02 M,0,145491,145616,319.46,239.02,318.42,239.53 M,0,145617,145647,318.42,239.53,318.2919,239.345 M,0,145648,145678,318.2919,239.345,318.1638,239.16 M,0,145679,145709,318.1638,239.16,317.9547,239.0938 M,0,145710,145741,317.9547,239.0938,317.7357,239.0421 M,0,145742,145772,317.7357,239.0421,317.9547,239.0938 M,0,145773,145803,317.9547,239.0938,318.1638,239.16 M,0,145804,145834,318.1638,239.16,318.2919,239.345 M,0,145835,145866,318.2919,239.345,318.42,239.53 M,0,145866,145991,318.42,239.53,320.19,239.78 M,0,145992,146022,320.19,239.78,320.3181,239.965 M,0,146023,146053,320.3181,239.965,320.4461,240.15 M,0,146054,146084,320.4461,240.15,320.656,240.213 M,0,146085,146116,320.656,240.213,320.87,240.26 M,0,146117,146147,320.87,240.26,320.656,240.213 M,0,146148,146178,320.656,240.213,320.4461,240.15 M,0,146179,146209,320.4461,240.15,320.3181,239.965 M,0,146210,146241,320.3181,239.965,320.19,239.78 M,0,146241,146366,320.19,239.78,321,238.42 M,0,146367,146397,321,238.42,321.0832,238.6288 M,0,146398,146428,321.0832,238.6288,321.205,238.8174 M,0,146429,146459,321.205,238.8174,321.3667,238.9731 M,0,146460,146491,321.3667,238.9731,321.5607,239.086 M,0,146492,146522,321.5607,239.086,321.7586,239.1924 M,0,146523,146553,321.7586,239.1924,321.9282,239.3394 M,0,146554,146584,321.9282,239.3394,322.0524,239.5261 M,0,146585,146616,322.0524,239.5261,322.12,239.73 M,0,146616,146741,322.12,239.73,321.6,241.6 M,0,146742,146772,321.6,241.6,321.4496,241.4334 M,0,146773,146803,321.4496,241.4334,321.273,241.2952 M,0,146804,146834,321.273,241.2952,321.074,241.1916 M,0,146835,146866,321.074,241.1916,320.8593,241.1262 M,0,146867,146897,320.8593,241.1262,320.6359,241.1045 M,0,146898,146928,320.6359,241.1045,320.4124,241.122 M,0,146929,146959,320.4124,241.122,320.1958,241.1802 M,0,146960,146991,320.1958,241.1802,319.9931,241.2766 M,0,146991,147116,319.9931,241.2766,319.12,239.98 M,0,147117,147147,319.12,239.98,319.2069,239.7724 M,0,147148,147178,319.2069,239.7724,319.2938,239.5649 M,0,147179,147209,319.2938,239.5649,319.3806,239.3573 M,0,147210,147241,319.3806,239.3573,319.4675,239.1498 F,0,147215,147365,0.8,0
Sprite,Background,Centre,"sb\bg\blurgreen.jpg",0,0 F,0,139215,139365,0,0.8 M,0,139241,139366,318.4248,238.5851,317.71,239.46 S,0,139365,,0.4466667 M,0,139366,139616,317.71,239.46,320.07,239.69 M,0,139616,139866,320.07,239.69,318.29,241.02 M,0,139867,139897,318.29,241.02,318.2513,241.2417 M,0,139898,139928,318.2513,241.2417,318.2126,241.4633 M,0,139929,139959,318.2126,241.4633,318.1997,241.5372 M,0,139960,139991,318.1997,241.5372,318.2384,241.3155 M,0,139992,140022,318.2384,241.3155,318.2771,241.0939 M,0,140023,140032,318.2771,241.0939,318.29,241.02 M,0,140032,140116,318.29,241.02,319.02,239.87 M,0,140117,140147,319.02,239.87,319.057,239.6481 M,0,140148,140178,319.057,239.6481,319.094,239.4261 M,0,140179,140209,319.094,239.4261,319.1063,239.3521 M,0,140210,140241,319.1063,239.3521,319.0693,239.5741 M,0,140242,140272,319.0693,239.5741,319.0323,239.796 M,0,140273,140282,319.0323,239.796,319.02,239.87 M,0,140282,140366,319.02,239.87,319.68,241.23 M,0,140366,140449,319.68,241.23 M,0,140450,140480,319.68,241.23,319.8755,241.339 M,0,140481,140511,319.8755,241.339,320.0909,241.3994 M,0,140512,140532,320.0909,241.3994,320.2402,241.4039 M,0,140532,140616,320.2402,241.4039,320.22,240.46 M,0,140616,140699,320.22,240.46 M,0,140700,140730,320.22,240.46,320.4091,240.3399 M,0,140731,140761,320.4091,240.3399,320.5679,240.1821 M,0,140762,140782,320.5679,240.1821,320.6483,240.056 M,0,140782,140866,320.6483,240.056,319.82,239.56 M,0,140866,140949,319.82,239.56 M,0,140950,140980,319.82,239.56,319.8157,239.3362 M,0,140981,141011,319.8157,239.3362,319.7601,239.1194 M,0,141012,141032,319.7601,239.1194,319.6895,238.9878 M,0,141032,141116,319.6895,238.9878,318.88,239.47 M,0,141116,141199,318.88,239.47 M,0,141200,141230,318.88,239.47,318.683,239.3634 F,0,141215,141365,0.8,0 M,0,141231,141261,318.683,239.3634,318.4676,239.3026 M,0,141262,141282,318.4676,239.3026,318.3182,239.2966
Sprite,Background,Centre,"sb\bg\blurblue.jpg",0,0 F,0,131215,131365,0,0.8 M,0,131241,131366,321.39,239.5,320.66,238.9 S,0,131365,,0.4466667 M,0,131367,131397,320.66,238.9,320.8124,238.7351 M,0,131398,131428,320.8124,238.7351,320.9881,238.5956 M,0,131429,131459,320.9881,238.5956,321.1846,238.4868 M,0,131460,131491,321.1846,238.4868,321.3974,238.4153 M,0,131492,131522,321.3974,238.4153,321.6186,238.3778 M,0,131523,131553,321.6186,238.3778,321.8431,238.3772 M,0,131554,131584,321.8431,238.3772,322.0641,238.4166 M,0,131585,131616,322.0641,238.4166,322.2759,238.4904 M,0,131617,131647,322.2759,238.4904,322.0641,238.4166 M,0,131648,131678,322.0641,238.4166,321.8431,238.3772 M,0,131679,131709,321.8431,238.3772,321.6186,238.3778 M,0,131710,131741,321.6186,238.3778,321.3974,238.4153 M,0,131742,131772,321.3974,238.4153,321.1846,238.4868 M,0,131773,131803,321.1846,238.4868,320.9881,238.5956 M,0,131804,131834,320.9881,238.5956,320.8124,238.7351 M,0,131835,131866,320.8124,238.7351,320.66,238.9 M,0,131866,132116,320.66,238.9,318.07,239.63 M,0,132117,132147,318.07,239.63,318.2924,239.664 M,0,132148,132178,318.2924,239.664,318.5148,239.6981 M,0,132179,132209,318.5148,239.6981,318.7372,239.7321 M,0,132210,132241,318.7372,239.7321,318.9596,239.7662 M,0,132241,132366,318.9596,239.7662,320.59,240.37 M,0,132367,132397,320.59,240.37,320.3679,240.4058 M,0,132398,132428,320.3679,240.4058,320.1458,240.4417 M,0,132429,132459,320.1458,240.4417,319.9394,240.5057 M,0,132460,132491,319.9394,240.5057,319.793,240.6765 M,0,132492,132522,319.793,240.6765,319.6345,240.8261 M,0,132523,132553,319.6345,240.8261,319.4128,240.8641 M,0,132554,132584,319.4128,240.8641,319.191,240.9021 M,0,132585,132616,319.191,240.9021,318.97,240.94 M,0,132616,132741,318.97,240.94,321.1,241.79 M,0,132742,132772,321.1,241.79,321.3088,241.7072 M,0,132773,132803,321.3088,241.7072,321.5034,241.5954 M,0,132804,132834,321.5034,241.5954,321.6786,241.4548 M,0,132835,132866,321.6786,241.4548,321.8281,241.2874 M,0,132867,132897,321.8281,241.2874,321.9511,241.0997 M,0,132898,132928,321.9511,241.0997,322.0439,240.8952 M,0,132929,132959,322.0439,240.8952,322.104,240.6789 M,0,132960,132991,322.104,240.6789,322.1297,240.4556 M,0,132991,133116,322.1297,240.4556,321.52,238.59 M,0,133117,133147,321.52,238.59,321.4822,238.8118 M,0,133148,133178,321.4822,238.8118,321.4445,239.0336 M,0,133179,133209,321.4445,239.0336,321.4067,239.2554 M,0,133210,133241,321.4067,239.2554,321.369,239.4772 M,0,133241,133366,321.369,239.4772,320.59,240.37 M,0,133367,133397,320.59,240.37,320.5522,240.1482 M,0,133398,133428,320.5522,240.1482,320.5145,239.9264 M,0,133429,133459,320.5145,239.9264,320.4767,239.7046 M,0,133460,133491,320.4767,239.7046,320.439,239.4828 M,0,133491,133616,320.439,239.4828,320.26,238.45 M,0,133616,133866,320.26,238.45,318.42,240.22 M,0,133866,134116,318.42,240.22,317.68,238.9 M,0,134117,134147,317.68,238.9,317.8672,238.7772 M,0,134148,134178,317.8672,238.7772,318.0774,238.7008 M,0,134179,134209,318.0774,238.7008,318.3004,238.6787 M,0,134210,134241,318.3004,238.6787,318.5217,238.7151 M,0,134241,134366,318.5217,238.7151,319.54,239.36 M,0,134367,134397,319.54,239.36,319.4982,239.5811 M,0,134398,134428,319.4982,239.5811,319.4564,239.8022 M,0,134429,134459,319.4564,239.8022,319.4145,240.0232 M,0,134460,134491,319.4145,240.0232,319.3727,240.2443 M,0,134492,134522,319.3727,240.2443,319.3309,240.4654 M,0,134523,134553,319.3309,240.4654,319.289,240.6865 M,0,134554,134584,319.289,240.6865,319.2472,240.9075 M,0,134585,134616,319.2472,240.9075,319.2054,241.1286 M,0,134616,134741,319.2054,241.1286,320.57,241.81 M,0,134742,134772,320.57,241.81,320.7943,241.7961 M,0,134773,134803,320.7943,241.7961,321.0116,241.7393 M,0,134804,134834,321.0116,241.7393,321.2099,241.6342 M,0,134835,134866,321.2099,241.6342,321.3772,241.4846 M,0,134867,134897,321.3772,241.4846,321.539,241.3287 M,0,134898,134928,321.539,241.3287,321.7308,241.2122 M,0,134929,134959,321.7308,241.2122,321.9466,241.1513 M,0,134960,134991,321.9466,241.1513,322.16,241.15 M,0,134991,135116,322.16,241.15,321.69,239.15 M,0,135117,135147,321.69,239.15,321.4922,239.0437 M,0,135148,135178,321.4922,239.0437,321.2813,238.9668 M,0,135179,135209,321.2813,238.9668,321.0604,238.9266 M,0,135210,135241,321.0604,238.9266,320.8361,238.9198 M,0,135241,135366,320.8361,238.9198,319.4,238.44 M,0,135367,135397,319.4,238.44,319.1765,238.4656 M,0,135398,135428,319.1765,238.4656,318.9529,238.4912 M,0,135429,135459,318.9529,238.4912,318.7294,238.5168 M,0,135460,135491,318.7294,238.5168,318.5059,238.5424 M,0,135491,135616,318.5059,238.5424,317.71,239.55 M,0,135617,135647,317.71,239.55,317.9336,239.5751 M,0,135648,135678,317.9336,239.5751,318.1572,239.6003 M,0,135679,135709,318.1572,239.6003,318.3808,239.6254 M,0,135710,135741,318.3808,239.6254,318.6,239.65 M,0,135741,135866,318.6,239.65,320.31,240.34 M,0,135866,135991,320.31,240.34,319.71,241.25 M,0,135991,136116,319.71,241.25,318.58,240.89 M,0,136117,136147,318.58,240.89,318.7238,240.7183 M,0,136148,136178,318.7238,240.7183,318.9019,240.5827 M,0,136179,136209,318.9019,240.5827,319.109,240.498 M,0,136210,136241,319.109,240.498,319.3298,240.4613 M,0,136241,136366,319.3298,240.4613,320.6,241.72 M,0,136367,136397,320.6,241.72,320.8235,241.6944 M,0,136398,136428,320.8235,241.6944,321.0471,241.6688 M,0,136429,136459,321.0471,241.6688,321.2706,241.6432 M,0,136460,136491,321.2706,241.6432,321.4941,241.6175 M,0,136491,136616,321.4941,241.6175,322.29,240.61 M,0,136617,136647,322.29,240.61,322.0664,240.5849 M,0,136648,136678,322.0664,240.5849,321.8428,240.5598 M,0,136679,136709,321.8428,240.5598,321.6192,240.5346 M,0,136710,136741,321.6192,240.5346,321.4,240.51 M,0,136741,136866,321.4,240.51,319.69,239.82 M,0,136866,136991,319.69,239.82,320.29,238.91 M,0,136991,137116,320.29,238.91,321.42,239.27 M,0,137117,137147,321.42,239.27,321.2762,239.4417 M,0,137148,137178,321.2762,239.4417,321.0981,239.5773 M,0,137179,137209,321.0981,239.5773,320.891,239.662 M,0,137210,137241,320.891,239.662,320.6702,239.6987 M,0,137241,137366,320.6702,239.6987,318.98,239.26 M,0,137367,137397,318.98,239.26,318.9343,239.0397 M,0,137398,137428,318.9343,239.0397,318.8885,238.8194 M,0,137429,137459,318.8885,238.8194,318.774,238.637 M,0,137460,137491,318.774,238.637,318.6124,238.4804 M,0,137492,137522,318.6124,238.4804,318.774,238.637 M,0,137523,137553,318.774,238.637,318.8885,238.8194 M,0,137554,137584,318.8885,238.8194,318.9343,239.0397 M,0,137585,137616,318.9343,239.0397,318.98,239.26 M,0,137616,137741,318.98,239.26,319.15,240.44 M,0,137741,137866,319.15,240.44,320.25,240.92 M,0,137867,137897,320.25,240.92,320.2957,241.1403 M,0,137898,137928,320.2957,241.1403,320.3415,241.3606 M,0,137929,137959,320.3415,241.3606,320.456,241.543 M,0,137960,137991,320.456,241.543,320.6176,241.6996 M,0,137992,138022,320.6176,241.6996,320.456,241.543 M,0,138023,138053,320.456,241.543,320.3415,241.3606 M,0,138054,138084,320.3415,241.3606,320.2957,241.1403 M,0,138085,138116,320.2957,241.1403,320.25,240.92 M,0,138116,138241,320.25,240.92,320.07,239.69 M,0,138241,138366,320.07,239.69,321.39,239.88 M,0,138367,138397,321.39,239.88,321.2957,239.6757 M,0,138398,138428,321.2957,239.6757,321.2014,239.4714 M,0,138429,138459,321.2014,239.4714,321.1071,239.2671 M,0,138460,138491,321.1071,239.2671,321.0128,239.0628 M,0,138492,138522,321.0128,239.0628,320.9185,238.8586 M,0,138523,138553,320.9185,238.8586,320.7188,238.7673 M,0,138554,138584,320.7188,238.7673,320.5085,238.6873 M,0,138585,138616,320.5085,238.6873,320.2982,238.6073 M,0,138616,138741,320.2982,238.6073,318.73,239.45 M,0,138742,138772,318.73,239.45,318.8243,239.6543 M,0,138773,138803,318.8243,239.6543,318.9186,239.8586 M,0,138804,138834,318.9186,239.8586,319.0129,240.0629 M,0,138835,138866,319.0129,240.0629,319.1071,240.2672 M,0,138867,138897,319.1071,240.2672,319.2014,240.4715 M,0,138898,138928,319.2014,240.4715,319.4014,240.5622 M,0,138929,138959,319.4014,240.5622,319.6119,240.6416 M,0,138960,138991,319.6119,240.6416,319.82,240.72 M,0,138991,139116,319.82,240.72,319.3,238.67 M,0,139117,139147,319.3,238.67,319.0851,238.6032 M,0,139148,139178,319.0851,238.6032,318.8703,238.5363 M,0,139179,139209,318.8703,238.5363,318.648,238.5562 M,0,139210,139241,318.648,238.5562,318.4248,238.5851 F,0,139215,139365,0.8,0
Sprite,Background,Centre,"sb\bg\blurred.jpg",0,0 F,0,35215,35365,0,0.8 M,17,35241,35366,321.59,239.12,320.5,238.63 S,0,35365,,0.4466667 M,17,35367,35397,320.5,238.63,320.2927,238.7156 M,17,35398,35428,320.2927,238.7156,320.1053,238.8385 M,17,35429,35459,320.1053,238.8385,319.9464,238.9967 M,17,35460,35491,319.9464,238.9967,319.8231,239.1844 M,17,35491,35616,319.8231,239.1844,318.86,239.47 M,17,35617,35647,318.86,239.47,318.8313,239.6925 M,17,35648,35678,318.8313,239.6925,318.8433,239.9163 M,17,35679,35709,318.8433,239.9163,318.8983,240.1337 M,17,35710,35741,318.8983,240.1337,318.99,240.33 M,17,35741,35866,318.99,240.33,318.48,241.19 M,17,35867,35897,318.48,241.19,318.6521,241.3347 M,17,35898,35928,318.6521,241.3347,318.8366,241.4631 M,17,35929,35959,318.8366,241.4631,319.0328,241.5729 M,17,35960,35991,319.0328,241.5729,319.2388,241.663 M,17,35992,36022,319.2388,241.663,319.4531,241.7309 M,17,36023,36053,319.4531,241.7309,319.6728,241.7786 M,17,36054,36084,319.6728,241.7786,319.896,241.8047 M,17,36085,36116,319.896,241.8047,320.1,241.81 M,17,36116,36241,320.1,241.81,322,241.03 M,17,36242,36272,322,241.03,321.9606,240.8085 M,17,36273,36303,321.9606,240.8085,321.9212,240.5869 M,17,36304,36334,321.9212,240.5869,321.7885,240.4062 M,17,36335,36366,321.7885,240.4062,321.6529,240.2267 M,17,36366,36491,321.6529,240.2267,320.08,240.9 M,17,36492,36522,320.08,240.9,320.2919,240.9757 M,17,36523,36553,320.2919,240.9757,320.504,241.0495 M,17,36554,36584,320.504,241.0495,320.7274,241.0232 M,17,36585,36616,320.7274,241.0232,320.9509,240.9969 M,17,36616,36741,320.9509,240.9969,321.15,239.3 M,17,36742,36772,321.15,239.3,320.9767,239.4436 M,17,36773,36803,320.9767,239.4436,320.8035,239.5871 M,17,36804,36834,320.8035,239.5871,320.7137,239.7929 M,17,36835,36866,320.7137,239.7929,320.6256,239.9999 M,17,36866,36991,320.6256,239.9999,319.15,240.59 M,17,36991,37116,319.15,240.59,318.48,241.19 M,17,37116,37241,318.48,241.19,317.63,240.87 M,17,37241,37366,317.63,240.87,317.45,239.98 M,17,37367,37397,317.45,239.98,317.5211,239.7665 M,17,37398,37428,317.5211,239.7665,317.5923,239.5531 M,17,37429,37459,317.5923,239.5531,317.6635,239.3396 M,17,37460,37491,317.6635,239.3396,317.7346,239.1262 M,17,37491,37616,317.7346,239.1262,318.89,238.16 M,17,37617,37647,318.89,238.16,318.976,238.3679 M,17,37648,37678,318.976,238.3679,319.0621,238.5758 M,17,37679,37709,319.0621,238.5758,319.1154,238.785 M,17,37710,37741,319.1154,238.785,319.0459,238.999 M,17,37742,37772,319.0459,238.999,318.9764,239.213 M,17,37773,37803,318.9764,239.213,318.9069,239.427 M,17,37804,37834,318.9069,239.427,318.8374,239.641 M,17,37835,37866,318.8374,239.641,318.7679,239.855 M,17,37866,38116,318.7679,239.855,319.55,241.64 M,17,38116,38241,319.55,241.64,320.27,241.1 M,17,38242,38272,320.27,241.1,320.4505,240.9671 M,17,38273,38303,320.4505,240.9671,320.654,240.8736 M,17,38304,38334,320.654,240.8736,320.874,240.8312 M,17,38335,38366,320.874,240.8312,321.098,240.8342 M,17,38366,38491,321.098,240.8342,322.11,241.22 M,17,38492,38522,322.11,241.22,322.0941,240.9956 M,17,38523,38553,322.0941,240.9956,322.0782,240.7711 M,17,38554,38584,322.0782,240.7711,322.0624,240.5467 M,17,38585,38616,322.0624,240.5467,322.0465,240.3222 M,17,38616,38741,322.0465,240.3222,321.11,238.19 M,17,38742,38772,321.11,238.19,321.1259,238.4144 M,17,38773,38803,321.1259,238.4144,321.1417,238.6389 M,17,38804,38834,321.1417,238.6389,321.1576,238.8633 M,17,38835,38866,321.1576,238.8633,321.1734,239.0878 M,17,38867,38897,321.1734,239.0878,321.1893,239.3122 M,17,38898,38928,321.1893,239.3122,321.2051,239.5366 M,17,38929,38959,321.2051,239.5366,321.221,239.7611 M,17,38960,38991,321.221,239.7611,321.2368,239.9855 M,17,38991,39116,321.2368,239.9855,320.27,241.1 M,17,39116,39241,320.27,241.1,319.6,240.49 M,17,39241,39366,319.6,240.49,319.84,239.62 M,17,39367,39397,319.84,239.62,319.6927,239.4512 M,17,39398,39428,319.6927,239.4512,319.5117,239.3197 M,17,39429,39459,319.5117,239.3197,319.3046,239.2348 M,17,39460,39491,319.3046,239.2348,319.0829,239.2016 M,17,39491,39616,319.0829,239.2016,317.92,239.61 M,17,39616,39866,317.92,239.61,320.01,238.37 M,17,39866,40116,320.01,238.37,320.72,240.3 M,17,40116,40241,320.72,240.3,320.27,241.1 M,17,40242,40272,320.27,241.1,320.493,241.1304 M,17,40273,40303,320.493,241.1304,320.7159,241.1608 M,17,40304,40334,320.7159,241.1608,320.9388,241.1912 M,17,40335,40366,320.9388,241.1912,321.1566,241.2101 M,17,40367,40397,321.1566,241.2101,321.2808,241.0225 M,17,40398,40428,321.2808,241.0225,321.405,240.8349 M,17,40429,40459,321.405,240.8349,321.5293,240.6474 M,17,40460,40491,321.5293,240.6474,321.6535,240.4598 M,17,40491,40616,321.6535,240.4598,322.26,239.34 M,17,40616,40741,322.26,239.34,321.69,238.61 M,17,40742,40772,321.69,238.61,321.4661,238.608 M,17,40773,40803,321.4661,238.608,321.2488,238.6599 M,17,40804,40834,321.2488,238.6599,321.0521,238.7663 M,17,40835,40866,321.0521,238.7663,320.8886,238.9194 M,17,40866,40991,320.8886,238.9194,320.72,240.3 M,17,40991,41116,320.72,240.3,319.82,240.31 M,17,41116,41241,319.82,240.31,319.19,240.96 M,17,41241,41366,319.19,240.96,318.41,240.5 M,17,41367,41397,318.41,240.5,318.3578,240.2811 M,17,41398,41428,318.3578,240.2811,318.3055,240.0623 M,17,41429,41459,318.3055,240.0623,318.2533,239.8434 M,17,41460,41491,318.2533,239.8434,318.2011,239.6246 M,17,41492,41522,318.2011,239.6246,318.2533,239.8434 M,17,41523,41553,318.2533,239.8434,318.3055,240.0623 M,17,41554,41584,318.3055,240.0623,318.3578,240.2811 M,17,41585,41616,318.3578,240.2811,318.41,240.5 M,17,41616,41741,318.41,240.5,319.25,239.42 M,17,41741,41866,319.25,239.42 M,17,41867,41897,319.25,239.42,319.3022,239.2011 M,17,41898,41928,319.3022,239.2011,319.3545,238.9823 M,17,41929,41959,319.3545,238.9823,319.4067,238.7634 M,17,41960,41991,319.4067,238.7634,319.4589,238.5446 M,17,41991,42116,319.4589,238.5446,320.88,238.34 M,17,42116,42241,320.88,238.34,321.22,239.17 M,17,42241,42366,321.22,239.17,322.13,239.51 M,17,42367,42397,322.13,239.51,321.9398,239.6294 M,17,42398,42428,321.9398,239.6294,321.7713,239.7774 M,17,42429,42459,321.7713,239.7774,321.6302,239.9519 M,17,42460,42491,321.6302,239.9519,321.5208,240.1479 M,17,42492,42522,321.5208,240.1479,321.4461,240.3598 M,17,42523,42553,321.4461,240.3598,321.4118,240.5817 M,17,42554,42584,321.4118,240.5817,321.4133,240.806 M,17,42585,42616,321.4133,240.806,321.4529,241.0269 M,17,42616,42741,321.4529,241.0269,320.44,241.88 M,17,42742,42772,320.44,241.88,320.37,241.6662 M,17,42773,42803,320.37,241.6662,320.3,241.4523 M,17,42804,42834,320.3,241.4523,320.23,241.2385 M,17,42835,42866,320.23,241.2385,320.1601,241.0246 M,17,42867,42897,320.1601,241.0246,320.0901,240.8108 M,17,42898,42928,320.0901,240.8108,319.9183,240.6754 M,17,42929,42959,319.9183,240.6754,319.7294,240.5531 M,17,42960,42991,319.7294,240.5531,319.5405,240.4309 M,17,42991,43116,319.5405,240.4309,317.72,240.66 M,17,43117,43147,317.72,240.66,317.9095,240.7813 M,17,43148,43178,317.9095,240.7813,318.099,240.9026 M,17,43179,43209,318.099,240.9026,318.2885,241.0239 M,17,43210,43241,318.2885,241.0239,318.47,241.14 M,17,43241,43366,318.47,241.14,320.12,239.55 M,17,43366,43491,320.12,239.55,319.22,239.45 M,17,43491,43616,319.22,239.45,318.68,240.17 M,17,43617,43647,318.68,240.17,318.5185,240.0152 M,17,43648,43678,318.5185,240.0152,318.4009,239.8253 M,17,43679,43709,318.4009,239.8253,318.3384,239.6103 M,17,43710,43741,318.3384,239.6103,318.3383,239.3862 M,17,43741,43866,318.3383,239.3862,317.44,239.21 M,17,43867,43897,317.44,239.21,317.4883,238.9917 M,17,43898,43928,317.4883,238.9917,317.5909,238.7933 M,17,43929,43959,317.5909,238.7933,317.7445,238.6304 M,17,43960,43991,317.7445,238.6304,317.939,238.519 M,17,43991,44116,317.939,238.519,319.74,238.59 M,17,44116,44241,319.74,238.59,320.12,239.55 M,17,44242,44272,320.12,239.55,320.3377,239.4933 M,17,44273,44303,320.3377,239.4933,320.5555,239.4366 M,17,44304,44334,320.5555,239.4366,320.7732,239.3799 M,17,44335,44366,320.7732,239.3799,320.991,239.3232 M,17,44366,44491,320.991,239.3232,322.38,240.38 M,17,44492,44522,322.38,240.38,322.1623,240.3231 M,17,44523,44553,322.1623,240.3231,321.9446,240.2662 M,17,44554,44584,321.9446,240.2662,321.7269,240.2093 M,17,44585,44616,321.7269,240.2093,321.5092,240.1524 M,17,44616,44741,321.5092,240.1524,319.74,240.92 M,17,44742,44772,319.74,240.92,319.9577,240.8633 M,17,44773,44803,319.9577,240.8633,320.1755,240.8066 M,17,44804,44834,320.1755,240.8066,320.3932,240.7499 M,17,44835,44866,320.3932,240.7499,320.611,240.6932 M,17,44866,44991,320.611,240.6932,319.13,239.72 M,17,44991,45116,319.13,239.72,318.23,239.64 M,17,45116,45241,318.23,239.64,317.74,240.39 M,17,45241,45366,317.74,240.39,318.14,241.19 M,17,45367,45397,318.14,241.19,318.3348,241.0802 M,17,45398,45428,318.3348,241.0802,318.4948,240.9245 M,17,45429,45459,318.4948,240.9245,318.6063,240.7304 M,17,45460,45491,318.6063,240.7304,318.6584,240.5124 M,17,45491,45616,318.6584,240.5124,319.25,238.47 M,17,45617,45647,319.25,238.47,319.037,238.5426 M,17,45648,45678,319.037,238.5426,318.8241,238.6153 M,17,45679,45709,318.8241,238.6153,318.6111,238.688 M,17,45710,45741,318.6111,238.688,318.3996,238.7619 M,17,45742,45772,318.3996,238.7619,318.354,238.9822 M,17,45773,45803,318.354,238.9822,318.3084,239.2025 M,17,45804,45834,318.3084,239.2025,318.2628,239.4229 M,17,45835,45866,318.2628,239.4229,318.22,239.63 M,17,45866,46116,318.22,239.63,320.92,238.96 M,17,46116,46241,320.92,238.96,321.56,239.59 M,17,46242,46272,321.56,239.59,321.3888,239.7341 M,17,46273,46303,321.3888,239.7341,321.1875,239.831 M,17,46304,46334,321.1875,239.831,320.9674,239.8712 M,17,46335,46366,320.9674,239.8712,320.7442,239.8508 M,17,46366,46491,320.7442,239.8508,319.09,240.09 M,17,46492,46522,319.09,240.09,319.3136,240.0847 M,17,46523,46553,319.3136,240.0847,319.5304,240.1375 M,17,46554,46584,319.5304,240.1375,319.7243,240.2488 M,17,46585,46616,319.7243,240.2488,319.88,240.41 M,17,46616,46741,319.88,240.41,320.91,241.73 M,17,46742,46772,320.91,241.73,320.8698,241.5086 M,17,46773,46803,320.8698,241.5086,320.8295,241.2873 M,17,46804,46834,320.8295,241.2873,320.7892,241.0659 M,17,46835,46866,320.7892,241.0659,320.75,240.85 M,17,46866,46991,320.75,240.85,319.66,239.39 M,17,46991,47116,319.66,239.39,319.09,240.09 M,17,47116,47241,319.09,240.09,319.55,240.85 M,17,47241,47366,319.55,240.85,319.66,241.74 M,17,47367,47397,319.66,241.74,319.4354,241.7336 M,17,47398,47428,319.4354,241.7336,319.217,241.6814 M,17,47429,47459,319.217,241.6814,319.0177,241.5784 M,17,47460,47491,319.0177,241.5784,318.8491,241.4301 M,17,47492,47522,318.8491,241.4301,318.688,241.2736 M,17,47523,47553,318.688,241.2736,318.4961,241.1573 M,17,47554,47584,318.4961,241.1573,318.2805,241.0955 M,17,47585,47616,318.2805,241.0955,318.06,241.09 M,17,47617,47647,318.06,241.09,318.2805,241.0955 M,17,47648,47678,318.2805,241.0955,318.4961,241.1573 M,17,47679,47709,318.4961,241.1573,318.688,241.2736 M,17,47710,47741,318.688,241.2736,318.8491,241.4301 M,17,47742,47772,318.8491,241.4301,319.0177,241.5784 M,17,47773,47803,319.0177,241.5784,319.217,241.6814 M,17,47804,47834,319.217,241.6814,319.4354,241.7336 M,17,47835,47866,319.4354,241.7336,319.66,241.74 M,17,47866,48116,319.66,241.74,321.75,240.3 M,17,48116,48241,321.75,240.3,321.45,239.3 M,17,48242,48272,321.45,239.3,321.2676,239.17 M,17,48273,48303,321.2676,239.17,321.0615,239.0826 M,17,48304,48334,321.0615,239.0826,320.8403,239.0457 M,17,48335,48366,320.8403,239.0457,320.6168,239.065 M,17,48366,48491,320.6168,239.065,321.12,240.89 M,17,48492,48522,321.12,240.89,321.3243,240.7982 M,17,48523,48553,321.3243,240.7982,321.5029,240.6634 M,17,48554,48584,321.5029,240.6634,321.6444,240.4899 M,17,48585,48616,321.6444,240.4899,321.74,240.29 M,17,48616,48741,321.74,240.29,319.84,239.84 M,17,48742,48772,319.84,239.84,319.8224,240.0634 M,17,48773,48803,319.8224,240.0634,319.8542,240.2848 M,17,48804,48834,319.8542,240.2848,319.937,240.4929 M,17,48835,48866,319.937,240.4929,320.06,240.67 M,17,48866,48991,320.06,240.67,320.61,239.06 M,17,48991,49116,320.61,239.06,319.79,238.67 M,17,49116,49241,319.79,238.67,319.02,239.13 M,17,49241,49366,319.02,239.13,318.19,238.77 M,17,49367,49397,318.19,238.77,318.1606,238.9931 M,17,49398,49428,318.1606,238.9931,318.1311,239.2161 M,17,49429,49459,318.1311,239.2161,318.1016,239.4392 M,17,49460,49491,318.1016,239.4392,318.0721,239.6622 M,17,49491,49616,318.0721,239.6622,317.94,240.79 M,17,49616,49866,317.94,240.79,320.46,240.08 M,17,49867,49897,320.46,240.08,320.2888,239.934 M,17,49898,49928,320.2888,239.934,320.1169,239.7896 M,17,49929,49959,320.1169,239.7896,319.8934,239.7634 M,17,49960,49991,319.8934,239.7634,319.67,239.7371 M,17,49991,50116,319.67,239.7371,319.17,240.94 M,17,50117,50147,319.17,240.94,319.3412,241.086 M,17,50148,50178,319.3412,241.086,319.5131,241.2304 M,17,50179,50209,319.5131,241.2304,319.7366,241.2567 M,17,50210,50241,319.7366,241.2567,319.96,241.2829 M,17,50241,50366,319.96,241.2829,321.37,241.27 M,17,50367,50397,321.37,241.27,321.5204,241.1041 M,17,50398,50428,321.5204,241.1041,321.6282,240.9082 M,17,50429,50459,321.6282,240.9082,321.6841,240.6911 M,17,50460,50491,321.6841,240.6911,321.6781,240.4673 M,17,50491,50616,321.6781,240.4673,321.02,239.49 M,17,50616,50741,321.02,239.49,322.44,239.96 M,17,50742,50772,322.44,239.96,322.3692,239.7475 M,17,50773,50803,322.3692,239.7475,322.2526,239.5566 M,17,50804,50834,322.2526,239.5566,322.0905,239.4023 M,17,50835,50866,322.0905,239.4023,321.897,239.2907 M,17,50866,50991,321.897,239.2907,320.86,239.64 M,17,50991,51116,320.86,239.64,321.66,238.39 M,17,51117,51147,321.66,238.39,321.4419,238.3394 M,17,51148,51178,321.4419,238.3394,321.2183,238.3409 M,17,51179,51209,321.2183,238.3409,321.0033,238.4027 M,17,51210,51241,321.0033,238.4027,320.8102,238.5148 F,0,51215,51365,0.8,0
Sprite,Background,Centre,"sb\bg\blurred.jpg",0,0 F,0,67215,67365,0,0.8 M,0,67241,67366,319.55,239.05,320.57,239.92 S,0,67365,,0.4466667 M,0,67367,67397,320.57,239.92,320.3481,239.8856 M,0,67398,67428,320.3481,239.8856,320.1238,239.8866 M,0,67429,67459,320.1238,239.8866,319.9027,239.9252 M,0,67460,67491,319.9027,239.9252,319.6911,240.0005 M,0,67492,67522,319.6911,240.0005,319.4968,240.113 M,0,67523,67553,319.4968,240.113,319.323,240.2548 M,0,67554,67584,319.323,240.2548,319.1755,240.4239 M,0,67585,67616,319.1755,240.4239,319.0585,240.6156 M,0,67617,67647,319.0585,240.6156,319.1755,240.4239 M,0,67648,67678,319.1755,240.4239,319.323,240.2548 M,0,67679,67709,319.323,240.2548,319.4968,240.113 M,0,67710,67741,319.4968,240.113,319.6911,240.0005 M,0,67742,67772,319.6911,240.0005,319.9027,239.9252 M,0,67773,67803,319.9027,239.9252,320.1238,239.8866 M,0,67804,67834,320.1238,239.8866,320.3481,239.8856 M,0,67835,67866,320.3481,239.8856,320.57,239.92 M,0,67866,68116,320.57,239.92,318.03,238.38 M,0,68117,68147,318.03,238.38,318.0513,238.604 M,0,68148,68178,318.0513,238.604,318.0727,238.828 M,0,68179,68209,318.0727,238.828,318.094,239.052 M,0,68210,68241,318.094,239.052,318.1153,239.2759 M,0,68241,68366,318.1153,239.2759,319.05,240.61 M,0,68366,68491,319.05,240.61,317.9,240.22 M,0,68491,68616,317.9,240.22,318.73,241.57 M,0,68617,68647,318.73,241.57,318.9491,241.6172 M,0,68648,68678,318.9491,241.6172,319.173,241.6182 M,0,68679,68709,319.173,241.6182,319.3918,241.5698 M,0,68710,68741,319.3918,241.5698,319.5948,241.4742 M,0,68741,68866,319.5948,241.4742,320.57,239.92 M,0,68866,68991,320.57,239.92,321.84,240.83 M,0,68991,69116,321.84,240.83,322.14,238.84 M,0,69117,69147,322.14,238.84,322.0286,239.0355 M,0,69148,69178,322.0286,239.0355,321.9173,239.231 M,0,69179,69209,321.9173,239.231,321.8059,239.4265 M,0,69210,69241,321.8059,239.4265,321.6945,239.622 M,0,69241,69366,321.6945,239.622,320.02,240.76 M,0,69367,69397,320.02,240.76,319.9057,240.9538 M,0,69398,69428,319.9057,240.9538,319.7914,241.1476 M,0,69429,69459,319.7914,241.1476,319.9057,240.9538 M,0,69460,69491,319.9057,240.9538,320.02,240.76 M,0,69492,69522,320.02,240.76,319.9057,240.9538 M,0,69523,69553,319.9057,240.9538,319.7914,241.1476 M,0,69554,69584,319.7914,241.1476,319.9057,240.9538 M,0,69585,69616,319.9057,240.9538,320.02,240.76 M,0,69616,69741,320.02,240.76,319.85,239.37 M,0,69741,69866,319.85,239.37 M,0,69867,69897,319.85,239.37,319.6987,239.2048 M,0,69898,69928,319.6987,239.2048,319.5161,239.0752 M,0,69929,69959,319.5161,239.0752,319.3069,238.9953 M,0,69960,69991,319.3069,238.9953,319.0855,238.9632 M,0,69991,70116,319.0855,238.9632,317.7,240.12 M,0,70117,70147,317.7,240.12,317.8513,239.9548 M,0,70148,70178,317.8513,239.9548,318.034,239.8252 M,0,70179,70209,318.034,239.8252,318.2431,239.7453 M,0,70210,70241,318.2431,239.7453,318.4644,239.7132 M,0,70241,70366,318.4644,239.7132,320.85,241.07 M,0,70367,70397,320.85,241.07,320.6255,241.0606 M,0,70398,70428,320.6255,241.0606,320.407,241.0087 M,0,70429,70459,320.407,241.0087,320.2067,240.9074 M,0,70460,70491,320.2067,240.9074,320.0375,240.7599 M,0,70492,70522,320.0375,240.7599,319.8766,240.6031 M,0,70523,70553,319.8766,240.6031,319.6857,240.4851 M,0,70554,70584,319.6857,240.4851,319.4705,240.4223 M,0,70585,70616,319.4705,240.4223,319.25,240.42 M,0,70616,70741,319.25,240.42,321.01,240.1 M,0,70742,70772,321.01,240.1,321.2224,240.1741 M,0,70773,70803,321.2224,240.1741,321.4349,240.2482 M,0,70804,70834,321.4349,240.2482,321.5825,240.4171 M,0,70835,70866,321.5825,240.4171,321.7285,240.5883 M,0,70866,70991,321.7285,240.5883,321.64,241.63 M,0,70991,71116,321.64,241.63,322.5,240.36 M,0,71116,71241,322.5,240.36,320.85,241.07 M,0,71241,71366,320.85,241.07,321.32,239.22 M,0,71367,71397,321.32,239.22,321.0988,239.2609 M,0,71398,71428,321.0988,239.2609,320.8775,239.3018 M,0,71429,71459,320.8775,239.3018,320.6563,239.3427 M,0,71460,71491,320.6563,239.3427,320.435,239.3835 M,0,71491,71616,320.435,239.3835,318.93,238.86 M,0,71616,71741,318.93,238.86,318.26,239.56 M,0,71741,71866,318.26,239.56,318.69,240.34 M,0,71867,71897,318.69,240.34,318.9127,240.3148 M,0,71898,71928,318.9127,240.3148,319.1359,240.3347 M,0,71929,71959,319.1359,240.3347,319.3479,240.4069 M,0,71960,71991,319.3479,240.4069,319.5413,240.5201 M,0,71991,72116,319.5413,240.5201,321.01,240.1 M,0,72116,72241,321.01,240.1,321.68,240.8 M,0,72241,72366,321.68,240.8,321.25,241.58 M,0,72367,72397,321.25,241.58,321.0273,241.5548 M,0,72398,72428,321.0273,241.5548,320.8041,241.5747 M,0,72429,72459,320.8041,241.5747,320.592,241.6469 M,0,72460,72491,320.592,241.6469,320.3987,241.7601 M,0,72491,72616,320.3987,241.7601,318.92,241.2 M,0,72617,72647,318.92,241.2,318.862,240.9826 M,0,72648,72678,318.862,240.9826,318.804,240.7652 M,0,72679,72709,318.804,240.7652,318.7461,240.5478 M,0,72710,72741,318.7461,240.5478,318.6881,240.3304 M,0,72741,72866,318.6881,240.3304,318.33,238.85 M,0,72867,72897,318.33,238.85,318.552,238.8182 M,0,72898,72928,318.552,238.8182,318.7757,238.8301 M,0,72929,72959,318.7757,238.8301,318.9922,238.8882 M,0,72960,72991,318.9922,238.8882,319.1923,238.9897 M,0,72991,73116,319.1923,238.9897,320.23,240.13 M,0,73117,73147,320.23,240.13,320.288,239.9126 M,0,73148,73178,320.288,239.9126,320.3459,239.6952 M,0,73179,73209,320.3459,239.6952,320.4039,239.4778 M,0,73210,73241,320.4039,239.4778,320.4619,239.2604 M,0,73241,73366,320.4619,239.2604,321.92,238.36 M,0,73367,73397,321.92,238.36,322.0511,238.5429 M,0,73398,73428,322.0511,238.5429,322.1822,238.7257 M,0,73429,73459,322.1822,238.7257,322.2939,238.912 M,0,73460,73491,322.2939,238.912,322.2339,239.1289 M,0,73492,73522,322.2339,239.1289,322.1738,239.3457 M,0,73523,73553,322.1738,239.3457,322.1138,239.5625 M,0,73554,73584,322.1138,239.5625,322.0537,239.7794 M,0,73585,73616,322.0537,239.7794,321.9937,239.9962 M,0,73616,73866,321.9937,239.9962,319.91,241.62 M,0,73867,73897,319.91,241.62,319.9375,241.3976 M,0,73898,73928,319.9375,241.3976,319.9185,241.1745 M,0,73929,73959,319.9185,241.1745,319.8505,240.9609 M,0,73960,73991,319.8505,240.9609,319.7357,240.768 M,0,73991,74116,319.7357,240.768,317.95,240.01 M,0,74116,74241,317.95,240.01,318.54,241 M,0,74241,74366,318.54,241,319.02,239.36 M,0,74367,74397,319.02,239.36,319.2231,239.2631 M,0,74398,74428,319.2231,239.2631,319.4261,239.1662 M,0,74429,74459,319.4261,239.1662,319.6292,239.0693 M,0,74460,74491,319.6292,239.0693,319.8322,238.9724 M,0,74491,74616,319.8322,238.9724,321.38,239.2 M,0,74616,74741,321.38,239.2,319.71,240.31 M,0,74742,74772,319.71,240.31,319.9131,240.2131 M,0,74773,74803,319.9131,240.2131,320.1161,240.1162 M,0,74804,74834,320.1161,240.1162,320.3192,240.0193 M,0,74835,74866,320.3192,240.0193,320.5222,239.9223 M,0,74866,74991,320.5222,239.9223,322.07,240.15 M,0,74991,75116,322.07,240.15,320.44,241.28 M,0,75117,75147,320.44,241.28,320.6431,241.1831 M,0,75148,75178,320.6431,241.1831,320.8461,241.0862 M,0,75179,75209,320.8461,241.0862,321.0492,240.9893 M,0,75210,75241,321.0492,240.9893,321.2522,240.8923 M,0,75241,75366,321.2522,240.8923,322.22,239.02 M,0,75367,75397,322.22,239.02,321.999,238.984 M,0,75398,75428,321.999,238.984,321.7762,239.0016 M,0,75429,75459,321.7762,239.0016,321.565,239.0755 M,0,75460,75491,321.565,239.0755,321.38,239.2 M,0,75491,75616,321.38,239.2,320.52,238.42 M,0,75617,75647,320.52,238.42,320.3731,238.5888 M,0,75648,75678,320.3731,238.5888,320.2737,238.7887 M,0,75679,75709,320.2737,238.7887,320.2317,239.0084 M,0,75710,75741,320.2317,239.0084,320.25,239.23 M,0,75741,75866,320.25,239.23,320.57,241.32 M,0,75867,75897,320.57,241.32,320.425,241.1495 M,0,75898,75928,320.425,241.1495,320.326,240.9492 M,0,75929,75959,320.326,240.9492,320.2826,240.7297 M,0,75960,75991,320.2826,240.7297,320.299,240.5061 M,0,75991,76116,320.299,240.5061,322.27,240.72 M,0,76117,76147,322.27,240.72,322.0489,240.7552 M,0,76148,76178,322.0489,240.7552,321.8259,240.7385 M,0,76179,76209,321.8259,240.7385,321.6136,240.6672 M,0,76210,76241,321.6136,240.6672,321.4258,240.5446 M,0,76241,76366,321.4258,240.5446,320.25,239.23 M,0,76367,76397,320.25,239.23,320.0255,239.2206 M,0,76398,76428,320.0255,239.2206,319.807,239.1686 M,0,76429,76459,319.807,239.1686,319.6067,239.0674 M,0,76460,76491,319.6067,239.0674,319.4375,238.9199 M,0,76492,76522,319.4375,238.9199,319.2766,238.7632 M,0,76523,76553,319.2766,238.7632,319.0857,238.6451 M,0,76554,76584,319.0857,238.6451,318.8705,238.5823 M,0,76585,76616,318.8705,238.5823,318.65,238.58 M,0,76617,76647,318.65,238.58,318.8705,238.5823 M,0,76648,76678,318.8705,238.5823,319.0857,238.6451 M,0,76679,76709,319.0857,238.6451,319.2766,238.7632 M,0,76710,76741,319.2766,238.7632,319.4375,238.9199 M,0,76742,76772,319.4375,238.9199,319.6067,239.0674 M,0,76773,76803,319.6067,239.0674,319.807,239.1686 M,0,76804,76834,319.807,239.1686,320.0255,239.2206 M,0,76835,76866,320.0255,239.2206,320.25,239.23 M,0,76866,77116,320.25,239.23,317.78,239.79 M,0,77117,77147,317.78,239.79,317.8073,240.0133 M,0,77148,77178,317.8073,240.0133,317.8346,240.2367 M,0,77179,77209,317.8346,240.2367,317.8619,240.46 M,0,77210,77241,317.8619,240.46,317.8892,240.6833 M,0,77241,77366,317.8892,240.6833,318.9,241.67 M,0,77367,77397,318.9,241.67,318.9153,241.4461 M,0,77398,77428,318.9153,241.4461,318.9692,241.2285 M,0,77429,77459,318.9692,241.2285,319.0627,241.0245 M,0,77460,77491,319.0627,241.0245,319.1948,240.8432 M,0,77491,77616,319.1948,240.8432,320.07,240.34 M,0,77616,77866,320.07,240.34,322.16,239.04 M,0,77867,77897,322.16,239.04,321.9396,238.9947 M,0,77898,77928,321.9396,238.9947,321.7192,238.9494 M,0,77929,77959,321.7192,238.9494,321.4988,238.9041 M,0,77960,77991,321.4988,238.9041,321.2784,238.8587 M,0,77991,78116,321.2784,238.8587,320.28,239.95 M,0,78117,78147,320.28,239.95,320.4999,239.9025 M,0,78148,78178,320.4999,239.9025,320.7199,239.855 M,0,78179,78209,320.7199,239.855,320.9398,239.8075 M,0,78210,78241,320.9398,239.8075,321.1597,239.7601 M,0,78241,78366,321.1597,239.7601,322.42,241.51 M,0,78367,78397,322.42,241.51,322.2062,241.4398 M,0,78398,78428,322.2062,241.4398,321.9925,241.3696 M,0,78429,78459,321.9925,241.3696,321.7787,241.2994 M,0,78460,78491,321.7787,241.2994,321.6529,241.1211 M,0,78492,78522,321.6529,241.1211,321.5407,240.9261 M,0,78523,78553,321.5407,240.9261,321.346,240.832 M,0,78554,78584,321.346,240.832,321.1326,240.7608 M,0,78585,78616,321.1326,240.7608,320.92,240.69 M,0,78617,78647,320.92,240.69,321.1326,240.7608 M,0,78648,78678,321.1326,240.7608,321.346,240.832 M,0,78679,78709,321.346,240.832,321.5407,240.9261 M,0,78710,78741,321.5407,240.9261,321.6529,241.1211 M,0,78742,78772,321.6529,241.1211,321.7787,241.2994 M,0,78773,78803,321.7787,241.2994,321.9925,241.3696 M,0,78804,78834,321.9925,241.3696,322.2062,241.4398 M,0,78835,78866,322.2062,241.4398,322.42,241.51 M,0,78866,79116,322.42,241.51,319.71,241.58 M,0,79116,79241,319.71,241.58,319.13,240.57 M,0,79241,79366,319.13,240.57,317.96,240.62 M,0,79367,79397,317.96,240.62,318.079,240.4291 M,0,79398,79428,318.079,240.4291,318.1981,240.2381 M,0,79429,79459,318.1981,240.2381,318.3171,240.0472 M,0,79460,79491,318.3171,240.0472,318.4361,239.8562 M,0,79492,79522,318.4361,239.8562,318.636,239.7554 M,0,79523,79553,318.636,239.7554,318.8387,239.6577 M,0,79554,79584,318.8387,239.6577,319.0414,239.5599 M,0,79585,79616,319.0414,239.5599,319.244,239.4622 M,0,79616,79866,319.244,239.4622,321.55,238.46 M,0,79867,79897,321.55,238.46,321.424,238.6449 M,0,79898,79928,321.424,238.6449,321.3458,238.8544 M,0,79929,79959,321.3458,238.8544,321.3241,239.0774 M,0,79960,79991,321.3241,239.0774,321.3636,239.2981 M,0,79991,80116,321.3636,239.2981,322.09,239.96 M,0,80117,80147,322.09,239.96,322.2161,240.1449 M,0,80148,80178,322.2161,240.1449,322.2942,240.3544 M,0,80179,80209,322.2942,240.3544,322.3159,240.5774 M,0,80210,80241,322.3159,240.5774,322.2764,240.7981 M,0,80241,80366,322.2764,240.7981,321.16,241.56 M,0,80366,80491,321.16,241.56,320.6,240.32 M,0,80491,80616,320.6,240.32,321.24,241.73 M,0,80617,80647,321.24,241.73,321.0154,241.7175 M,0,80648,80678,321.0154,241.7175,320.7907,241.705 M,0,80679,80709,320.7907,241.705,320.566,241.6926 M,0,80710,80741,320.566,241.6926,320.3414,241.6801 M,0,80741,80866,320.3414,241.6801,318.82,240.8 M,0,80866,80991,318.82,240.8,319.38,239.56 M,0,80991,81116,319.38,239.56,318.74,240.97 M,0,81117,81147,318.74,240.97,318.9647,240.9574 M,0,81148,81178,318.9647,240.9574,319.1893,240.9448 M,0,81179,81209,319.1893,240.9448,319.4139,240.9321 M,0,81210,81241,319.4139,240.9321,319.63,240.92 M,0,81241,81366,319.63,240.92,320.6,240.32 M,0,81366,81616,320.6,240.32,318.07,239.37 M,0,81616,81866,318.07,239.37,320.33,238.52 M,0,81867,81897,320.33,238.52,320.5519,238.5509 M,0,81898,81928,320.5519,238.5509,320.7618,238.6286 M,0,81929,81959,320.7618,238.6286,320.9485,238.7525 M,0,81960,81991,320.9485,238.7525,321.0988,238.9186 M,0,81991,82116,321.0988,238.9186,321.99,238.98 M,0,82117,82147,321.99,238.98,322.0718,239.1887 M,0,82148,82178,322.0718,239.1887,322.1074,239.4096 M,0,82179,82209,322.1074,239.4096,322.0919,239.6331 M,0,82210,82241,322.0919,239.6331,322.026,239.8476 M,0,82241,82366,322.026,239.8476,320.73,241.65 M,0,82367,82397,320.73,241.65,320.5174,241.7212 M,0,82398,82428,320.5174,241.7212,320.295,241.7466 M,0,82429,82459,320.295,241.7466,320.0724,241.7221 M,0,82460,82491,320.0724,241.7221,319.8606,241.6488 M,0,82492,82522,319.8606,241.6488,319.6702,241.5301 M,0,82523,82553,319.6702,241.5301,319.5137,241.3696 M,0,82554,82584,319.5137,241.3696,319.3946,241.1801 M,0,82585,82616,319.3946,241.1801,319.3189,240.9691 M,0,82616,82741,319.3189,240.9691,319.85,239.78 M,0,82742,82772,319.85,239.78,320.0626,239.7088 M,0,82773,82803,320.0626,239.7088,320.285,239.6834 M,0,82804,82834,320.285,239.6834,320.5076,239.7079 M,0,82835,82866,320.5076,239.7079,320.7194,239.7813 M,0,82867,82897,320.7194,239.7813,320.9098,239.8999 M,0,82898,82928,320.9098,239.8999,321.0663,240.0604 M,0,82929,82959,321.0663,240.0604,321.1854,240.2499 M,0,82960,82991,321.1854,240.2499,321.2611,240.4609 M,0,82991,83116,321.2611,240.4609,320.73,241.65 M,0,83116,83241,320.73,241.65,320.31,240.7 M,0,83241,83366,320.31,240.7,319.03,240.14 M,0,83367,83397,319.03,240.14,318.8098,240.1861 M,0,83398,83428,318.8098,240.1861,318.5895,240.2321 M,0,83429,83459,318.5895,240.2321,318.3693,240.2782 M,0,83460,83491,318.3693,240.2782,318.149,240.3242 M,0,83492,83522,318.149,240.3242,317.9293,240.371 M,0,83523,83553,317.9293,240.371,317.7905,240.5481 M,0,83554,83584,317.7905,240.5481,317.6518,240.7252 M,0,83585,83616,317.6518,240.7252,317.513,240.9023 M,0,83617,83647,317.513,240.9023,317.6518,240.7252 M,0,83648,83678,317.6518,240.7252,317.7905,240.5481 M,0,83679,83709,317.7905,240.5481,317.9293,240.371 M,0,83710,83741,317.9293,240.371,318.149,240.3242 M,0,83742,83772,318.149,240.3242,318.3693,240.2782 M,0,83773,83803,318.3693,240.2782,318.5895,240.2321 M,0,83804,83834,318.5895,240.2321,318.8098,240.1861 M,0,83835,83866,318.8098,240.1861,319.03,240.14 M,0,83866,84116,319.03,240.14,321.16,238.36 M,0,84117,84147,321.16,238.36,320.9406,238.4099 M,0,84148,84178,320.9406,238.4099,320.7212,238.4597 M,0,84179,84209,320.7212,238.4597,320.5018,238.5096 M,0,84210,84241,320.5018,238.5096,320.2824,238.5595 M,0,84241,84366,320.2824,238.5595,319.1,238.74 M,0,84366,84491,319.1,238.74,320.11,239.56 M,0,84491,84616,320.11,239.56,319.73,240.72 M,0,84617,84647,319.73,240.72,319.5656,240.8723 M,0,84648,84678,319.5656,240.8723,319.3727,240.9859 M,0,84679,84709,319.3727,240.9859,319.159,241.0528 M,0,84710,84741,319.159,241.0528,318.94,241.07 M,0,84741,84866,318.94,241.07,318.1,240.24 M,0,84866,84991,318.1,240.24,318.31,241.7 M,0,84991,85116,318.31,241.7,319.03,240.14 M,0,85117,85147,319.03,240.14,318.9649,239.9246 M,0,85148,85178,318.9649,239.9246,318.8994,239.7095 M,0,85179,85209,318.8994,239.7095,318.7233,239.5694 M,0,85210,85241,318.7233,239.5694,318.5472,239.4294 M,0,85241,85366,318.5472,239.4294,317.95,238.67 M,0,85367,85397,317.95,238.67,317.7743,238.5294 M,0,85398,85428,317.7743,238.5294,317.6,238.39 M,0,85429,85459,317.6,238.39,317.7743,238.5294 M,0,85460,85491,317.7743,238.5294,317.95,238.67 M,0,85492,85522,317.95,238.67,317.7743,238.5294 M,0,85523,85553,317.7743,238.5294,317.6,238.39 M,0,85554,85584,317.6,238.39,317.7743,238.5294 M,0,85585,85616,317.7743,238.5294,317.95,238.67 M,0,85616,85741,317.95,238.67,319.47,238.48 M,0,85741,85866,319.47,238.48 M,0,85867,85897,319.47,238.48,319.6917,238.5129 M,0,85898,85928,319.6917,238.5129,319.9004,238.5934 M,0,85929,85959,319.9004,238.5934,320.0847,238.7205 M,0,85960,85991,320.0847,238.7205,320.23,238.88 M,0,85991,86116,320.23,238.88,318.56,239.94 M,0,86117,86147,318.56,239.94,318.7113,239.7747 M,0,86148,86178,318.7113,239.7747,318.894,239.6452 M,0,86179,86209,318.894,239.6452,319.1031,239.5653 M,0,86210,86241,319.1031,239.5653,319.3245,239.5332 M,0,86241,86366,319.3245,239.5332,321.09,239.93 M,0,86367,86397,321.09,239.93,320.8657,239.9328 M,0,86398,86428,320.8657,239.9328,320.6507,239.9967 M,0,86429,86459,320.6507,239.9967,320.4604,240.1156 M,0,86460,86491,320.4604,240.1156,320.2998,240.2728 M,0,86492,86522,320.2998,240.2728,320.1301,240.4196 M,0,86523,86553,320.1301,240.4196,319.9293,240.52 M,0,86554,86584,319.9293,240.52,319.7107,240.5711 M,0,86585,86616,319.7107,240.5711,319.49,240.58 M,0,86616,86741,319.49,240.58,318.25,241.28 M,0,86742,86772,318.25,241.28,318.396,241.4512 M,0,86773,86803,318.396,241.4512,318.5429,241.621 M,0,86804,86834,318.5429,241.621,318.7554,241.6951 M,0,86835,86866,318.7554,241.6951,318.9678,241.7692 M,0,86866,86991,318.9678,241.7692,320.2,241.63 M,0,86991,87116,320.2,241.63,319.48,240.57 M,0,87116,87241,319.48,240.57,321.09,240.79 M,0,87241,87366,321.09,240.79,321.37,239.07 M,0,87367,87397,321.37,239.07,321.1481,239.0377 M,0,87398,87428,321.1481,239.0377,320.9245,239.0497 M,0,87429,87459,320.9245,239.0497,320.7082,239.1089 M,0,87460,87491,320.7082,239.1089,320.5097,239.2138 M,0,87491,87616,320.5097,239.2138,319.24,238.55 M,0,87616,87741,319.24,238.55,318.25,239.28 M,0,87741,87866,318.25,239.28,319.48,238.68 M,0,87867,87897,319.48,238.68,319.5444,238.8956 M,0,87898,87928,319.5444,238.8956,319.6089,239.1112 M,0,87929,87959,319.6089,239.1112,319.6733,239.3267 M,0,87960,87991,319.6733,239.3267,319.7377,239.5423 M,0,87991,88116,319.7377,239.5423,319.52,241.12 M,0,88116,88241,319.52,241.12,320.51,240.39 M,0,88241,88366,320.51,240.39,319.28,240.99 M,0,88367,88397,319.28,240.99,319.214,240.7749 M,0,88398,88428,319.214,240.7749,319.148,240.5598 M,0,88429,88459,319.148,240.5598,319.082,240.3447 M,0,88460,88491,319.082,240.3447,319.016,240.1296 M,0,88491,88616,319.016,240.1296,321.29,240.86 M,0,88617,88647,321.29,240.86,321.3481,241.0774 M,0,88648,88678,321.3481,241.0774,321.4063,241.2947 M,0,88679,88709,321.4063,241.2947,321.4644,241.5121 M,0,88710,88741,321.4644,241.5121,321.52,241.72 M,0,88741,88866,321.52,241.72,321.84,239.59 M,0,88867,88897,321.84,239.59,321.6418,239.4854 M,0,88898,88928,321.6418,239.4854,321.4266,239.4234 M,0,88929,88959,321.4266,239.4234,321.2028,239.4099 M,0,88960,88991,321.2028,239.4099,320.9814,239.4471 M,0,88991,89116,320.9814,239.4471,320.14,241.12 M,0,89117,89147,320.14,241.12,319.9189,241.1569 M,0,89148,89178,319.9189,241.1569,319.6951,241.1483 M,0,89179,89209,319.6951,241.1483,319.4783,241.0915 M,0,89210,89241,319.4783,241.0915,319.28,240.99 M,0,89241,89366,319.28,240.99,318.02,241.64 M,0,89367,89397,318.02,241.64,317.8889,241.4571 M,0,89398,89428,317.8889,241.4571,317.7578,241.2743 M,0,89429,89459,317.7578,241.2743,317.6461,241.088 M,0,89460,89491,317.6461,241.088,317.7061,240.8711 M,0,89492,89522,317.7061,240.8711,317.7662,240.6543 M,0,89523,89553,317.7662,240.6543,317.8262,240.4375 M,0,89554,89584,317.8262,240.4375,317.8863,240.2206 M,0,89585,89616,317.8863,240.2206,317.9464,240.0038 M,0,89616,89866,317.9464,240.0038,320.56,239.36 M,0,89867,89897,320.56,239.36,320.5875,239.1376 M,0,89898,89928,320.5875,239.1376,320.5685,238.9145 M,0,89929,89959,320.5685,238.9145,320.5005,238.7009 M,0,89960,89991,320.5005,238.7009,320.3857,238.508 M,0,89991,90116,320.3857,238.508,319.12,238.53 M,0,90116,90241,319.12,238.53,318.92,239.69 M,0,90241,90366,318.92,239.69,319.72,240.56 M,0,90367,90397,319.72,240.56,319.9437,240.5357 M,0,90398,90428,319.9437,240.5357,320.1674,240.5114 M,0,90429,90459,320.1674,240.5114,320.3393,240.3697 M,0,90460,90491,320.3393,240.3697,320.5081,240.2209 M,0,90491,90616,320.5081,240.2209,321.38,239.12 M,0,90616,90741,321.38,239.12,319.93,238.81 M,0,90742,90772,319.93,238.81,319.7063,238.8343 M,0,90773,90803,319.7063,238.8343,319.4826,238.8586 M,0,90804,90834,319.4826,238.8586,319.3107,239.0003 M,0,90835,90866,319.3107,239.0003,319.1419,239.1491 M,0,90866,90991,319.1419,239.1491,318.27,240.25 M,0,90991,91116,318.27,240.25,319.82,240.78 M,0,91117,91147,319.82,240.78,320.0437,240.7557 M,0,91148,91178,320.0437,240.7557,320.2674,240.7314 M,0,91179,91209,320.2674,240.7314,320.4393,240.5897 M,0,91210,91241,320.4393,240.5897,320.6081,240.4409 M,0,91241,91366,320.6081,240.4409,321.56,238.51 M,0,91367,91397,321.56,238.51,321.6174,238.7276 M,0,91398,91428,321.6174,238.7276,321.6747,238.9451 M,0,91429,91459,321.6747,238.9451,321.7321,239.1627 M,0,91460,91491,321.7321,239.1627,321.7895,239.3802 M,0,91491,91616,321.7895,239.3802,321.66,241.5 M,0,91617,91647,321.66,241.5,321.6026,241.2824 M,0,91648,91678,321.6026,241.2824,321.5453,241.0649 M,0,91679,91709,321.5453,241.0649,321.4879,240.8473 M,0,91710,91741,321.4879,240.8473,321.4305,240.6298 M,0,91741,91866,321.4305,240.6298,320.3,238.86 M,0,91867,91897,320.3,238.86,320.3574,239.0776 M,0,91898,91928,320.3574,239.0776,320.4148,239.2951 M,0,91929,91959,320.4148,239.2951,320.4721,239.5127 M,0,91960,91991,320.4721,239.5127,320.5295,239.7302 M,0,91991,92116,320.5295,239.7302,320.4,241.85 M,0,92117,92147,320.4,241.85,320.3426,241.6324 M,0,92148,92178,320.3426,241.6324,320.2852,241.4149 M,0,92179,92209,320.2852,241.4149,320.2279,241.1973 M,0,92210,92241,320.2279,241.1973,320.1705,240.9798 M,0,92241,92366,320.1705,240.9798,319,239.23 M,0,92367,92397,319,239.23,318.9057,239.0262 M,0,92398,92428,318.9057,239.0262,318.7824,238.8386 M,0,92429,92459,318.7824,238.8386,318.6311,238.6727 M,0,92460,92491,318.6311,238.6727,318.4537,238.535 M,0,92492,92522,318.4537,238.535,318.2578,238.4258 M,0,92523,92553,318.2578,238.4258,318.0469,238.3488 M,0,92554,92584,318.0469,238.3488,317.8264,238.306 M,0,92585,92616,317.8264,238.306,317.6018,238.2996 M,0,92617,92647,317.6018,238.2996,317.8264,238.306 M,0,92648,92678,317.8264,238.306,318.0469,238.3488 M,0,92679,92709,318.0469,238.3488,318.2578,238.4258 M,0,92710,92741,318.2578,238.4258,318.4537,238.535 M,0,92742,92772,318.4537,238.535,318.6311,238.6727 M,0,92773,92803,318.6311,238.6727,318.7824,238.8386 M,0,92804,92834,318.7824,238.8386,318.9057,239.0262 M,0,92835,92866,318.9057,239.0262,319,239.23 M,0,92866,93116,319,239.23,317.84,241.76 M,0,93117,93147,317.84,241.76,317.8213,241.5358 M,0,93148,93178,317.8213,241.5358,317.8026,241.3116 M,0,93179,93209,317.8026,241.3116,317.7839,241.0873 M,0,93210,93241,317.7839,241.0873,317.7653,240.8631 M,0,93241,93366,317.7653,240.8631,318.19,239.42 M,0,93367,93397,318.19,239.42,318.1779,239.1965 M,0,93398,93428,318.1779,239.1965,318.22,238.9771 M,0,93429,93459,318.22,238.9771,318.3216,238.7779 M,0,93460,93491,318.3216,238.7779,318.4684,238.6091 M,0,93491,93616,318.4684,238.6091,319.66,238.44 M,0,93616,93866,319.66,238.44,322,240.78 M,0,93867,93897,322,240.78,321.7796,240.7347 M,0,93898,93928,321.7796,240.7347,321.5592,240.6894 M,0,93929,93959,321.5592,240.6894,321.3388,240.6441 M,0,93960,93991,321.3388,240.6441,321.1184,240.5987 M,0,93991,94116,321.1184,240.5987,321.4,239.17 M,0,94117,94147,321.4,239.17,321.1801,239.2175 M,0,94148,94178,321.1801,239.2175,320.9601,239.265 M,0,94179,94209,320.9601,239.265,320.7402,239.3125 M,0,94210,94241,320.7402,239.3125,320.5203,239.3599 M,0,94241,94366,320.5203,239.3599,320.72,241.48 M,0,94367,94397,320.72,241.48,320.5062,241.4098 M,0,94398,94428,320.5062,241.4098,320.2924,241.3396 M,0,94429,94459,320.2924,241.3396,320.0787,241.2694 M,0,94460,94491,320.0787,241.2694,319.9529,241.0911 M,0,94492,94522,319.9529,241.0911,319.8407,240.8961 M,0,94523,94553,319.8407,240.8961,319.646,240.802 M,0,94554,94584,319.646,240.802,319.4326,240.7309 M,0,94585,94616,319.4326,240.7309,319.22,240.66 M,0,94617,94647,319.22,240.66,319.4326,240.7309 M,0,94648,94678,319.4326,240.7309,319.646,240.802 M,0,94679,94709,319.646,240.802,319.8407,240.8961 M,0,94710,94741,319.8407,240.8961,319.9529,241.0911 M,0,94742,94772,319.9529,241.0911,320.0787,241.2694 M,0,94773,94803,320.0787,241.2694,320.2924,241.3396 M,0,94804,94834,320.2924,241.3396,320.5062,241.4098 M,0,94835,94866,320.5062,241.4098,320.72,241.48 M,0,94866,95116,320.72,241.48,320.52,239.35 M,0,95116,95241,320.52,239.35,319.61,238.75 M,0,95241,95366,319.61,238.75,318.58,239.06 M,0,95367,95397,318.58,239.06,318.5473,239.2826 M,0,95398,95428,318.5473,239.2826,318.5147,239.5052 M,0,95429,95459,318.5147,239.5052,318.482,239.7278 M,0,95460,95491,318.482,239.7278,318.4493,239.9505 M,0,95492,95522,318.4493,239.9505,318.4167,240.1731 M,0,95523,95553,318.4167,240.1731,318.384,240.3957 M,0,95554,95584,318.384,240.3957,318.3513,240.6183 M,0,95585,95616,318.3513,240.6183,318.3187,240.8409 M,0,95616,95866,318.3187,240.8409,320.72,241.48 M,0,95867,95897,320.72,241.48,320.7499,241.258 M,0,95898,95928,320.7499,241.258,320.7284,241.0355 M,0,95929,95959,320.7284,241.0355,320.653,240.8247 M,0,95960,95991,320.653,240.8247,320.53,240.64 M,0,95991,96116,320.53,240.64,319.51,240.1 M,0,96117,96147,319.51,240.1,319.474,239.879 M,0,96148,96178,319.474,239.879,319.4916,239.6562 M,0,96179,96209,319.4916,239.6562,319.5655,239.445 M,0,96210,96241,319.5655,239.445,319.69,239.26 M,0,96241,96366,319.69,239.26,320.77,238.8 M,0,96366,96491,320.77,238.8,322.25,239.48 M,0,96491,96616,322.25,239.48,321.27,239.9 M,0,96617,96647,321.27,239.9,321.0453,239.8875 M,0,96648,96678,321.0453,239.8875,320.8207,239.875 M,0,96679,96709,320.8207,239.875,320.596,239.8626 M,0,96710,96741,320.596,239.8626,320.3714,239.8501 M,0,96741,96866,320.3714,239.8501,319.29,238.21 M,0,96866,96991,319.29,238.21,317.81,238.89 M,0,96991,97116,317.81,238.89,318.79,239.31 M,0,97117,97147,318.79,239.31,319.0146,239.2975 M,0,97148,97178,319.0146,239.2975,319.2393,239.285 M,0,97179,97209,319.2393,239.285,319.464,239.2726 M,0,97210,97241,319.464,239.2726,319.6886,239.2601 M,0,97241,97366,319.6886,239.2601,321.27,239.9 M,0,97366,97616,321.27,239.9,318.4,241.2 M,0,97616,97866,318.4,241.2,321.04,241.61 M,0,97867,97897,321.04,241.61,321.1689,241.4266 M,0,97898,97928,321.1689,241.4266,321.2571,241.2208 M,0,97929,97959,321.2571,241.2208,321.2979,241.0005 M,0,97960,97991,321.2979,241.0005,321.29,240.78 M,0,97991,98116,321.29,240.78,321.86,240.03 M,0,98117,98147,321.86,240.03,321.81,239.8116 M,0,98148,98178,321.81,239.8116,321.7133,239.6099 M,0,98179,98209,321.7133,239.6099,321.5715,239.4365 M,0,98210,98241,321.5715,239.4365,321.3923,239.3015 M,0,98241,98366,321.3923,239.3015,319.95,238.51 M,0,98367,98397,319.95,238.51,319.7445,238.6017 M,0,98398,98428,319.7445,238.6017,319.539,238.6933 M,0,98429,98459,319.539,238.6933,319.3336,238.785 M,0,98460,98491,319.3336,238.785,319.1195,238.7467 M,0,98492,98522,319.1195,238.7467,318.9037,238.6829 M,0,98523,98553,318.9037,238.6829,318.6967,238.7445 M,0,98554,98584,318.6967,238.7445,318.492,238.8378 M,0,98585,98616,318.492,238.8378,318.29,238.93 M,0,98616,98741,318.29,238.93,318.33,240.84 M,0,98742,98772,318.33,240.84,318.5347,240.9334 M,0,98773,98803,318.5347,240.9334,318.7394,241.0267 M,0,98804,98834,318.7394,241.0267,318.9462,241.0853 M,0,98835,98866,318.9462,241.0853,319.1606,241.0171 M,0,98867,98897,319.1606,241.0171,319.3733,240.9756 M,0,98898,98928,319.3733,240.9756,319.577,241.0711 M,0,98929,98959,319.577,241.0711,319.7808,241.1666 M,0,98960,98991,319.7808,241.1666,319.98,241.26 M,0,98991,99116,319.98,241.26,320.8,239.89 M,0,99117,99147,320.8,239.89,320.575,239.89 M,0,99148,99178,320.575,239.89,320.35,239.89 M,0,99179,99209,320.35,239.89,320.125,239.89 M,0,99210,99241,320.125,239.89,319.9,239.89 F,0,99215,99365,0.8,0
Sprite,Background,Centre,"sb\bg\blurred.jpg",0,0 F,0,171215,171365,0,0.8 M,0,171303,171366,321.4031,240.3197,321.99,241.32 S,0,171365,,0.4466667 M,0,171367,171397,321.99,241.32,321.8624,241.1354 M,0,171398,171428,321.8624,241.1354,321.7044,240.9764 M,0,171429,171459,321.7044,240.9764,321.5191,240.8499 M,0,171460,171491,321.5191,240.8499,321.3129,240.761 M,0,171491,171616,321.3129,240.761,321.26,239.43 M,0,171617,171647,321.26,239.43,321.0359,239.4371 M,0,171648,171678,321.0359,239.4371,320.8182,239.4895 M,0,171679,171709,320.8182,239.4895,320.6169,239.5881 M,0,171710,171741,320.6169,239.5881,320.4417,239.7284 M,0,171741,171866,320.4417,239.7284,319.01,238.82 M,0,171867,171897,319.01,238.82,319.0594,239.0395 M,0,171898,171928,319.0594,239.0395,319.1089,239.259 M,0,171929,171959,319.1089,239.259,319.1584,239.4785 M,0,171960,171991,319.1584,239.4785,319.2078,239.698 M,0,171992,172022,319.2078,239.698,319.2572,239.9175 M,0,172023,172053,319.2572,239.9175,319.3067,240.137 M,0,172054,172084,319.3067,240.137,319.3561,240.3565 M,0,172085,172116,319.3561,240.3565,319.4056,240.576 M,0,172116,172241,319.4056,240.576,317.9,241.59 M,0,172242,172272,317.9,241.59,317.9394,241.3685 M,0,172273,172303,317.9394,241.3685,317.9788,241.1469 M,0,172304,172334,317.9788,241.1469,318.1115,240.9662 M,0,172335,172366,318.1115,240.9662,318.2471,240.7867 M,0,172366,172491,318.2471,240.7867,318.24,239.37 M,0,172492,172522,318.24,239.37,318.375,239.19 M,0,172523,172553,318.375,239.19,318.51,239.01 M,0,172554,172584,318.51,239.01,318.645,238.83 M,0,172585,172616,318.645,238.83,318.78,238.65 M,0,172616,172741,318.78,238.65,320.24,238.3 M,0,172742,172772,320.24,238.3,320.2868,238.5195 M,0,172773,172803,320.2868,238.5195,320.298,238.7436 M,0,172804,172834,320.298,238.7436,320.2675,238.9659 M,0,172835,172866,320.2675,238.9659,320.202,239.1805 M,0,172866,172991,320.202,239.1805,319.4,240.57 M,0,172991,173116,319.4,240.57,320.09,241.41 M,0,173116,173241,320.09,241.41,321.24,241.25 M,0,173241,173366,321.24,241.25,321.77,240.23 M,0,173367,173397,321.77,240.23,321.6788,240.0243 M,0,173398,173428,321.6788,240.0243,321.5877,239.8186 M,0,173429,173459,321.5877,239.8186,321.4965,239.6129 M,0,173460,173491,321.4965,239.6129,321.4053,239.4072 M,0,173491,173616,321.4053,239.4072,320.24,238.3 M,0,173617,173647,320.24,238.3,320.1689,238.5135 M,0,173648,173678,320.1689,238.5135,320.0977,238.7269 M,0,173679,173709,320.0977,238.7269,320.0266,238.9404 M,0,173710,173741,320.0266,238.9404,319.9554,239.1538 M,0,173742,173772,319.9554,239.1538,319.8842,239.3673 M,0,173773,173803,319.8842,239.3673,319.9388,239.5763 M,0,173804,173834,319.9388,239.5763,320.0248,239.7842 M,0,173835,173866,320.0248,239.7842,320.11,239.99 M,0,173866,174116,320.11,239.99,322.06,241.65 M,0,174116,174241,322.06,241.65,321.05,241.08 M,0,174242,174272,321.05,241.08,320.8261,241.0709 M,0,174273,174303,320.8261,241.0709,320.606,241.1108 M,0,174304,174334,320.606,241.1108,320.401,241.2012 M,0,174335,174366,320.401,241.2012,320.2228,241.3375 M,0,174366,174491,320.2228,241.3375,319.35,241.94 M,0,174492,174522,319.35,241.94,319.2589,241.7343 M,0,174523,174553,319.2589,241.7343,319.1677,241.5286 M,0,174554,174584,319.1677,241.5286,319.0765,241.3229 M,0,174585,174616,319.0765,241.3229,318.9854,241.1172 M,0,174616,174741,318.9854,241.1172,318.55,238.92 M,0,174742,174772,318.55,238.92,318.4778,239.1331 M,0,174773,174803,318.4778,239.1331,318.4055,239.3462 M,0,174804,174834,318.4055,239.3462,318.3049,239.5359 M,0,174835,174866,318.3049,239.5359,318.1098,239.6481 M,0,174867,174897,318.1098,239.6481,317.9373,239.7786 M,0,174898,174928,317.9373,239.7786,317.8671,239.9924 M,0,174929,174959,317.8671,239.9924,317.7969,240.2061 M,0,174960,174991,317.7969,240.2061,317.73,240.41 M,0,174991,175116,317.73,240.41,318.07,241.61 M,0,175116,175241,318.07,241.61,318.98,241.11 M,0,175241,175366,318.98,241.11,319.1,239.97 M,0,175367,175397,319.1,239.97,319.3217,240.0012 M,0,175398,175428,319.3217,240.0012,319.5297,240.0832 M,0,175429,175459,319.5297,240.0832,319.7109,240.2146 M,0,175460,175491,319.7109,240.2146,319.85,240.38 M,0,175491,175616,319.85,240.38,319.9,241.56 M,0,175616,175866,319.9,241.56,321.92,239.69 M,0,175866,176116,321.92,239.69,319.95,238.39 M,0,176116,176241,319.95,238.39,320.05,239.35 M,0,176242,176272,320.05,239.35,319.8302,239.302 M,0,176273,176303,319.8302,239.302,319.6104,239.254 M,0,176304,176334,319.6104,239.254,319.3905,239.206 M,0,176335,176366,319.3905,239.206,319.1777,239.1508 M,0,176367,176397,319.1777,239.1508,319.1237,238.9324 M,0,176398,176428,319.1237,238.9324,319.0697,238.7139 M,0,176429,176459,319.0697,238.7139,319.0157,238.4955 M,0,176460,176491,319.0157,238.4955,318.9618,238.2771 M,0,176491,176616,318.9618,238.2771,317.74,239.41 M,0,176616,176741,317.74,239.41,317.63,240.34 M,0,176742,176772,317.63,240.34,317.8539,240.342 M,0,176773,176803,317.8539,240.342,318.0712,240.2901 M,0,176804,176834,318.0712,240.2901,318.2679,240.1837 M,0,176835,176866,318.2679,240.1837,318.4314,240.0306 M,0,176866,176991,318.4314,240.0306,319.82,240.31 M,0,176991,177116,319.82,240.31,319.73,241.28 M,0,177116,177241,319.73,241.28,320.64,241.69 M,0,177241,177366,320.64,241.69,321.45,241.05 M,0,177367,177397,321.45,241.05,321.6689,241.1022 M,0,177398,177428,321.6689,241.1022,321.8877,241.1544 M,0,177429,177459,321.8877,241.1544,322.1066,241.2067 M,0,177460,177491,322.1066,241.2067,322.3254,241.2589 M,0,177492,177522,322.3254,241.2589,322.1066,241.2067 M,0,177523,177553,322.1066,241.2067,321.8877,241.1544 M,0,177554,177584,321.8877,241.1544,321.6689,241.1022 M,0,177585,177616,321.6689,241.1022,321.45,241.05 M,0,177616,177741,321.45,241.05,320.78,240.21 M,0,177741,177866,320.78,240.21 M,0,177867,177897,320.78,240.21,320.5612,240.1578 M,0,177898,177928,320.5612,240.1578,320.3423,240.1055 M,0,177929,177959,320.3423,240.1055,320.1234,240.0533 M,0,177960,177991,320.1234,240.0533,319.9046,240.0011 M,0,177991,178116,319.9046,240.0011,319.37,238.79 M,0,178116,178241,319.37,238.79,320.3,238.34 M,0,178241,178366,320.3,238.34,321.45,238.69 M,0,178367,178397,321.45,238.69,321.2599,238.8094 M,0,178398,178428,321.2599,238.8094,321.0913,238.9574 M,0,178429,178459,321.0913,238.9574,320.9502,239.1319 M,0,178460,178491,320.9502,239.1319,320.8408,239.3279 M,0,178492,178522,320.8408,239.3279,320.7661,239.5398 M,0,178523,178553,320.7661,239.5398,320.7318,239.7617 M,0,178554,178584,320.7318,239.7617,320.7333,239.986 M,0,178585,178616,320.7333,239.986,320.7729,240.2069 M,0,178616,178741,320.7729,240.2069,320.47,242.03 M,0,178742,178772,320.47,242.03,320.4626,241.8056 M,0,178773,178803,320.4626,241.8056,320.4198,241.5854 M,0,178804,178834,320.4198,241.5854,320.3402,241.3756 M,0,178835,178866,320.3402,241.3756,320.2262,241.1822 M,0,178867,178897,320.2262,241.1822,320.0809,241.0108 M,0,178898,178928,320.0809,241.0108,319.9067,240.8692 M,0,178929,178959,319.9067,240.8692,319.7123,240.7572 M,0,178960,178991,319.7123,240.7572,319.5017,240.6797 M,0,178991,179116,319.5017,240.6797,318.64,239.5 M,0,179117,179147,318.64,239.5,318.8544,239.5632 M,0,179148,179178,318.8544,239.5632,319.0774,239.5655 M,0,179179,179209,319.0774,239.5655,319.2917,239.5026 M,0,179210,179241,319.2917,239.5026,319.4791,239.3801 M,0,179241,179366,319.4791,239.3801,318.89,238.46 M,0,179366,179491,318.89,238.46,317.89,238.96 M,0,179491,179616,317.89,238.96,317.86,240.06 M,0,179617,179647,317.86,240.06,317.9046,240.2805 M,0,179648,179678,317.9046,240.2805,317.9492,240.5011 M,0,179679,179709,317.9492,240.5011,317.9938,240.7216 M,0,179710,179741,317.9938,240.7216,318.0384,240.9421 M,0,179741,179866,318.0384,240.9421,319.01,241.81 M,0,179867,179897,319.01,241.81,319.0583,241.5916 M,0,179898,179928,319.0583,241.5916,319.1609,241.3933 M,0,179929,179959,319.1609,241.3933,319.3145,241.2303 M,0,179960,179991,319.3145,241.2303,319.509,241.119 M,0,179991,180116,319.509,241.119,321.04,241.43 M,0,180116,180241,321.04,241.43,321.98,241.95 M,0,180242,180272,321.98,241.95,322.0222,241.729 M,0,180273,180303,322.0222,241.729,322.0644,241.508 M,0,180304,180334,322.0644,241.508,322.1066,241.287 M,0,180335,180366,322.1066,241.287,322.1489,241.066 M,0,180366,180491,322.1489,241.066,321.66,239.22 M,0,180492,180522,321.66,239.22,321.6149,239.4404 M,0,180523,180553,321.6149,239.4404,321.5698,239.6609 M,0,180554,180584,321.5698,239.6609,321.5247,239.8813 M,0,180585,180616,321.5247,239.8813,321.48,240.1 M,0,180616,180741,321.48,240.1,320.28,240.94 M,0,180742,180772,320.28,240.94,320.3222,240.719 M,0,180773,180803,320.3222,240.719,320.3644,240.498 M,0,180804,180834,320.3644,240.498,320.4066,240.277 M,0,180835,180866,320.4066,240.277,320.4489,240.056 M,0,180866,180991,320.4489,240.056,319.77,238.76 M,0,180991,181116,319.77,238.76,319.18,239.62 M,0,181116,181241,319.18,239.62,318.08,239.71 M,0,181241,181366,318.08,239.71,317.49,240.57 M,0,181367,181397,317.49,240.57,317.6954,240.6599 M,0,181398,181428,317.6954,240.6599,317.9142,240.7083 M,0,181429,181459,317.9142,240.7083,318.1384,240.71 M,0,181460,181491,318.1384,240.71,318.3581,240.6635 M,0,181491,181616,318.3581,240.6635,319.07,238.37 M,0,181617,181647,319.07,238.37,318.8821,238.4937 M,0,181648,181678,318.8821,238.4937,318.6942,238.6175 M,0,181679,181709,318.6942,238.6175,318.5063,238.7412 M,0,181710,181741,318.5063,238.7412,318.3184,238.865 M,0,181742,181772,318.3184,238.865,318.2182,239.0496 M,0,181773,181803,318.2182,239.0496,318.1682,239.269 M,0,181804,181834,318.1682,239.269,318.1182,239.4883 M,0,181835,181866,318.1182,239.4883,318.07,239.7 M,0,181866,182116,318.07,239.7,320.24,240.87 M,0,182116,182241,320.24,240.87,320.32,241.8 M,0,182242,182272,320.32,241.8,320.0963,241.801 M,0,182273,182303,320.0963,241.801,319.8795,241.7468 M,0,182304,182334,319.8795,241.7468,319.6845,241.6369 M,0,182335,182366,319.6845,241.6369,319.5265,241.478 M,0,182366,182491,319.5265,241.478,318.1,241.06 M,0,182492,182522,318.1,241.06,318.0074,240.8559 M,0,182523,182553,318.0074,240.8559,317.9577,240.6374 M,0,182554,182584,317.9577,240.6374,317.9605,240.4134 M,0,182585,182616,317.9605,240.4134,318.0081,240.1945 M,0,182616,182741,318.0081,240.1945,318.68,238.82 M,0,182742,182772,318.68,238.82,318.8969,238.7602 M,0,182773,182803,318.8969,238.7602,319.1138,238.7005 M,0,182804,182834,319.1138,238.7005,319.3307,238.6407 M,0,182835,182866,319.3307,238.6407,319.5477,238.5809 M,0,182866,182991,319.5477,238.5809,321.19,239.7 M,0,182991,183116,321.19,239.7,320.59,240.62 M,0,183116,183241,320.59,240.62,321.58,241.21 M,0,183241,183366,321.58,241.21,320.52,241.73 M,0,183367,183397,320.52,241.73,320.2954,241.7236 M,0,183398,183428,320.2954,241.7236,320.0771,241.6714 M,0,183429,183459,320.0771,241.6714,319.8777,241.5684 M,0,183460,183491,319.8777,241.5684,319.7091,241.4201 M,0,183492,183522,319.7091,241.4201,319.548,241.2636 M,0,183523,183553,319.548,241.2636,319.3561,241.1473 M,0,183554,183584,319.3561,241.1473,319.1404,241.0855 M,0,183585,183616,319.1404,241.0855,318.92,241.08 M,0,183617,183647,318.92,241.08,319.1404,241.0855 M,0,183648,183678,319.1404,241.0855,319.3561,241.1473 M,0,183679,183709,319.3561,241.1473,319.548,241.2636 M,0,183710,183741,319.548,241.2636,319.7091,241.4201 M,0,183742,183772,319.7091,241.4201,319.8777,241.5684 M,0,183773,183803,319.8777,241.5684,320.0771,241.6714 M,0,183804,183834,320.0771,241.6714,320.2954,241.7236 M,0,183835,183866,320.2954,241.7236,320.52,241.73 M,0,183866,184116,320.52,241.73,321.74,238.98 M,0,184116,184241,321.74,238.98,320.44,238.61 M,0,184242,184272,320.44,238.61,320.2277,238.6814 M,0,184273,184303,320.2277,238.6814,320.0363,238.7975 M,0,184304,184334,320.0363,238.7975,319.8806,238.9583 M,0,184335,184366,319.8806,238.9583,319.7639,239.1493 M,0,184366,184491,319.7639,239.1493,319.99,240.48 M,0,184492,184522,319.99,240.48,320.1632,240.6221 M,0,184523,184553,320.1632,240.6221,320.3635,240.7218 M,0,184554,184584,320.3635,240.7218,320.5818,240.7709 M,0,184585,184616,320.5818,240.7709,320.79,240.77 M,0,184616,184741,320.79,240.77,321.88,239.84 M,0,184742,184772,321.88,239.84,321.9167,239.6189 M,0,184773,184803,321.9167,239.6189,321.9067,239.3952 M,0,184804,184834,321.9067,239.3952,321.8473,239.1792 M,0,184835,184866,321.8473,239.1792,321.741,238.9815 M,0,184866,184991,321.741,238.9815,320.77,239.64 M,0,184991,185116,320.77,239.64,319.76,239.15 M,0,185116,185241,319.76,239.15,319.08,240.29 M,0,185241,185366,319.08,240.29,318.24,239.42 M,0,185367,185397,318.24,239.42,318.2103,239.197 M,0,185398,185428,318.2103,239.197,318.1805,238.974 M,0,185429,185459,318.1805,238.974,318.1508,238.7509 M,0,185460,185491,318.1508,238.7509,318.1211,238.5279 M,0,185491,185616,318.1211,238.5279,317.82,240.69 M,0,185617,185647,317.82,240.69,317.8476,240.9133 M,0,185648,185678,317.8476,240.9133,317.8752,241.1366 M,0,185679,185709,317.8752,241.1366,317.9028,241.3599 M,0,185710,185741,317.9028,241.3599,317.93,241.58 M,0,185741,185866,317.93,241.58,320.3,241.32 M,0,185867,185897,320.3,241.32,320.2126,241.1127 M,0,185898,185928,320.2126,241.1127,320.1252,240.9054 M,0,185929,185959,320.1252,240.9054,320.0377,240.698 M,0,185960,185991,320.0377,240.698,319.9503,240.4907 M,0,185992,186022,319.9503,240.4907,319.7319,240.438 M,0,186023,186053,319.7319,240.438,319.5131,240.3857 M,0,186054,186084,319.5131,240.3857,319.2942,240.3335 M,0,186085,186116,319.2942,240.3335,319.0753,240.2813 M,0,186116,186241,319.0753,240.2813,318.24,239.42 M,0,186241,186366,318.24,239.42,319.58,238.49 M,0,186367,186397,319.58,238.49,319.7304,238.6559 M,0,186398,186428,319.7304,238.6559,319.8382,238.8518 M,0,186429,186459,319.8382,238.8518,319.8942,239.0689 M,0,186460,186491,319.8942,239.0689,319.8881,239.2926 M,0,186491,186616,319.8881,239.2926,319.23,240.27 M,0,186616,186741,319.23,240.27,320.65,239.8 M,0,186742,186772,320.65,239.8,320.5792,240.0125 M,0,186773,186803,320.5792,240.0125,320.4626,240.2034 M,0,186804,186834,320.4626,240.2034,320.3005,240.3577 M,0,186835,186866,320.3005,240.3577,320.107,240.4693 M,0,186866,186991,320.107,240.4693,319.07,240.12 M,0,186991,187116,319.07,240.12,319.87,241.37 F,0,187090,187240,0.8,0
Sprite,Background,Centre,"sb\rs\heart.png",0,0 F,0,51215,51365,0,1 M,17,51241,51366,401.0186,91.48044,272,84 S,0,51365,,2 M,0,51367,51428,272,84,263.8389,121.3692 M,0,51429,51491,263.8389,121.3692,255.6778,158.7384 M,17,51491,51616,255.6778,158.7384,165,204 M,17,51616,51741,165,204 M,0,51742,51803,165,204,156.4359,241.2789 M,0,51804,51866,156.4359,241.2789,148,278 M,17,51866,51991,148,278,130,377 M,0,51992,52053,130,377,163.2981,395.0619 M,0,52054,52116,163.2981,395.0619,201.0534,398.1999 M,17,52116,52241,201.0534,398.1999,297,298 M,0,52242,52303,297,298,333.5003,287.3333 M,0,52304,52366,333.5003,287.3333,371.4781,288.8241 M,0,52367,52428,371.4781,288.8241,406.7785,302.9047 M,0,52429,52491,406.7785,302.9047,435.6481,327.5854 M,17,52491,52616,435.6481,327.5854,511,396 M,17,52616,52741,511,396 M,0,52742,52803,511,396,516.9188,358.2107 M,0,52804,52866,516.9188,358.2107,522.8376,320.4214 M,17,52866,52991,522.8376,320.4214,464,186 M,17,52991,53116,464,186,388,171 M,17,53116,53241,388,171,330,221 M,17,53241,53366,330,221,276,166 M,0,53367,53428,276,166,247.2397,141.4445 M,0,53429,53491,247.2397,141.4445,210.6664,131.8618 M,17,53491,53616,210.6664,131.8618,96,218 M,17,53616,53741,96,218 M,0,53742,53803,96,218,84.6472,254.5264 M,0,53804,53866,84.6472,254.5264,73.29441,291.0528 M,17,53866,53991,73.29441,291.0528,160,417 M,0,53992,54053,160,417,175.2651,382.2632 M,0,54054,54116,175.2651,382.2632,176.0432,344.3896 M,17,54116,54241,176.0432,344.3896,262,249 M,0,54242,54303,262,249,299.3942,254.5585 M,0,54304,54366,299.3942,254.5585,329.485,277.6708 M,0,54367,54428,329.485,277.6708,360.7937,298.9789 M,0,54429,54491,360.7937,298.9789,397,304 M,17,54491,54616,397,304,469,385 M,0,54617,54678,469,385,491.442,354.4923 M,0,54679,54741,491.442,354.4923,499.5056,317.4678 M,17,54741,54866,499.5056,317.4678,561,255 M,0,54867,54928,561,255,545.6319,220.3742 M,0,54929,54991,545.6319,220.3742,517.4131,195.2022 M,17,54991,55116,517.4131,195.2022,442,82 M,17,55116,55241,442,82,371,111 M,17,55241,55366,371,111,297,88 M,0,55367,55428,297,88,259.3839,82.01088 M,0,55429,55491,259.3839,82.01088,221.5702,86.43603 M,0,55492,55553,221.5702,86.43603,186.4328,101.1818 M,0,55554,55616,186.4328,101.1818,157.0238,125.3868 M,17,55616,55741,157.0238,125.3868,92,239 M,0,55742,55803,92,239,87.13596,276.9395 M,0,55804,55866,87.13596,276.9395,102.1005,311.9763 M,17,55866,55991,102.1005,311.9763,196,411 M,0,55992,56053,196,411,200.864,373.0605 M,0,56054,56116,200.864,373.0605,185.8994,338.0238 M,17,56116,56241,185.8994,338.0238,209,191 M,0,56242,56303,209,191,204.136,228.9395 M,0,56304,56366,204.136,228.9395,219.1006,263.9763 M,17,56366,56491,219.1006,263.9763,313,363 M,0,56492,56553,313,363,317.864,325.0605 M,0,56554,56616,317.864,325.0605,302.8994,290.0237 M,17,56616,56741,302.8994,290.0237,332,140 M,0,56742,56803,332,140,327.136,177.9395 M,0,56804,56866,327.136,177.9395,342.1006,212.9762 M,17,56866,56991,342.1006,212.9762,428,405 M,0,56992,57053,428,405,416.7512,368.4415 M,0,57054,57116,416.7512,368.4415,421.653,333.1262 M,0,57117,57178,421.653,333.1262,422.5456,297.5609 M,0,57179,57241,422.5456,297.5609,411.0273,261.0864 M,17,57241,57366,411.0273,261.0864,237,157 M,0,57367,57428,237,157,203.6495,139.3867 M,0,57429,57491,203.6495,139.3867,165.9511,139.8642 M,17,57491,57616,165.9511,139.8642,129,282 M,0,57617,57678,129,282,162.6728,299.0387 M,0,57679,57741,162.6728,299.0387,200.3911,297.7344 M,17,57741,57866,200.3911,297.7344,332,140 M,0,57867,57928,332,140,341.4796,102.9433 M,0,57929,57991,341.4796,102.9433,350.9592,65.8866 M,0,57992,58053,350.9592,65.8866,341.4796,102.9433 M,0,58054,58116,341.4796,102.9433,332,140 M,17,58116,58241,332,140,284,333 M,17,58241,58366,284,333,357,263 M,0,58367,58428,357,263,388.1806,241.7231 M,0,58429,58491,388.1806,241.7231,425.6632,237.3606 M,17,58491,58616,425.6632,237.3606,553,286 M,17,58616,58741,553,286,405,399 M,0,58742,58803,405,399,401.1775,361.489 M,0,58804,58866,401.1775,361.489,415.9185,326.7977 M,17,58866,58991,415.9185,326.7977,553,266 M,17,58991,59116,553,266,545,421 M,0,59117,59178,545,421,510.8128,404.9926 M,0,59179,59241,510.8128,404.9926,487.9606,374.9573 M,17,59241,59366,487.9606,374.9573,509,177 M,0,59367,59428,509,177,469.8876,154.7464 M,0,59429,59491,469.8876,154.7464,427.8914,146.7294 M,0,59492,59553,427.8914,146.7294,383.2021,152.0076 M,0,59554,59616,383.2021,152.0076,338.5127,157.2859 M,17,59616,59866,338.5127,157.2859,131,324 M,17,59866,59991,131,324 M,0,59992,60053,131,324,153.3819,285.877 M,0,60054,60116,153.3819,285.877,193.3001,267.1472 M,17,60116,60241,193.3001,267.1472,407,319 M,0,60242,60303,407,319,362.71,326.9622 M,0,60304,60366,362.71,326.9622,318.42,334.9245 M,17,60366,60491,318.42,334.9245,177,179 M,0,60492,60553,177,179,221.1436,178.7606 M,0,60554,60616,221.1436,178.7606,257.0159,204.2796 M,17,60616,60741,257.0159,204.2796,256,392 M,0,60742,60803,256,392,294.9016,370.4464 M,0,60804,60866,294.9016,370.4464,318.8896,332.7717 M,0,60867,60928,318.8896,332.7717,344.7624,296.4767 M,0,60929,60991,344.7624,296.4767,383,276 M,17,60991,61116,383,276,527,147 M,17,61116,61241,527,147,460,86 M,17,61241,61366,460,86,372,105 M,0,61367,61428,372,105,364.6763,149.4 M,0,61429,61491,364.6763,149.4,357.3526,193.8001 M,17,61491,61616,357.3526,193.8001,476,319 M,0,61617,61678,476,319,468.6763,274.6 M,0,61679,61741,468.6763,274.6,461.3526,230.1999 M,17,61741,61866,461.3526,230.1999,286,136 M,17,61866,61991,286,136 M,0,61992,62053,286,136,244.5146,152.2622 M,0,62054,62116,244.5146,152.2622,214.1723,184.8089 M,17,62116,62241,214.1723,184.8089,210,349 M,0,62242,62303,210,349,246.7211,375.0108 M,0,62304,62366,246.7211,375.0108,283.747,399.7326 M,0,62367,62428,283.747,399.7326,328.2289,392.9241 M,0,62429,62491,328.2289,392.9241,372.7109,386.1157 M,0,62492,62553,372.7109,386.1157,328.2289,392.9241 M,0,62554,62616,328.2289,392.9241,283.747,399.7326 M,0,62617,62678,283.747,399.7326,246.7211,375.0108 M,0,62679,62741,246.7211,375.0108,210,349 M,17,62741,62991,210,349,118,143 M,17,62991,63116,118,143,205,101 M,0,63117,63178,205,101,248.8071,109.1902 M,0,63179,63241,248.8071,109.1902,285,135 M,17,63241,63366,285,135,339,259 M,0,63367,63428,339,259,348.8113,302.9174 M,0,63429,63491,348.8113,302.9174,358.6227,346.8348 M,17,63491,63616,358.6227,346.8348,309,419 M,0,63617,63678,309,419,265.0607,428.7129 M,0,63679,63741,265.0607,428.7129,221.1215,438.4258 M,17,63741,63866,221.1215,438.4258,142,387 M,0,63867,63928,142,387,131.8476,343.1602 M,0,63929,63991,131.8476,343.1602,121.6952,299.3204 M,17,63991,64116,121.6952,299.3204,171,227 M,0,64117,64178,171,227,214.816,216.7452 M,0,64179,64241,214.816,216.7452,258.6319,206.4904 M,17,64241,64366,258.6319,206.4904,406,238 M,0,64367,64428,406,238,439.2863,238.619 M,0,64429,64491,439.2863,238.619,469.4059,224.4487 M,17,64491,64616,469.4059,224.4487,513,159 M,0,64617,64678,513,159,513.619,125.7137 M,0,64679,64741,513.619,125.7137,499.4487,95.59415 M,17,64741,64866,499.4487,95.59415,430,62 M,0,64867,64928,430,62,396.7137,61.38095 M,0,64929,64991,396.7137,61.38095,366.5941,75.55133 M,17,64991,65116,366.5941,75.55133,324,139 M,0,65117,65178,324,139,323.381,172.2863 M,0,65179,65241,323.381,172.2863,337.5513,202.4059 M,17,65241,65366,337.5513,202.4059,541,264 M,0,65367,65428,541,264,574.1807,270.1732 M,0,65429,65491,574.1807,270.1732,541,264 M,0,65492,65553,541,264,574.1807,270.1732 M,0,65554,65616,574.1807,270.1732,541,264 M,17,65616,65866,541,264,339,390 M,17,65866,65991,339,390,423,359 M,0,65992,66053,423,359,448.9169,322.7908 M,0,66054,66116,448.9169,322.7908,455.4666,278.7559 M,17,66116,66241,455.4666,278.7559,399,143 M,17,66241,66366,399,143,564,170 M,0,66367,66428,564,170,520.8842,182.8852 M,0,66429,66491,520.8842,182.8852,477.7684,195.7704 M,17,66491,66616,477.7684,195.7704,351,241 M,17,66616,66741,351,241,310,435 M,0,66742,66803,310,435,319.973,391.119 M,0,66804,66866,319.973,391.119,329.9459,347.238 M,17,66866,66991,329.9459,347.238,355,215 M,17,66991,67116,355,215,210,84 M,0,67117,67178,210,84,242.8134,114.7941 M,0,67179,67241,242.8134,114.7941,275,145 F,0,67215,67365,1,0
Sprite,Background,Centre,"sb\rs\bones.png",0,0 F,0,99215,99365,0,1 M,17,99241,99366,310,240,223,240 S,0,99365,,0.78 M,0,99367,99428,223,240,253.7331,240 M,0,99429,99491,253.7331,240,278.0213,240 M,0,99492,99553,278.0213,240,292.9804,240 M,0,99554,99616,292.9804,240,297.0827,240 M,0,99617,99678,297.0827,240,292.9804,240 M,0,99679,99741,292.9804,240,278.0213,240 M,0,99742,99803,278.0213,240,253.7331,240 M,0,99804,99866,253.7331,240,223,240 M,17,99866,99991,223,240,142,240 M,0,99992,100053,142,240,175.6934,240 M,0,100054,100116,175.6934,240,209.3869,240 M,0,100117,100178,209.3869,240,238.1691,240 M,0,100179,100241,238.1691,240,266.7043,240 M,17,100241,100366,266.7043,240,275,240 M,0,100367,100428,275,240,307.4019,240 M,0,100429,100491,307.4019,240,332.8778,240 M,17,100491,100616,332.8778,240,417,240 M,0,100617,100678,417,240,426.3919,240 M,0,100679,100741,426.3919,240,420.6953,240 M,17,100741,100866,420.6953,240,464,240 M,0,100867,100928,464,240,430.4084,240 M,0,100929,100991,430.4084,240,396.8168,240 M,0,100992,101053,396.8168,240,370.0495,240 M,0,101054,101116,370.0495,240,344.4246,240 M,17,101116,101241,344.4246,240,286,240 M,17,101241,101366,286,240,169,240 M,0,101367,101428,169,240,183.1975,240 M,0,101429,101491,183.1975,240,205.7116,240 M,0,101492,101553,205.7116,240,234.5453,240 M,0,101554,101616,234.5453,240,267.1343,240 M,17,101616,101866,267.1343,240,508,240 M,17,101866,101991,508,240 M,0,101992,102053,508,240,474.9503,240 M,0,102054,102116,474.9503,240,441.383,240 M,0,102117,102178,441.383,240,409.4027,240 M,0,102179,102241,409.4027,240,381.0139,240 M,17,102241,102366,381.0139,240,325,240 M,0,102367,102428,325,240,291.7944,240 M,0,102429,102491,291.7944,240,259,240 M,17,102491,102616,259,240,195,240 M,0,102617,102678,195,240,161.7944,240 M,0,102679,102741,161.7944,240,129,240 M,0,102742,102803,129,240,161.7944,240 M,0,102804,102866,161.7944,240,195,240 M,17,102866,102991,195,240,263,240 M,17,102991,103116,263,240,230,240 M,0,103117,103178,230,240,238.6555,240 M,0,103179,103241,238.6555,240,258.4059,240 M,17,103241,103366,258.4059,240,353,240 M,0,103367,103428,353,240,384.2493,240 M,0,103429,103491,384.2493,240,417.6621,240 M,0,103492,103553,417.6621,240,450.8852,240 M,0,103554,103616,450.8852,240,481.5803,240 M,0,103617,103678,481.5803,240,507.5882,240 M,0,103679,103741,507.5882,240,527.08,240 M,17,103741,103866,527.08,240,489,240 M,0,103867,103928,489,240,457.7507,240 M,0,103929,103991,457.7507,240,424.3379,240 M,0,103992,104053,424.3379,240,391.1148,240 M,0,104054,104116,391.1148,240,360.4197,240 M,0,104117,104178,360.4197,240,334.4118,240 M,0,104179,104241,334.4118,240,314.92,240 M,17,104241,104366,314.92,240,258,240 M,0,104367,104428,258,240,225.6856,240 M,0,104429,104491,225.6856,240,193.3712,240 M,17,104491,104616,193.3712,240,93,240 M,0,104617,104678,93,240,125.3144,240 M,0,104679,104741,125.3144,240,157.6288,240 M,17,104741,104866,157.6288,240,209,240 M,0,104867,104928,209,240,241.3135,240 M,0,104929,104991,241.3135,240,273.6271,240 M,0,104992,105053,273.6271,240,305.9406,240 M,0,105054,105116,305.9406,240,338.2541,240 M,17,105116,105241,338.2541,240,428,240 M,17,105241,105366,428,240,398,240 M,0,105367,105428,398,240,422.8116,240 M,0,105429,105491,422.8116,240,452.4249,240 M,0,105492,105553,452.4249,240,485.036,240 M,0,105554,105616,485.036,240,518.66,240 M,0,105617,105678,518.66,240,485.036,240 M,0,105679,105741,485.036,240,452.4249,240 M,0,105742,105803,452.4249,240,422.8116,240 M,0,105804,105866,422.8116,240,398,240 M,17,105866,105991,398,240,338,240 M,0,105992,106053,338,240,343.0971,240 M,0,106054,106116,343.0971,240,348.1942,240 M,0,106117,106178,348.1942,240,343.0971,240 M,0,106179,106241,343.0971,240,338,240 M,17,106241,106366,338,240,276,240 M,17,106366,106491,276,240 M,0,106492,106553,276,240,270.4515,240 M,0,106554,106616,270.4515,240,256.1745,240 M,0,106617,106678,256.1745,240,241.0592,240 M,0,106679,106741,241.0592,240,235.9273,240 M,17,106741,106866,235.9273,240,310,240 M,0,106867,106928,310,240,343.6711,240 M,0,106929,106991,343.6711,240,377.3422,240 M,17,106991,107116,377.3422,240,151,240 M,0,107117,107178,151,240,117.3494,240 M,0,107179,107241,117.3494,240,83.69882,240 S,0,107215,107365,0.78,1.08 R,0,107215,107365,0,1.570796 M,17,107241,107366,320,184.177,320,261 M,0,107367,107428,320,261,320,247.5289 M,0,107429,107491,320,247.5289,320,224.4216 M,0,107492,107553,320,224.4216,320,194.4477 M,0,107554,107616,320,194.4477,320,161.1694 M,0,107617,107678,320,161.1694,320,194.4477 M,0,107679,107741,320,194.4477,320,224.4216 M,0,107742,107803,320,224.4216,320,247.5289 M,0,107804,107866,320,247.5289,320,261 M,17,107866,107991,320,261,320,259 M,0,107992,108053,320,259,320,292.3036 M,0,108054,108116,320,292.3036,320,325.6071 M,0,108117,108178,320,325.6071,320,358.9107 M,0,108179,108241,320,358.9107,320,392.2142 M,17,108241,108366,320,392.2142,320,429 M,0,108367,108428,320,429,320,417.3942 M,0,108429,108491,320,417.3942,320,393.0921 M,17,108491,108616,320,393.0921,320,253 M,0,108617,108678,320,253,320,285.6378 M,0,108679,108741,320,285.6378,320,317.5048 M,17,108741,108866,320,317.5048,320,416 M,0,108867,108928,320,416,320,391.3507 M,0,108929,108991,320,391.3507,320,372.8328 M,0,108992,109053,320,372.8328,320,361.718 M,0,109054,109116,320,361.718,320,358.6787 M,17,109116,109241,320,358.6787,320,394 M,17,109241,109366,320,394,320,277 M,0,109367,109428,320,277,320,247.3239 M,0,109429,109491,320,247.3239,320,216.6418 M,0,109492,109553,320,216.6418,320,184.3359 M,0,109554,109616,320,184.3359,320,152.03 M,17,109616,109866,320,152.03,320,102 M,17,109866,109991,320,102 M,0,109992,110053,320,102,320,135.2778 M,0,110054,110116,320,135.2778,320,164.5665 M,0,110117,110178,320,164.5665,320,184.8319 M,0,110179,110241,320,184.8319,320,192.9797 M,17,110241,110366,320,192.9797,320,146 M,0,110367,110428,320,146,320,112.9992 M,0,110429,110491,320,112.9992,320,79.99834 M,17,110491,110616,320,79.99834,320,275 M,0,110617,110678,320,275,320,308.0008 M,0,110679,110741,320,308.0008,320,341.0016 M,0,110742,110803,320,341.0016,320,308.0009 M,0,110804,110866,320,308.0009,320,275 M,17,110866,110991,320,275,320,192 M,17,110991,111116,320,192,320,199 M,0,111117,111178,320,199,320,207.2058 M,0,111179,111241,320,207.2058,320,227.9404 M,17,111241,111366,320,227.9404,320,330 M,0,111367,111428,320,330,320,352.2962 M,0,111429,111491,320,352.2962,320,374.5924 M,0,111492,111553,320,374.5924,320,395.7946 M,0,111554,111616,320,395.7946,320,390.6399 M,0,111617,111678,320,390.6399,320,385.4851 M,0,111679,111741,320,385.4851,320,380.3304 M,17,111741,111866,320,380.3304,320,275 M,0,111867,111928,320,275,320,252.7038 M,0,111929,111991,320,252.7038,320,230.4076 M,0,111992,112053,320,230.4076,320,209.2054 M,0,112054,112116,320,209.2054,320,214.3601 M,0,112117,112178,320,214.3601,320,219.5149 M,0,112179,112241,320,219.5149,320,224.6696 M,17,112241,112366,320,224.6696,320,163 M,0,112367,112428,320,163,320,139.3446 M,0,112429,112491,320,139.3446,320,126.858 M,17,112491,112616,320,126.858,320,59 M,0,112617,112678,320,59,320,67.34843 M,0,112679,112741,320,67.34843,320,87.99528 M,17,112741,112866,320,87.99528,320,151 M,0,112867,112928,320,151,320,145.7829 M,0,112929,112991,320,145.7829,320,140.5657 M,0,112992,113053,320,140.5657,320,135.3486 M,0,113054,113116,320,135.3486,320,130.1314 M,17,113116,113241,320,130.1314,320,182 M,17,113241,113366,320,182,320,248 M,0,113367,113428,320,248,320,280.1817 M,0,113429,113491,320,280.1817,320,309.2187 M,0,113492,113553,320,309.2187,320,333.5545 M,0,113554,113616,320,333.5545,320,351.9144 M,0,113617,113678,320,351.9144,320,333.5546 M,0,113679,113741,320,333.5546,320,309.2187 M,0,113742,113803,320,309.2187,320,280.1817 M,0,113804,113866,320,280.1817,320,248 M,17,113866,113991,320,248,320,130 M,0,113992,114053,320,130,320,96.92397 M,0,114054,114116,320,96.92397,320,63.84794 M,0,114117,114178,320,63.84794,320,96.92397 M,0,114179,114241,320,96.92397,320,130 M,17,114241,114366,320,130,320,229 M,17,114366,114491,320,229 M,0,114492,114553,320,229,320,234.0774 M,0,114554,114616,320,234.0774,320,249.1642 M,0,114617,114678,320,249.1642,320,263.4489 M,0,114679,114741,320,263.4489,320,268.9973 M,17,114741,114866,320,268.9973,320,200 M,0,114867,114928,320,200,320,166.722 M,0,114929,114991,320,166.722,320,133.4439 M,17,114991,115116,320,133.4439,320,331 M,0,115117,115178,320,331,320,364.278 M,0,115179,115241,320,364.278,320,397.5561 F,0,115215,115365,1,0
Sprite,Background,Centre,"sb\rs\heart.png",0,0 F,0,99215,99365,0,1 M,17,99241,99366,310,229,223,246 S,0,99365,,2 M,0,99367,99428,223,246,253.7331,232.5289 M,0,99429,99491,253.7331,232.5289,278.0213,209.4216 M,0,99492,99553,278.0213,209.4216,292.9804,179.4477 M,0,99554,99616,292.9804,179.4477,297.0827,146.1694 M,0,99617,99678,297.0827,146.1694,292.9804,179.4477 M,0,99679,99741,292.9804,179.4477,278.0213,209.4216 M,0,99742,99803,278.0213,209.4216,253.7331,232.5289 M,0,99804,99866,253.7331,232.5289,223,246 M,17,99866,99991,223,246,142,281 M,0,99992,100053,142,281,175.6934,282.9532 M,0,100054,100116,175.6934,282.9532,209.3869,284.9065 M,0,100117,100178,209.3869,284.9065,238.1691,302.1594 M,0,100179,100241,238.1691,302.1594,266.7043,320.1817 M,17,100241,100366,266.7043,320.1817,275,406 M,0,100367,100428,275,406,307.4019,398.2446 M,0,100429,100491,307.4019,398.2446,332.8778,376.964 M,17,100491,100616,332.8778,376.964,417,374 M,0,100617,100678,417,374,426.3919,342.0314 M,0,100679,100741,426.3919,342.0314,420.6953,309.3261 M,17,100741,100866,420.6953,309.3261,464,235 M,0,100867,100928,464,235,430.4084,231.7341 M,0,100929,100991,430.4084,231.7341,396.8168,228.4683 M,0,100992,101053,396.8168,228.4683,370.0495,209.1853 M,0,101054,101116,370.0495,209.1853,344.4246,187.2211 M,17,101116,101241,344.4246,187.2211,286,129 M,17,101241,101366,286,129,169,161 M,0,101367,101428,169,161,183.1975,191.4622 M,0,101429,101491,183.1975,191.4622,205.7116,216.3856 M,0,101492,101553,205.7116,216.3856,234.5453,233.5758 M,0,101554,101616,234.5453,233.5758,267.1343,241.7092 M,17,101616,101866,267.1343,241.7092,508,311 M,17,101866,101991,508,311 M,0,101992,102053,508,311,474.9503,304.6783 M,0,102054,102116,474.9503,304.6783,441.383,306.7722 M,0,102117,102178,441.383,306.7722,409.4027,317.1434 M,0,102179,102241,409.4027,317.1434,381.0139,335.1362 M,17,102241,102366,381.0139,335.1362,325,402 M,0,102367,102428,325,402,291.7944,395.9626 M,0,102429,102491,291.7944,395.9626,259,390 M,17,102491,102616,259,390,195,328 M,0,102617,102678,195,328,161.7944,334.0374 M,0,102679,102741,161.7944,334.0374,129,340 M,0,102742,102803,129,340,161.7944,334.0374 M,0,102804,102866,161.7944,334.0374,195,328 M,17,102866,102991,195,328,263,273 M,17,102991,103116,263,273,230,191 M,0,103117,103178,230,191,238.6555,158.676 M,0,103179,103241,238.6555,158.676,258.4059,131.7634 M,17,103241,103366,258.4059,131.7634,353,64 M,0,103367,103428,353,64,384.2493,51.5426 M,0,103429,103491,384.2493,51.5426,417.6621,47.74643 M,0,103492,103553,417.6621,47.74643,450.8852,52.87245 M,0,103554,103616,450.8852,52.87245,481.5803,66.55436 M,0,103617,103678,481.5803,66.55436,507.5882,87.82458 M,0,103679,103741,507.5882,87.82458,527.08,115.1825 M,17,103741,103866,527.08,115.1825,489,253 M,0,103867,103928,489,253,457.7507,265.4574 M,0,103929,103991,457.7507,265.4574,424.3379,269.2536 M,0,103992,104053,424.3379,269.2536,391.1148,264.1276 M,0,104054,104116,391.1148,264.1276,360.4197,250.4456 M,0,104117,104178,360.4197,250.4456,334.4118,229.1754 M,0,104179,104241,334.4118,229.1754,314.92,201.8175 M,17,104241,104366,314.92,201.8175,258,131 M,0,104367,104428,258,131,225.6856,140.7386 M,0,104429,104491,225.6856,140.7386,193.3712,150.4772 M,17,104491,104616,193.3712,150.4772,93,206 M,0,104617,104678,93,206,125.3144,215.7386 M,0,104679,104741,125.3144,215.7386,157.6288,225.4772 M,17,104741,104866,157.6288,225.4772,209,308 M,0,104867,104928,209,308,241.3135,317.7416 M,0,104929,104991,241.3135,317.7416,273.6271,327.4832 M,0,104992,105053,273.6271,327.4832,305.9406,337.2247 M,0,105054,105116,305.9406,337.2247,338.2541,346.9663 M,17,105116,105241,338.2541,346.9663,428,372 M,17,105241,105366,428,372,398,254 M,0,105367,105428,398,254,422.8116,231.2611 M,0,105429,105491,422.8116,231.2611,452.4249,215.295 M,0,105492,105553,452.4249,215.295,485.036,207.0682 M,0,105554,105616,485.036,207.0682,518.66,207.0767 M,0,105617,105678,518.66,207.0767,485.036,207.0682 M,0,105679,105741,485.036,207.0682,452.4249,215.295 M,0,105742,105803,452.4249,215.295,422.8116,231.2611 M,0,105804,105866,422.8116,231.2611,398,254 M,17,105866,105991,398,254,338,346 M,0,105992,106053,338,346,343.0971,379.3629 M,0,106054,106116,343.0971,379.3629,348.1942,412.7258 M,0,106117,106178,348.1942,412.7258,343.0971,379.3629 M,0,106179,106241,343.0971,379.3629,338,346 M,17,106241,106366,338,346,276,261 M,17,106366,106491,276,261 M,0,106492,106553,276,261,270.4515,227.7092 M,0,106554,106616,270.4515,227.7092,256.1745,198.3363 M,0,106617,106678,256.1745,198.3363,241.0592,169.3851 M,0,106679,106741,241.0592,169.3851,235.9273,136.0276 M,17,106741,106866,235.9273,136.0276,310,76 M,0,106867,106928,310,76,343.6711,73.69376 M,0,106929,106991,343.6711,73.69376,377.3422,71.38752 M,17,106991,107116,377.3422,71.38752,151,179 M,0,107117,107178,151,179,117.3494,181.5885 M,0,107179,107241,117.3494,181.5885,83.69882,184.177 M,17,107241,107366,83.69882,184.177,276,261 M,0,107367,107428,276,261,306.7331,247.5289 M,0,107429,107491,306.7331,247.5289,331.0213,224.4216 M,0,107492,107553,331.0213,224.4216,345.9804,194.4477 M,0,107554,107616,345.9804,194.4477,350.0827,161.1694 M,0,107617,107678,350.0827,161.1694,345.9804,194.4477 M,0,107679,107741,345.9804,194.4477,331.0213,224.4216 M,0,107742,107803,331.0213,224.4216,306.7331,247.5289 M,0,107804,107866,306.7331,247.5289,276,261 M,17,107866,107991,276,261,183,259 M,0,107992,108053,183,259,188.4713,292.3036 M,0,108054,108116,188.4713,292.3036,193.9426,325.6071 M,0,108117,108178,193.9426,325.6071,199.4139,358.9107 M,0,108179,108241,199.4139,358.9107,204.8852,392.2142 M,17,108241,108366,204.8852,392.2142,316,429 M,0,108367,108428,316,429,347.3686,417.3942 M,0,108429,108491,347.3686,417.3942,370.3452,393.0921 M,17,108491,108616,370.3452,393.0921,370,253 M,0,108617,108678,370,253,363.4639,285.6378 M,0,108679,108741,363.4639,285.6378,372.6146,317.5048 M,17,108741,108866,372.6146,317.5048,561,416 M,0,108867,108928,561,416,538.1176,391.3507 M,0,108929,108991,538.1176,391.3507,510.0809,372.8328 M,0,108992,109053,510.0809,372.8328,478.3724,361.718 M,0,109054,109116,478.3724,361.718,444.9099,358.6787 M,17,109116,109241,444.9099,358.6787,370,394 M,17,109241,109366,370,394,454,277 M,0,109367,109428,454,277,470.0746,247.3239 M,0,109429,109491,470.0746,247.3239,476.2638,216.6418 M,0,109492,109553,476.2638,216.6418,466.4969,184.3359 M,0,109554,109616,466.4969,184.3359,456.73,152.03 M,17,109616,109866,456.73,152.03,225,102 M,17,109866,109991,225,102 M,0,109992,110053,225,102,227.9947,135.2778 M,0,110054,110116,227.9947,135.2778,243.8749,164.5665 M,0,110117,110178,243.8749,164.5665,270.3196,184.8319 M,0,110179,110241,270.3196,184.8319,302.7216,192.9797 M,17,110241,110366,302.7216,192.9797,373,146 M,0,110367,110428,373,146,380.0716,112.9992 M,0,110429,110491,380.0716,112.9992,387.1432,79.99834 M,17,110491,110616,387.1432,79.99834,341,275 M,0,110617,110678,341,275,333.9284,308.0008 M,0,110679,110741,333.9284,308.0008,326.8568,341.0016 M,0,110742,110803,326.8568,341.0016,333.9284,308.0009 M,0,110804,110866,333.9284,308.0009,341,275 M,17,110866,110991,341,275,302,192 M,17,110991,111116,302,192,212,199 M,0,111117,111178,212,199,179.6433,207.2058 M,0,111179,111241,179.6433,207.2058,153.6165,227.9404 M,17,111241,111366,153.6165,227.9404,123,330 M,0,111367,111428,123,330,148.3366,352.2962 M,0,111429,111491,148.3366,352.2962,173.6732,374.5924 M,0,111492,111553,173.6732,374.5924,199.3293,395.7946 M,0,111554,111616,199.3293,395.7946,232.6833,390.6399 M,0,111617,111678,232.6833,390.6399,266.0373,385.4851 M,0,111679,111741,266.0373,385.4851,299.3914,380.3304 M,17,111741,111866,299.3914,380.3304,341,275 M,0,111867,111928,341,275,315.6634,252.7038 M,0,111929,111991,315.6634,252.7038,290.3268,230.4076 M,0,111992,112053,290.3268,230.4076,264.6707,209.2054 M,0,112054,112116,264.6707,209.2054,231.3167,214.3601 M,0,112117,112178,231.3167,214.3601,197.9627,219.5149 M,0,112179,112241,197.9627,219.5149,164.6086,224.6696 M,17,112241,112366,164.6086,224.6696,82,163 M,0,112367,112428,82,163,105.7014,139.3446 M,0,112429,112491,105.7014,139.3446,136.7662,126.858 M,17,112491,112616,136.7662,126.858,199,59 M,0,112617,112678,199,59,231.4129,67.34843 M,0,112679,112741,231.4129,67.34843,257.749,87.99528 M,17,112741,112866,257.749,87.99528,326,151 M,0,112867,112928,326,151,359.3443,145.7829 M,0,112929,112991,359.3443,145.7829,392.6887,140.5657 M,0,112992,113053,392.6887,140.5657,426.033,135.3486 M,0,113054,113116,426.033,135.3486,459.3773,130.1314 M,17,113116,113241,459.3773,130.1314,535,182 M,17,113241,113366,535,182,458,248 M,0,113367,113428,458,248,467.9062,280.1817 M,0,113429,113491,467.9062,280.1817,484.9478,309.2187 M,0,113492,113553,484.9478,309.2187,508.2093,333.5545 M,0,113554,113616,508.2093,333.5545,536.4294,351.9144 M,0,113617,113678,536.4294,351.9144,508.2093,333.5546 M,0,113679,113741,508.2093,333.5546,484.9478,309.2187 M,0,113742,113803,484.9478,309.2187,467.9063,280.1817 M,0,113804,113866,467.9063,280.1817,458,248 M,17,113866,113991,458,248,459,130 M,0,113992,114053,459,130,465.7111,96.92397 M,0,114054,114116,465.7111,96.92397,472.4221,63.84794 M,0,114117,114178,472.4221,63.84794,465.7111,96.92397 M,0,114179,114241,465.7111,96.92397,459,130 M,17,114241,114366,459,130,376,229 M,17,114366,114491,376,229 M,0,114492,114553,376,229,342.6341,234.0774 M,0,114554,114616,342.6341,234.0774,313.6763,249.1642 M,0,114617,114678,313.6763,249.1642,284.3069,263.4489 M,0,114679,114741,284.3069,263.4489,251.0161,268.9973 M,17,114741,114866,251.0161,268.9973,181,200 M,0,114867,114928,181,200,175.3755,166.722 M,0,114929,114991,175.3755,166.722,169.7511,133.4439 M,17,114991,115116,169.7511,133.4439,147,331 M,0,115117,115178,147,331,152.6245,364.278 M,0,115179,115241,152.6245,364.278,158.2489,397.5561 F,0,115215,115365,1,0
Sprite,Background,Centre,"sb\ring.png",370,103 S,4,35366,35866,0.25,1 F,1,35566,35966,0.4,0
Sprite,Background,Centre,"sb\ring.png",65,238 S,4,37366,37866,0.25,1 F,1,37566,37966,0.4,0
Sprite,Background,Centre,"sb\ring.png",304,202 S,4,39366,39866,0.25,1 F,1,39566,39966,0.4,0
Sprite,Background,Centre,"sb\ring.png",161,290 S,4,41366,41866,0.25,1 F,1,41566,41966,0.4,0
Sprite,Background,Centre,"sb\ring.png",332,195 S,4,43366,43866,0.25,1 F,1,43566,43966,0.4,0
Sprite,Background,Centre,"sb\ring.png",134,359 S,4,45366,45866,0.25,1 F,1,45566,45966,0.4,0
Sprite,Background,Centre,"sb\ring.png",286,414 S,4,47366,47866,0.25,1 F,1,47566,47966,0.4,0
Sprite,Background,Centre,"sb\ring.png",139,117 S,4,49366,49866,0.25,1 F,1,49566,49966,0.4,0
Sprite,Background,Centre,"sb\ring.png",377,232 S,4,67366,67866,0.25,1 F,1,67566,67966,0.4,0
Sprite,Background,Centre,"sb\ring.png",322,316 S,4,69366,69866,0.25,1 F,1,69566,69966,0.4,0
Sprite,Background,Centre,"sb\ring.png",452,162 S,4,71366,71866,0.25,1 F,1,71566,71966,0.4,0
Sprite,Background,Centre,"sb\ring.png",512,76 S,4,73366,73866,0.25,1 F,1,73566,73966,0.4,0
Sprite,Background,Centre,"sb\ring.png",542,142 S,4,75366,75866,0.25,1 F,1,75566,75966,0.4,0
Sprite,Background,Centre,"sb\ring.png",210,407 S,4,77366,77866,0.25,1 F,1,77566,77966,0.4,0
Sprite,Background,Centre,"sb\ring.png",116,302 S,4,79366,79866,0.25,1 F,1,79566,79966,0.4,0
Sprite,Background,Centre,"sb\ring.png",380,272 S,4,81366,81866,0.25,1 F,1,81566,81966,0.4,0
Sprite,Background,Centre,"sb\ring.png",223,254 S,4,83366,83866,0.25,1 F,1,83566,83966,0.4,0
Sprite,Background,Centre,"sb\ring.png",115,107 S,4,85366,85866,0.25,1 F,1,85566,85966,0.4,0
Sprite,Background,Centre,"sb\ring.png",457,147 S,4,87366,87866,0.25,1 F,1,87566,87966,0.4,0
Sprite,Background,Centre,"sb\ring.png",122,404 S,4,89366,89866,0.25,1 F,1,89566,89966,0.4,0
Sprite,Background,Centre,"sb\ring.png",476,91 S,4,91366,91866,0.25,1 F,1,91566,91966,0.4,0
Sprite,Background,Centre,"sb\ring.png",139,182 S,4,93366,93866,0.25,1 F,1,93566,93966,0.4,0
Sprite,Background,Centre,"sb\ring.png",178,146 S,4,95366,95866,0.25,1 F,1,95566,95966,0.4,0
Sprite,Background,Centre,"sb\ring.png",447,230 S,4,97366,97866,0.25,1 F,1,97566,97966,0.4,0
Sprite,Background,Centre,"sb\ring.png",386,130 S,4,131366,131866,0.25,1 F,1,131566,131966,0.4,0
Sprite,Background,Centre,"sb\ring.png",379,277 S,4,133366,133866,0.25,1 F,1,133566,133966,0.4,0
Sprite,Background,Centre,"sb\ring.png",260,84 S,4,135366,135866,0.25,1 F,1,135566,135966,0.4,0
Sprite,Background,Centre,"sb\ring.png",218,166 S,4,137366,137866,0.25,1 F,1,137566,137966,0.4,0
Sprite,Background,Centre,"sb\ring.png",91,186 S,4,139366,139866,0.25,1 F,1,139566,139966,0.4,0
Sprite,Background,Centre,"sb\ring.png",152,266 S,4,141366,141866,0.25,1 F,1,141566,141966,0.4,0
Sprite,Background,Centre,"sb\ring.png",127,63 S,4,143366,143866,0.25,1 F,1,143566,143966,0.4,0
Sprite,Background,Centre,"sb\ring.png",175,93 S,4,147366,147866,0.25,1 F,1,147566,147966,0.4,0
Sprite,Background,Centre,"sb\ring.png",467,206 S,4,149366,149866,0.25,1 F,1,149566,149966,0.4,0
Sprite,Background,Centre,"sb\ring.png",524,242 S,4,151366,151866,0.25,1 F,1,151566,151966,0.4,0
Sprite,Background,Centre,"sb\ring.png",464,171 S,4,153366,153866,0.25,1 F,1,153566,153966,0.4,0
Sprite,Background,Centre,"sb\ring.png",385,324 S,4,155366,155866,0.25,1 F,1,155566,155966,0.4,0
Sprite,Background,Centre,"sb\ring.png",323,342 S,4,157366,157866,0.25,1 F,1,157566,157966,0.4,0
Sprite,Background,Centre,"sb\ring.png",357,216 S,4,159366,159866,0.25,1 F,1,159566,159966,0.4,0
Sprite,Background,Centre,"sb\ring.png",386,409 S,4,161366,161866,0.25,1 F,1,161566,161966,0.4,0
Sprite,Background,Centre,"sb\ring.png",533,191 S,4,42366,42866,0.25,1 F,1,42566,42966,0.4,0
Sprite,Background,Centre,"sb\ring.png",364,428 S,4,42741,43241,0.25,1 F,1,42941,43341,0.4,0
Sprite,Background,Centre,"sb\ring.png",92,306 S,4,43116,43616,0.25,1 F,1,43316,43716,0.4,0
Sprite,Background,Centre,"sb\ring.png",457,367 S,4,50366,50866,0.25,1 F,1,50566,50966,0.4,0
Sprite,Background,Centre,"sb\ring.png",564,236 S,4,50741,51241,0.25,1 F,1,50941,51341,0.4,0
Sprite,Background,Centre,"sb\ring.png",486,79 S,4,51116,51616,0.25,1 F,1,51316,51716,0.4,0
Sprite,Background,Centre,"sb\ring.png",222,176 S,4,74366,74866,0.25,1 F,1,74566,74966,0.4,0
Sprite,Background,Centre,"sb\ring.png",291,271 S,4,74741,75241,0.25,1 F,1,74941,75341,0.4,0
Sprite,Background,Centre,"sb\ring.png",364,368 S,4,75116,75616,0.25,1 F,1,75316,75716,0.4,0
Sprite,Background,Centre,"sb\ring.png",292,296 S,4,90366,90866,0.25,1 F,1,90566,90966,0.4,0
Sprite,Background,Centre,"sb\ring.png",313,121 S,4,90741,91241,0.25,1 F,1,90941,91341,0.4,0
Sprite,Background,Centre,"sb\ring.png",302,318 S,4,91116,91616,0.25,1 F,1,91316,91716,0.4,0
Sprite,Background,Centre,"sb\ring.png",459,228 S,4,138366,138866,0.25,1 F,1,138566,138966,0.4,0
Sprite,Background,Centre,"sb\ring.png",193,185 S,4,138741,139241,0.25,1 F,1,138941,139341,0.4,0
Sprite,Background,Centre,"sb\ring.png",250,107 S,4,139116,139616,0.25,1 F,1,139316,139716,0.4,0
Sprite,Background,Centre,"sb\ring.png",490,202 S,4,154366,154866,0.25,1 F,1,154566,154966,0.4,0
Sprite,Background,Centre,"sb\ring.png",313,129 S,4,154741,155241,0.25,1 F,1,154941,155341,0.4,0
Sprite,Background,Centre,"sb\ring.png",159,231 S,4,155116,155616,0.25,1 F,1,155316,155716,0.4,0
Sprite,Background,Centre,"sb\ring.png",420,82 S,4,146366,146866,0.25,1 F,1,146566,146966,0.4,0
Sprite,Background,Centre,"sb\ring.png",480,400 S,4,146741,147241,0.25,1 F,1,146941,147341,0.4,0
Sprite,Background,Centre,"sb\ring.png",232,238 S,4,147116,147616,0.25,1 F,1,147316,147716,0.4,0
Sprite,Background,Centre,"sb\ring.png",519,372 S,4,171366,171866,0.25,1 F,1,171566,171966,0.4,0
Sprite,Background,Centre,"sb\ring.png",497,263 S,4,173366,173866,0.25,1 F,1,173566,173966,0.4,0
Sprite,Background,Centre,"sb\ring.png",230,237 S,4,175366,175866,0.25,1 F,1,175566,175966,0.4,0
Sprite,Background,Centre,"sb\ring.png",465,345 S,4,177366,177866,0.25,1 F,1,177566,177966,0.4,0
Sprite,Background,Centre,"sb\ring.png",209,86 S,4,179366,179866,0.25,1 F,1,179566,179966,0.4,0
Sprite,Background,Centre,"sb\ring.png",69,297 S,4,181366,181866,0.25,1 F,1,181566,181966,0.4,0
Sprite,Background,Centre,"sb\ring.png",372,413 S,4,183366,183866,0.25,1 F,1,183566,183966,0.4,0
Sprite,Background,Centre,"sb\ring.png",144,182 S,4,185366,185866,0.25,1 F,1,185566,185966,0.4,0
Sprite,Background,Centre,"sb\ring.png",465,109 S,4,178366,178866,0.25,1 F,1,178566,178966,0.4,0
Sprite,Background,Centre,"sb\ring.png",367,443 S,4,178741,179241,0.25,1 F,1,178941,179341,0.4,0
Sprite,Background,Centre,"sb\ring.png",184,190 S,4,179116,179616,0.25,1 F,1,179316,179716,0.4,0
Sprite,Background,Centre,"sb\ring.png",278,89 S,4,186366,186866,0.25,1 F,1,186566,186966,0.4,0
Sprite,Background,Centre,"sb\ring.png",385,220 S,4,186741,187241,0.25,1 F,1,186941,187341,0.4,0
Sprite,Background,Centre,"sb\ring.png",307,377 S,4,187116,187616,0.25,1 F,1,187316,187716,0.4,0
//Storyboard Layer 1 (Fail)
//Storyboard Layer 2 (Pass)
//Storyboard Layer 3 (Foreground)
Sprite,Foreground,Centre,"sb\rs\bone.png",0,0 R,0,115365,,1.570796 M,0,115365,115765,580,420,-270,420
Sprite,Foreground,Centre,"sb\rs\bone.png",0,0 R,0,115465,,1.658063 M,0,115465,115865,580,420,-266.7655,345.9176
Sprite,Foreground,Centre,"sb\rs\bone.png",0,0 R,0,115565,,1.745329 M,0,115565,115965,580,420,-257.0866,272.399
Sprite,Foreground,Centre,"sb\rs\bone.png",0,0 R,0,115665,,1.832596 M,0,115665,116065,580,420,-241.0369,200.0038
Sprite,Foreground,Centre,"sb\rs\bone.png",0,0 R,0,115765,,1.919862 M,0,115765,116165,580,420,-218.7387,129.2829
Sprite,Foreground,Centre,"sb\rs\bone.png",0,0 R,0,115865,,2.007129 M,0,115865,116265,580,420,-190.3616,60.77447
Sprite,Foreground,Centre,"sb\rs\bone.png",0,0 R,0,115965,,2.094395 M,0,115965,116365,580,420,-156.1216,-5
Sprite,Foreground,Centre,"sb\rs\bone.png",0,0 R,0,116065,,2.181662 M,0,116065,116465,580,420,-116.2793,-67.53999
Sprite,Foreground,Centre,"sb\rs\bone.png",0,0 R,0,116165,,2.268928 M,0,116165,116565,580,420,-71.13777,-126.3695
Sprite,Foreground,Centre,"sb\rs\bone.png",0,0 R,0,116265,,2.356194 M,0,116265,116665,580,420,-21.04075,-181.0408
Sprite,Foreground,Centre,"sb\rs\bone.png",0,0 R,0,116365,,2.443461 M,0,116365,116765,580,420,33.63051,-231.1378
Sprite,Foreground,Centre,"sb\rs\bone.png",0,0 R,0,116465,,2.530727 M,0,116465,116865,580,420,92.46001,-276.2792
Sprite,Foreground,Centre,"sb\rs\bone.png",0,0 R,0,116565,,2.617994 M,0,116565,116965,580,420,155,-316.1216
Sprite,Foreground,Centre,"sb\rs\bone.png",0,0 R,0,116665,,2.70526 M,0,116665,117065,580,420,220.7745,-350.3616
Sprite,Foreground,Centre,"sb\rs\bone.png",0,0 R,0,116765,,2.792527 M,0,116765,117165,580,420,289.2829,-378.7387
Sprite,Foreground,Centre,"sb\rs\bone.png",0,0 R,0,116865,,2.879793 M,0,116865,117265,580,420,360.0038,-401.0369
Sprite,Foreground,Centre,"sb\rs\bone.png",0,0 R,0,116965,,2.96706 M,0,116965,117365,580,420,432.399,-417.0866
Sprite,Foreground,Centre,"sb\rs\bone.png",0,0 R,0,117065,,3.054326 M,0,117065,117465,580,420,505.9176,-426.7655
Sprite,Foreground,Centre,"sb\rs\bl\bl0.png",0,0 F,0,114365,,1 S,0,114365,,1.4 M,1,114365,115065,1380,420,580,420 R,0,114465,,-4.712389 F,0,115265,,0
Animation,Foreground,Centre,"sb\rs\bl\bl.png",580,420,6,30,LoopOnce S,0,115265,,1.4 R,0,115265,,-4.712389 R,0,115365,117165,7.853981,9.424778 M,2,117365,118065,580,420,580,1220
Sprite,Foreground,Centre,"sb\rs\bone.png",0,0 R,0,115365,,-1.570796 M,0,115365,115765,60,60,910,60
Sprite,Foreground,Centre,"sb\rs\bone.png",0,0 R,0,115465,,-1.48353 M,0,115465,115865,60,60,906.7655,134.0824
Sprite,Foreground,Centre,"sb\rs\bone.png",0,0 R,0,115565,,-1.396263 M,0,115565,115965,60,60,897.0865,207.601
Sprite,Foreground,Centre,"sb\rs\bone.png",0,0 R,0,115665,,-1.308997 M,0,115665,116065,60,60,881.0369,279.9962
Sprite,Foreground,Centre,"sb\rs\bone.png",0,0 R,0,115765,,-1.22173 M,0,115765,116165,60,60,858.7387,350.7171
Sprite,Foreground,Centre,"sb\rs\bone.png",0,0 R,0,115865,,-1.134464 M,0,115865,116265,60,60,830.3616,419.2255
Sprite,Foreground,Centre,"sb\rs\bone.png",0,0 R,0,115965,,-1.047198 M,0,115965,116365,60,60,796.1216,485
Sprite,Foreground,Centre,"sb\rs\bone.png",0,0 R,0,116065,,-0.9599311 M,0,116065,116465,60,60,756.2792,547.54
Sprite,Foreground,Centre,"sb\rs\bone.png",0,0 R,0,116165,,-0.8726646 M,0,116165,116565,60,60,711.1378,606.3695
Sprite,Foreground,Centre,"sb\rs\bone.png",0,0 R,0,116265,,-0.7853982 M,0,116265,116665,60,60,661.0408,661.0408
Sprite,Foreground,Centre,"sb\rs\bone.png",0,0 R,0,116365,,-0.6981317 M,0,116365,116765,60,60,606.3695,711.1378
Sprite,Foreground,Centre,"sb\rs\bone.png",0,0 R,0,116465,,-0.6108652 M,0,116465,116865,60,60,547.54,756.2792
Sprite,Foreground,Centre,"sb\rs\bone.png",0,0 R,0,116565,,-0.5235988 M,0,116565,116965,60,60,485,796.1216
Sprite,Foreground,Centre,"sb\rs\bone.png",0,0 R,0,116665,,-0.4363323 M,0,116665,117065,60,60,419.2255,830.3616
Sprite,Foreground,Centre,"sb\rs\bone.png",0,0 R,0,116765,,-0.3490658 M,0,116765,117165,60,60,350.7171,858.7387
Sprite,Foreground,Centre,"sb\rs\bone.png",0,0 R,0,116865,,-0.2617994 M,0,116865,117265,60,60,279.9962,881.0369
Sprite,Foreground,Centre,"sb\rs\bone.png",0,0 R,0,116965,,-0.1745329 M,0,116965,117365,60,60,207.601,897.0865
Sprite,Foreground,Centre,"sb\rs\bone.png",0,0 R,0,117065,,-0.08726646 M,0,117065,117465,60,60,134.0824,906.7655
Sprite,Foreground,Centre,"sb\rs\bl\bl0.png",0,0 F,0,114365,,1 S,0,114365,,1.4 M,1,114365,115065,-740,60,60,60 R,0,114465,,-1.570796 F,0,115265,,0
Animation,Foreground,Centre,"sb\rs\bl\bl.png",60,60,6,30,LoopOnce S,0,115265,,1.4 R,0,115265,,-1.570796 R,0,115365,117165,4.712389,6.283185 M,2,117365,118065,60,60,60,-740
Sprite,Foreground,Centre,"sb\rs\bone.png",0,0 R,0,117365,,-1.570796 M,0,117365,117765,370,240,1220,240
Sprite,Foreground,Centre,"sb\rs\bone.png",0,0 R,0,117465,,-1.48353 M,0,117465,117865,370,240,1216.766,314.0824
Sprite,Foreground,Centre,"sb\rs\bone.png",0,0 R,0,117565,,-1.396263 M,0,117565,117965,370,240,1207.087,387.601
Sprite,Foreground,Centre,"sb\rs\bone.png",0,0 R,0,117665,,-1.308997 M,0,117665,118065,370,240,1191.037,459.9962
Sprite,Foreground,Centre,"sb\rs\bone.png",0,0 R,0,117765,,-1.22173 M,0,117765,118165,370,240,1168.739,530.7171
Sprite,Foreground,Centre,"sb\rs\bone.png",0,0 R,0,117865,,-1.134464 M,0,117865,118265,370,240,1140.362,599.2255
Sprite,Foreground,Centre,"sb\rs\bone.png",0,0 R,0,117965,,-1.047198 M,0,117965,118365,370,240,1106.122,665
Sprite,Foreground,Centre,"sb\rs\bone.png",0,0 R,0,118065,,-0.9599311 M,0,118065,118465,370,240,1066.279,727.54
Sprite,Foreground,Centre,"sb\rs\bone.png",0,0 R,0,118165,,-0.8726646 M,0,118165,118565,370,240,1021.138,786.3695
Sprite,Foreground,Centre,"sb\rs\bone.png",0,0 R,0,118265,,-0.7853982 M,0,118265,118665,370,240,971.0408,841.0408
Sprite,Foreground,Centre,"sb\rs\bone.png",0,0 R,0,118365,,-0.6981317 M,0,118365,118765,370,240,916.3695,891.1378
Sprite,Foreground,Centre,"sb\rs\bone.png",0,0 R,0,118465,,-0.6108652 M,0,118465,118865,370,240,857.54,936.2792
Sprite,Foreground,Centre,"sb\rs\bone.png",0,0 R,0,118565,,-0.5235988 M,0,118565,118965,370,240,795,976.1216
Sprite,Foreground,Centre,"sb\rs\bone.png",0,0 R,0,118665,,-0.4363323 M,0,118665,119065,370,240,729.2255,1010.362
Sprite,Foreground,Centre,"sb\rs\bone.png",0,0 R,0,118765,,-0.3490658 M,0,118765,119165,370,240,660.7171,1038.739
Sprite,Foreground,Centre,"sb\rs\bone.png",0,0 R,0,118865,,-0.2617994 M,0,118865,119265,370,240,589.9962,1061.037
Sprite,Foreground,Centre,"sb\rs\bone.png",0,0 R,0,118965,,-0.1745329 M,0,118965,119365,370,240,517.601,1077.087
Sprite,Foreground,Centre,"sb\rs\bone.png",0,0 R,0,119065,,-0.08726646 M,0,119065,119465,370,240,444.0824,1086.766
Sprite,Foreground,Centre,"sb\rs\bl\bl0.png",0,0 F,0,116365,,1 S,0,116365,,1.4 M,1,116365,117065,-430,240,370,240 R,0,116465,,-1.570796 F,0,117265,,0
Animation,Foreground,Centre,"sb\rs\bl\bl.png",370,240,6,30,LoopOnce S,0,117265,,1.4 R,0,117265,,-1.570796 R,0,117365,119165,4.712389,6.283185 M,2,119365,120065,370,240,370,-560
Sprite,Foreground,Centre,"sb\rs\bone.png",0,0 R,0,117365,,1.570796 M,0,117365,117765,270,240,-580,240
Sprite,Foreground,Centre,"sb\rs\bone.png",0,0 R,0,117465,,1.658063 M,0,117465,117865,270,240,-576.7655,165.9176
Sprite,Foreground,Centre,"sb\rs\bone.png",0,0 R,0,117565,,1.745329 M,0,117565,117965,270,240,-567.0865,92.39905
Sprite,Foreground,Centre,"sb\rs\bone.png",0,0 R,0,117665,,1.832596 M,0,117665,118065,270,240,-551.0369,20.00381
Sprite,Foreground,Centre,"sb\rs\bone.png",0,0 R,0,117765,,1.919862 M,0,117765,118165,270,240,-528.7387,-50.71713
Sprite,Foreground,Centre,"sb\rs\bone.png",0,0 R,0,117865,,2.007129 M,0,117865,118265,270,240,-500.3616,-119.2255
Sprite,Foreground,Centre,"sb\rs\bone.png",0,0 R,0,117965,,2.094395 M,0,117965,118365,270,240,-466.1216,-185
Sprite,Foreground,Centre,"sb\rs\bone.png",0,0 R,0,118065,,2.181662 M,0,118065,118465,270,240,-426.2792,-247.54
Sprite,Foreground,Centre,"sb\rs\bone.png",0,0 R,0,118165,,2.268928 M,0,118165,118565,270,240,-381.1378,-306.3695
Sprite,Foreground,Centre,"sb\rs\bone.png",0,0 R,0,118265,,2.356194 M,0,118265,118665,270,240,-331.0407,-361.0407
Sprite,Foreground,Centre,"sb\rs\bone.png",0,0 R,0,118365,,2.443461 M,0,118365,118765,270,240,-276.3695,-411.1378
Sprite,Foreground,Centre,"sb\rs\bone.png",0,0 R,0,118465,,2.530727 M,0,118465,118865,270,240,-217.54,-456.2792
Sprite,Foreground,Centre,"sb\rs\bone.png",0,0 R,0,118565,,2.617994 M,0,118565,118965,270,240,-155,-496.1216
Sprite,Foreground,Centre,"sb\rs\bone.png",0,0 R,0,118665,,2.70526 M,0,118665,119065,270,240,-89.22553,-530.3616
Sprite,Foreground,Centre,"sb\rs\bone.png",0,0 R,0,118765,,2.792527 M,0,118765,119165,270,240,-20.71713,-558.7387
Sprite,Foreground,Centre,"sb\rs\bone.png",0,0 R,0,118865,,2.879793 M,0,118865,119265,270,240,50.00381,-581.0369
Sprite,Foreground,Centre,"sb\rs\bone.png",0,0 R,0,118965,,2.96706 M,0,118965,119365,270,240,122.399,-597.0865
Sprite,Foreground,Centre,"sb\rs\bone.png",0,0 R,0,119065,,3.054326 M,0,119065,119465,270,240,195.9176,-606.7655
Sprite,Foreground,Centre,"sb\rs\bl\bl0.png",0,0 F,0,116365,,1 S,0,116365,,1.4 M,1,116365,117065,1070,240,270,240 R,0,116465,,-4.712389 F,0,117265,,0
Animation,Foreground,Centre,"sb\rs\bl\bl.png",270,240,6,30,LoopOnce S,0,117265,,1.4 R,0,117265,,-4.712389 R,0,117365,119165,7.853981,9.424778 M,2,119365,120065,270,240,270,1040
Sprite,Foreground,Centre,"sb\rs\bone.png",0,0 R,0,119365,,0.7853982 M,0,119365,119765,580,240,-21.04075,841.0408
Sprite,Foreground,Centre,"sb\rs\bone.png",0,0 R,0,119465,,0.8726646 M,0,119465,119865,580,240,-71.13777,786.3695
Sprite,Foreground,Centre,"sb\rs\bone.png",0,0 R,0,119565,,0.9599311 M,0,119565,119965,580,240,-116.2793,727.54
Sprite,Foreground,Centre,"sb\rs\bone.png",0,0 R,0,119665,,1.047198 M,0,119665,120065,580,240,-156.1216,665
Sprite,Foreground,Centre,"sb\rs\bone.png",0,0 R,0,119765,,1.134464 M,0,119765,120165,580,240,-190.3616,599.2255
Sprite,Foreground,Centre,"sb\rs\bone.png",0,0 R,0,119865,,1.22173 M,0,119865,120265,580,240,-218.7387,530.7171
Sprite,Foreground,Centre,"sb\rs\bone.png",0,0 R,0,119965,,1.308997 M,0,119965,120365,580,240,-241.0369,459.9962
Sprite,Foreground,Centre,"sb\rs\bone.png",0,0 R,0,120065,,1.396263 M,0,120065,120465,580,240,-257.0866,387.601
Sprite,Foreground,Centre,"sb\rs\bone.png",0,0 R,0,120165,,1.48353 M,0,120165,120565,580,240,-266.7655,314.0824
Sprite,Foreground,Centre,"sb\rs\bone.png",0,0 R,0,120265,,1.570796 M,0,120265,120665,580,240,-270,240
Sprite,Foreground,Centre,"sb\rs\bone.png",0,0 R,0,120365,,1.658063 M,0,120365,120765,580,240,-266.7655,165.9176
Sprite,Foreground,Centre,"sb\rs\bone.png",0,0 R,0,120465,,1.745329 M,0,120465,120865,580,240,-257.0866,92.39905
Sprite,Foreground,Centre,"sb\rs\bone.png",0,0 R,0,120565,,1.832596 M,0,120565,120965,580,240,-241.0369,20.00381
Sprite,Foreground,Centre,"sb\rs\bone.png",0,0 R,0,120665,,1.919862 M,0,120665,121065,580,240,-218.7387,-50.71713
Sprite,Foreground,Centre,"sb\rs\bone.png",0,0 R,0,120765,,2.007129 M,0,120765,121165,580,240,-190.3616,-119.2255
Sprite,Foreground,Centre,"sb\rs\bone.png",0,0 R,0,120865,,2.094395 M,0,120865,121265,580,240,-156.1216,-185
Sprite,Foreground,Centre,"sb\rs\bone.png",0,0 R,0,120965,,2.181662 M,0,120965,121365,580,240,-116.2793,-247.54
Sprite,Foreground,Centre,"sb\rs\bone.png",0,0 R,0,121065,,2.268928 M,0,121065,121465,580,240,-71.13777,-306.3695
Sprite,Foreground,Centre,"sb\rs\bl\bl0.png",0,0 F,0,118365,,1 S,0,118365,,1.4 M,1,118365,119065,1145.685,-325.6854,580,240 R,0,118465,,-5.497787 F,0,119265,,0
Animation,Foreground,Centre,"sb\rs\bl\bl.png",580,240,6,30,LoopOnce S,0,119265,,1.4 R,0,119265,,-5.497787 R,0,119365,121165,7.068583,8.63938 M,2,121365,122065,580,240,1145.685,805.6854
Sprite,Foreground,Centre,"sb\rs\bone.png",0,0 R,0,119365,,-0.7853982 M,0,119365,119765,60,240,661.0408,841.0408
Sprite,Foreground,Centre,"sb\rs\bone.png",0,0 R,0,119465,,-0.8726646 M,0,119465,119865,60,240,711.1378,786.3695
Sprite,Foreground,Centre,"sb\rs\bone.png",0,0 R,0,119565,,-0.9599311 M,0,119565,119965,60,240,756.2792,727.54
Sprite,Foreground,Centre,"sb\rs\bone.png",0,0 R,0,119665,,-1.047198 M,0,119665,120065,60,240,796.1216,665
Sprite,Foreground,Centre,"sb\rs\bone.png",0,0 R,0,119765,,-1.134464 M,0,119765,120165,60,240,830.3616,599.2255
Sprite,Foreground,Centre,"sb\rs\bone.png",0,0 R,0,119865,,-1.22173 M,0,119865,120265,60,240,858.7387,530.7171
Sprite,Foreground,Centre,"sb\rs\bone.png",0,0 R,0,119965,,-1.308997 M,0,119965,120365,60,240,881.0369,459.9962
Sprite,Foreground,Centre,"sb\rs\bone.png",0,0 R,0,120065,,-1.396263 M,0,120065,120465,60,240,897.0865,387.601
Sprite,Foreground,Centre,"sb\rs\bone.png",0,0 R,0,120165,,-1.48353 M,0,120165,120565,60,240,906.7655,314.0824
Sprite,Foreground,Centre,"sb\rs\bone.png",0,0 R,0,120265,,-1.570796 M,0,120265,120665,60,240,910,240
Sprite,Foreground,Centre,"sb\rs\bone.png",0,0 R,0,120365,,-1.658063 M,0,120365,120765,60,240,906.7655,165.9176
Sprite,Foreground,Centre,"sb\rs\bone.png",0,0 R,0,120465,,-1.745329 M,0,120465,120865,60,240,897.0865,92.39905
Sprite,Foreground,Centre,"sb\rs\bone.png",0,0 R,0,120565,,-1.832596 M,0,120565,120965,60,240,881.0369,20.00381
Sprite,Foreground,Centre,"sb\rs\bone.png",0,0 R,0,120665,,-1.919862 M,0,120665,121065,60,240,858.7387,-50.71713
Sprite,Foreground,Centre,"sb\rs\bone.png",0,0 R,0,120765,,-2.007129 M,0,120765,121165,60,240,830.3616,-119.2255
Sprite,Foreground,Centre,"sb\rs\bone.png",0,0 R,0,120865,,-2.094395 M,0,120865,121265,60,240,796.1216,-185
Sprite,Foreground,Centre,"sb\rs\bone.png",0,0 R,0,120965,,-2.181662 M,0,120965,121365,60,240,756.2792,-247.54
Sprite,Foreground,Centre,"sb\rs\bone.png",0,0 R,0,121065,,-2.268928 M,0,121065,121465,60,240,711.1378,-306.3695
Sprite,Foreground,Centre,"sb\rs\bl\bl0.png",0,0 F,0,118365,,1 S,0,118365,,1.4 M,1,118365,119065,-505.6854,-325.6854,60,240 R,0,118465,,-0.7853982 F,0,119265,,0
Animation,Foreground,Centre,"sb\rs\bl\bl.png",60,240,6,30,LoopOnce S,0,119265,,1.4 R,0,119265,,-0.7853982 R,0,119365,121165,5.497787,3.926991 M,2,121365,122065,60,240,-505.6854,805.6854
Sprite,Foreground,Centre,"sb\rs\bone.png",0,0 R,0,121365,,3.926991 M,0,121365,121765,370,420,971.0408,-181.0408
Sprite,Foreground,Centre,"sb\rs\bone.png",0,0 R,0,121465,,3.839724 M,0,121465,121865,370,420,916.3695,-231.1378
Sprite,Foreground,Centre,"sb\rs\bone.png",0,0 R,0,121565,,3.752458 M,0,121565,121965,370,420,857.54,-276.2792
Sprite,Foreground,Centre,"sb\rs\bone.png",0,0 R,0,121665,,3.665191 M,0,121665,122065,370,420,795,-316.1216
Sprite,Foreground,Centre,"sb\rs\bone.png",0,0 R,0,121765,,3.577925 M,0,121765,122165,370,420,729.2255,-350.3616
Sprite,Foreground,Centre,"sb\rs\bone.png",0,0 R,0,121865,,3.490659 M,0,121865,122265,370,420,660.7171,-378.7387
Sprite,Foreground,Centre,"sb\rs\bone.png",0,0 R,0,121965,,3.403392 M,0,121965,122365,370,420,589.9962,-401.0369
Sprite,Foreground,Centre,"sb\rs\bone.png",0,0 R,0,122065,,3.316126 M,0,122065,122465,370,420,517.601,-417.0866
Sprite,Foreground,Centre,"sb\rs\bone.png",0,0 R,0,122165,,3.228859 M,0,122165,122565,370,420,444.0824,-426.7655
Sprite,Foreground,Centre,"sb\rs\bone.png",0,0 R,0,122265,,3.141593 M,0,122265,122665,370,420,370,-430
Sprite,Foreground,Centre,"sb\rs\bone.png",0,0 R,0,122365,,3.054326 M,0,122365,122765,370,420,295.9176,-426.7655
Sprite,Foreground,Centre,"sb\rs\bone.png",0,0 R,0,122465,,2.96706 M,0,122465,122865,370,420,222.399,-417.0866
Sprite,Foreground,Centre,"sb\rs\bone.png",0,0 R,0,122565,,2.879793 M,0,122565,122965,370,420,150.0038,-401.0369
Sprite,Foreground,Centre,"sb\rs\bone.png",0,0 R,0,122665,,2.792527 M,0,122665,123065,370,420,79.28287,-378.7387
Sprite,Foreground,Centre,"sb\rs\bone.png",0,0 R,0,122765,,2.70526 M,0,122765,123165,370,420,10.77447,-350.3616
Sprite,Foreground,Centre,"sb\rs\bone.png",0,0 R,0,122865,,2.617994 M,0,122865,123265,370,420,-55,-316.1216
Sprite,Foreground,Centre,"sb\rs\bone.png",0,0 R,0,122965,,2.530727 M,0,122965,123365,370,420,-117.54,-276.2792
Sprite,Foreground,Centre,"sb\rs\bone.png",0,0 R,0,123065,,2.443461 M,0,123065,123465,370,420,-176.3695,-231.1378
Sprite,Foreground,Centre,"sb\rs\bl\bl0.png",0,0 F,0,120365,,1 S,0,120365,,1.4 M,1,120365,121065,-195.6854,985.6854,370,420 R,0,120465,,-8.63938 F,0,121265,,0
Animation,Foreground,Centre,"sb\rs\bl\bl.png",370,420,6,30,LoopOnce S,0,121265,,1.4 R,0,121265,,-8.63938 R,0,121365,123165,10.21018,8.63938 M,2,123365,124065,370,420,935.6854,985.6854
Sprite,Foreground,Centre,"sb\rs\bone.png",0,0 R,0,121365,,2.356194 M,0,121365,121765,270,420,-331.0407,-181.0408
Sprite,Foreground,Centre,"sb\rs\bone.png",0,0 R,0,121465,,2.443461 M,0,121465,121865,270,420,-276.3695,-231.1378
Sprite,Foreground,Centre,"sb\rs\bone.png",0,0 R,0,121565,,2.530727 M,0,121565,121965,270,420,-217.54,-276.2792
Sprite,Foreground,Centre,"sb\rs\bone.png",0,0 R,0,121665,,2.617994 M,0,121665,122065,270,420,-155,-316.1216
Sprite,Foreground,Centre,"sb\rs\bone.png",0,0 R,0,121765,,2.70526 M,0,121765,122165,270,420,-89.22553,-350.3616
Sprite,Foreground,Centre,"sb\rs\bone.png",0,0 R,0,121865,,2.792527 M,0,121865,122265,270,420,-20.71713,-378.7387
Sprite,Foreground,Centre,"sb\rs\bone.png",0,0 R,0,121965,,2.879793 M,0,121965,122365,270,420,50.00381,-401.0369
Sprite,Foreground,Centre,"sb\rs\bone.png",0,0 R,0,122065,,2.96706 M,0,122065,122465,270,420,122.399,-417.0866
Sprite,Foreground,Centre,"sb\rs\bone.png",0,0 R,0,122165,,3.054326 M,0,122165,122565,270,420,195.9176,-426.7655
Sprite,Foreground,Centre,"sb\rs\bone.png",0,0 R,0,122265,,3.141593 M,0,122265,122665,270,420,270,-430
Sprite,Foreground,Centre,"sb\rs\bone.png",0,0 R,0,122365,,3.228859 M,0,122365,122765,270,420,344.0824,-426.7655
Sprite,Foreground,Centre,"sb\rs\bone.png",0,0 R,0,122465,,3.316126 M,0,122465,122865,270,420,417.601,-417.0866
Sprite,Foreground,Centre,"sb\rs\bone.png",0,0 R,0,122565,,3.403392 M,0,122565,122965,270,420,489.9962,-401.0369
Sprite,Foreground,Centre,"sb\rs\bone.png",0,0 R,0,122665,,3.490659 M,0,122665,123065,270,420,560.7171,-378.7387
Sprite,Foreground,Centre,"sb\rs\bone.png",0,0 R,0,122765,,3.577925 M,0,122765,123165,270,420,629.2255,-350.3616
Sprite,Foreground,Centre,"sb\rs\bone.png",0,0 R,0,122865,,3.665191 M,0,122865,123265,270,420,695,-316.1216
Sprite,Foreground,Centre,"sb\rs\bone.png",0,0 R,0,122965,,3.752458 M,0,122965,123365,270,420,757.54,-276.2792
Sprite,Foreground,Centre,"sb\rs\bone.png",0,0 R,0,123065,,3.839724 M,0,123065,123465,270,420,816.3695,-231.1378
Sprite,Foreground,Centre,"sb\rs\bl\bl0.png",0,0 F,0,120365,,1 S,0,120365,,1.4 M,1,120365,121065,835.6854,985.6854,270,420 R,0,120465,,-3.926991 F,0,121265,,0
Animation,Foreground,Centre,"sb\rs\bl\bl.png",270,420,6,30,LoopOnce S,0,121265,,1.4 R,0,121265,,-3.926991 R,0,121365,123165,8.63938,10.21018 M,2,123365,124065,270,420,-295.6854,985.6854
Sprite,Foreground,Centre,"sb\rs\bone.png",0,0 R,0,123365,,-0.7853982 M,0,123365,123765,370,60,971.0408,661.0408
Sprite,Foreground,Centre,"sb\rs\bone.png",0,0 R,0,123465,,-0.6981317 M,0,123465,123865,370,60,916.3695,711.1378
Sprite,Foreground,Centre,"sb\rs\bone.png",0,0 R,0,123565,,-0.6108652 M,0,123565,123965,370,60,857.54,756.2792
Sprite,Foreground,Centre,"sb\rs\bone.png",0,0 R,0,123665,,-0.5235988 M,0,123665,124065,370,60,795,796.1216
Sprite,Foreground,Centre,"sb\rs\bone.png",0,0 R,0,123765,,-0.4363323 M,0,123765,124165,370,60,729.2255,830.3616
Sprite,Foreground,Centre,"sb\rs\bone.png",0,0 R,0,123865,,-0.3490658 M,0,123865,124265,370,60,660.7171,858.7387
Sprite,Foreground,Centre,"sb\rs\bone.png",0,0 R,0,123965,,-0.2617994 M,0,123965,124365,370,60,589.9962,881.0369
Sprite,Foreground,Centre,"sb\rs\bone.png",0,0 R,0,124065,,-0.1745329 M,0,124065,124465,370,60,517.601,897.0865
Sprite,Foreground,Centre,"sb\rs\bone.png",0,0 R,0,124165,,-0.08726646 M,0,124165,124565,370,60,444.0824,906.7655
Sprite,Foreground,Centre,"sb\rs\bone.png",0,0 R,0,124265,,0 M,0,124265,124665,370,60,370,910
Sprite,Foreground,Centre,"sb\rs\bone.png",0,0 R,0,124365,,0.08726646 M,0,124365,124765,370,60,295.9176,906.7655
Sprite,Foreground,Centre,"sb\rs\bone.png",0,0 R,0,124465,,0.1745329 M,0,124465,124865,370,60,222.399,897.0865
Sprite,Foreground,Centre,"sb\rs\bone.png",0,0 R,0,124565,,0.2617994 M,0,124565,124965,370,60,150.0038,881.0369
Sprite,Foreground,Centre,"sb\rs\bone.png",0,0 R,0,124665,,0.3490658 M,0,124665,125065,370,60,79.28287,858.7387
Sprite,Foreground,Centre,"sb\rs\bone.png",0,0 R,0,124765,,0.4363323 M,0,124765,125165,370,60,10.77447,830.3616
Sprite,Foreground,Centre,"sb\rs\bone.png",0,0 R,0,124865,,0.5235988 M,0,124865,125265,370,60,-55,796.1216
Sprite,Foreground,Centre,"sb\rs\bone.png",0,0 R,0,124965,,0.6108652 M,0,124965,125365,370,60,-117.54,756.2792
Sprite,Foreground,Centre,"sb\rs\bone.png",0,0 R,0,125065,,0.6981317 M,0,125065,125465,370,60,-176.3695,711.1378
Sprite,Foreground,Centre,"sb\rs\bl\bl0.png",0,0 F,0,122365,,1 S,0,122365,,1.4 M,1,122365,123065,-195.6854,-505.6854,370,60 R,0,122465,,-0.7853982 F,0,123265,,0
Animation,Foreground,Centre,"sb\rs\bl\bl.png",370,60,6,30,LoopOnce S,0,123265,,1.4 R,0,123265,,-0.7853982 R,0,123365,125165,5.497787,7.068583 M,2,125365,126065,370,60,935.6854,-505.6854
Sprite,Foreground,Centre,"sb\rs\bone.png",0,0 R,0,123365,,0.7853982 M,0,123365,123765,270,60,-331.0407,661.0408
Sprite,Foreground,Centre,"sb\rs\bone.png",0,0 R,0,123465,,0.6981317 M,0,123465,123865,270,60,-276.3695,711.1378
Sprite,Foreground,Centre,"sb\rs\bone.png",0,0 R,0,123565,,0.6108652 M,0,123565,123965,270,60,-217.54,756.2792
Sprite,Foreground,Centre,"sb\rs\bone.png",0,0 R,0,123665,,0.5235988 M,0,123665,124065,270,60,-155,796.1216
Sprite,Foreground,Centre,"sb\rs\bone.png",0,0 R,0,123765,,0.4363323 M,0,123765,124165,270,60,-89.22553,830.3616
Sprite,Foreground,Centre,"sb\rs\bone.png",0,0 R,0,123865,,0.3490658 M,0,123865,124265,270,60,-20.71713,858.7387
Sprite,Foreground,Centre,"sb\rs\bone.png",0,0 R,0,123965,,0.2617994 M,0,123965,124365,270,60,50.00381,881.0369
Sprite,Foreground,Centre,"sb\rs\bone.png",0,0 R,0,124065,,0.1745329 M,0,124065,124465,270,60,122.399,897.0865
Sprite,Foreground,Centre,"sb\rs\bone.png",0,0 R,0,124165,,0.08726646 M,0,124165,124565,270,60,195.9176,906.7655
Sprite,Foreground,Centre,"sb\rs\bone.png",0,0 R,0,124265,,0 M,0,124265,124665,270,60,270,910
Sprite,Foreground,Centre,"sb\rs\bone.png",0,0 R,0,124365,,-0.08726646 M,0,124365,124765,270,60,344.0824,906.7655
Sprite,Foreground,Centre,"sb\rs\bone.png",0,0 R,0,124465,,-0.1745329 M,0,124465,124865,270,60,417.601,897.0865
Sprite,Foreground,Centre,"sb\rs\bone.png",0,0 R,0,124565,,-0.2617994 M,0,124565,124965,270,60,489.9962,881.0369
Sprite,Foreground,Centre,"sb\rs\bone.png",0,0 R,0,124665,,-0.3490658 M,0,124665,125065,270,60,560.7171,858.7387
Sprite,Foreground,Centre,"sb\rs\bone.png",0,0 R,0,124765,,-0.4363323 M,0,124765,125165,270,60,629.2255,830.3616
Sprite,Foreground,Centre,"sb\rs\bone.png",0,0 R,0,124865,,-0.5235988 M,0,124865,125265,270,60,695,796.1216
Sprite,Foreground,Centre,"sb\rs\bone.png",0,0 R,0,124965,,-0.6108652 M,0,124965,125365,270,60,757.54,756.2792
Sprite,Foreground,Centre,"sb\rs\bone.png",0,0 R,0,125065,,-0.6981317 M,0,125065,125465,270,60,816.3695,711.1378
Sprite,Foreground,Centre,"sb\rs\bl\bl0.png",0,0 F,0,122365,,1 S,0,122365,,1.4 M,1,122365,123065,835.6854,-505.6854,270,60 R,0,122465,,-5.497787 F,0,123265,,0
Animation,Foreground,Centre,"sb\rs\bl\bl.png",270,60,6,30,LoopOnce S,0,123265,,1.4 R,0,123265,,-5.497787 R,0,123365,125165,7.068583,5.497787 M,2,125365,126065,270,60,-295.6854,-505.6854
Sprite,Foreground,Centre,"sb\rs\bone.png",0,0 R,0,125365,,-0.7853982 M,0,125365,125765,60,240,661.0408,841.0408
Sprite,Foreground,Centre,"sb\rs\bone.png",0,0 R,0,125465,,-0.8726646 M,0,125465,125865,60,240,711.1378,786.3695
Sprite,Foreground,Centre,"sb\rs\bone.png",0,0 R,0,125565,,-0.9599311 M,0,125565,125965,60,240,756.2792,727.54
Sprite,Foreground,Centre,"sb\rs\bone.png",0,0 R,0,125665,,-1.047198 M,0,125665,126065,60,240,796.1216,665
Sprite,Foreground,Centre,"sb\rs\bone.png",0,0 R,0,125765,,-1.134464 M,0,125765,126165,60,240,830.3616,599.2255
Sprite,Foreground,Centre,"sb\rs\bone.png",0,0 R,0,125865,,-1.22173 M,0,125865,126265,60,240,858.7387,530.7171
Sprite,Foreground,Centre,"sb\rs\bone.png",0,0 R,0,125965,,-1.308997 M,0,125965,126365,60,240,881.0369,459.9962
Sprite,Foreground,Centre,"sb\rs\bone.png",0,0 R,0,126065,,-1.396263 M,0,126065,126465,60,240,897.0865,387.601
Sprite,Foreground,Centre,"sb\rs\bone.png",0,0 R,0,126165,,-1.48353 M,0,126165,126565,60,240,906.7655,314.0824
Sprite,Foreground,Centre,"sb\rs\bone.png",0,0 R,0,126265,,-1.570796 M,0,126265,126665,60,240,910,240
Sprite,Foreground,Centre,"sb\rs\bone.png",0,0 R,0,126365,,-1.658063 M,0,126365,126765,60,240,906.7655,165.9176
Sprite,Foreground,Centre,"sb\rs\bone.png",0,0 R,0,126465,,-1.745329 M,0,126465,126865,60,240,897.0865,92.39905
Sprite,Foreground,Centre,"sb\rs\bone.png",0,0 R,0,126565,,-1.832596 M,0,126565,126965,60,240,881.0369,20.00381
Sprite,Foreground,Centre,"sb\rs\bone.png",0,0 R,0,126665,,-1.919862 M,0,126665,127065,60,240,858.7387,-50.71713
Sprite,Foreground,Centre,"sb\rs\bone.png",0,0 R,0,126765,,-2.007129 M,0,126765,127165,60,240,830.3616,-119.2255
Sprite,Foreground,Centre,"sb\rs\bone.png",0,0 R,0,126865,,-2.094395 M,0,126865,127265,60,240,796.1216,-185
Sprite,Foreground,Centre,"sb\rs\bone.png",0,0 R,0,126965,,-2.181662 M,0,126965,127365,60,240,756.2792,-247.54
Sprite,Foreground,Centre,"sb\rs\bone.png",0,0 R,0,127065,,-2.268928 M,0,127065,127465,60,240,711.1378,-306.3695
Sprite,Foreground,Centre,"sb\rs\bl\bl0.png",0,0 F,0,124365,,1 S,0,124365,,1.4 M,1,124365,125065,-505.6854,-325.6854,60,240 R,0,124465,,-0.7853982 F,0,125265,,0
Animation,Foreground,Centre,"sb\rs\bl\bl.png",60,240,6,30,LoopOnce S,0,125265,,1.4 R,0,125265,,-0.7853982 R,0,125365,127165,5.497787,3.926991 M,2,127365,128065,60,240,-505.6854,805.6854
Sprite,Foreground,Centre,"sb\rs\bone.png",0,0 R,0,125365,,0.7853982 M,0,125365,125765,580,240,-21.04075,841.0408
Sprite,Foreground,Centre,"sb\rs\bone.png",0,0 R,0,125465,,0.8726646 M,0,125465,125865,580,240,-71.13777,786.3695
Sprite,Foreground,Centre,"sb\rs\bone.png",0,0 R,0,125565,,0.9599311 M,0,125565,125965,580,240,-116.2793,727.54
Sprite,Foreground,Centre,"sb\rs\bone.png",0,0 R,0,125665,,1.047198 M,0,125665,126065,580,240,-156.1216,665
Sprite,Foreground,Centre,"sb\rs\bone.png",0,0 R,0,125765,,1.134464 M,0,125765,126165,580,240,-190.3616,599.2255
Sprite,Foreground,Centre,"sb\rs\bone.png",0,0 R,0,125865,,1.22173 M,0,125865,126265,580,240,-218.7387,530.7171
Sprite,Foreground,Centre,"sb\rs\bone.png",0,0 R,0,125965,,1.308997 M,0,125965,126365,580,240,-241.0369,459.9962
Sprite,Foreground,Centre,"sb\rs\bone.png",0,0 R,0,126065,,1.396263 M,0,126065,126465,580,240,-257.0866,387.601
Sprite,Foreground,Centre,"sb\rs\bone.png",0,0 R,0,126165,,1.48353 M,0,126165,126565,580,240,-266.7655,314.0824
Sprite,Foreground,Centre,"sb\rs\bone.png",0,0 R,0,126265,,1.570796 M,0,126265,126665,580,240,-270,240
Sprite,Foreground,Centre,"sb\rs\bone.png",0,0 R,0,126365,,1.658063 M,0,126365,126765,580,240,-266.7655,165.9176
Sprite,Foreground,Centre,"sb\rs\bone.png",0,0 R,0,126465,,1.745329 M,0,126465,126865,580,240,-257.0866,92.39905
Sprite,Foreground,Centre,"sb\rs\bone.png",0,0 R,0,126565,,1.832596 M,0,126565,126965,580,240,-241.0369,20.00381
Sprite,Foreground,Centre,"sb\rs\bone.png",0,0 R,0,126665,,1.919862 M,0,126665,127065,580,240,-218.7387,-50.71713
Sprite,Foreground,Centre,"sb\rs\bone.png",0,0 R,0,126765,,2.007129 M,0,126765,127165,580,240,-190.3616,-119.2255
Sprite,Foreground,Centre,"sb\rs\bone.png",0,0 R,0,126865,,2.094395 M,0,126865,127265,580,240,-156.1216,-185
Sprite,Foreground,Centre,"sb\rs\bone.png",0,0 R,0,126965,,2.181662 M,0,126965,127365,580,240,-116.2793,-247.54
Sprite,Foreground,Centre,"sb\rs\bone.png",0,0 R,0,127065,,2.268928 M,0,127065,127465,580,240,-71.13777,-306.3695
Sprite,Foreground,Centre,"sb\rs\bl\bl0.png",0,0 F,0,124365,,1 S,0,124365,,1.4 M,1,124365,125065,1145.685,-325.6854,580,240 R,0,124465,,-5.497787 F,0,125265,,0
Animation,Foreground,Centre,"sb\rs\bl\bl.png",580,240,6,30,LoopOnce S,0,125265,,1.4 R,0,125265,,-5.497787 R,0,125365,127165,7.068583,8.63938 M,2,127365,128065,580,240,1145.685,805.6854
Sprite,Foreground,TopCentre,"sb\pixel.png",0,0 R,0,59366,,4.712389 V,1,59366,59566,0,800,42,800 V,2,59566,59766,42,800,0,800 M,2,59566,60266,209,177,-591,176
Sprite,Foreground,Centre,"sb\rs\bl\bl0.png",0,0 F,0,58366,,1 S,0,58366,,1.4 M,1,58366,59066,-591,176,209,177 R,0,58466,,4.712389 F,0,59266,,0
Animation,Foreground,Centre,"sb\rs\bl\bl.png",209,177,6,30,LoopOnce S,0,59266,,1.4 R,0,59266,,4.712389 M,2,59566,60266,209,177,-591,176
Sprite,Foreground,TopCentre,"sb\pixel.png",0,0 R,0,61366,,4.712389 V,1,61366,61566,0,800,42,800 V,2,61566,61766,42,800,0,800 M,2,61566,62266,72,105,-728,104
Sprite,Foreground,Centre,"sb\rs\bl\bl0.png",0,0 F,0,60366,,1 S,0,60366,,1.4 M,1,60366,61066,-728,104,72,105 R,0,60466,,4.712389 F,0,61266,,0
Animation,Foreground,Centre,"sb\rs\bl\bl.png",72,105,6,30,LoopOnce S,0,61266,,1.4 R,0,61266,,4.712389 M,2,61566,62266,72,105,-728,104
Sprite,Foreground,TopCentre,"sb\pixel.png",0,0 R,0,63366,,4.712389 V,1,63366,63566,0,800,42,800 V,2,63566,63766,42,800,0,800 M,2,63566,64266,39,259,-761,258
Sprite,Foreground,Centre,"sb\rs\bl\bl0.png",0,0 F,0,62366,,1 S,0,62366,,1.4 M,1,62366,63066,-761,258,39,259 R,0,62466,,4.712389 F,0,63266,,0
Animation,Foreground,Centre,"sb\rs\bl\bl.png",39,259,6,30,LoopOnce S,0,63266,,1.4 R,0,63266,,4.712389 M,2,63566,64266,39,259,-761,258
Sprite,Foreground,TopCentre,"sb\pixel.png",0,0 R,0,65366,,4.712389 V,1,65366,65566,0,800,42,800 V,2,65566,65766,42,800,0,800 M,2,65566,66266,241,264,-559,263
Sprite,Foreground,Centre,"sb\rs\bl\bl0.png",0,0 F,0,64366,,1 S,0,64366,,1.4 M,1,64366,65066,-559,263,241,264 R,0,64466,,4.712389 F,0,65266,,0
Animation,Foreground,Centre,"sb\rs\bl\bl.png",241,264,6,30,LoopOnce S,0,65266,,1.4 R,0,65266,,4.712389 M,2,65566,66266,241,264,-559,263
Sprite,Foreground,TopCentre,"sb\pixel.png",0,0 R,0,67366,,4.712389 V,1,67366,67566,0,800,42,800 V,2,67566,67766,42,800,0,800 M,2,67566,68266,77,232,-723,231
Sprite,Foreground,Centre,"sb\rs\bl\bl0.png",0,0 F,0,66366,,1 S,0,66366,,1.4 M,1,66366,67066,-723,231,77,232 R,0,66466,,4.712389 F,0,67266,,0
Animation,Foreground,Centre,"sb\rs\bl\bl.png",77,232,6,30,LoopOnce S,0,67266,,1.4 R,0,67266,,4.712389 M,2,67566,68266,77,232,-723,231
Sprite,Foreground,TopCentre,"sb\pixel.png",0,0 R,0,59366,,3.926991 V,1,59366,59566,0,800,42,800 V,2,59566,59766,42,800,0,800 M,2,59566,60266,297,389,-268,954
Sprite,Foreground,Centre,"sb\rs\bl\bl0.png",0,0 F,0,58366,,1 S,0,58366,,1.4 M,1,58366,59066,-268,954,297,389 R,0,58466,,3.926991 F,0,59266,,0
Animation,Foreground,Centre,"sb\rs\bl\bl.png",297,389,6,30,LoopOnce S,0,59266,,1.4 R,0,59266,,3.926991 M,2,59566,60266,297,389,-268,954
Sprite,Foreground,TopCentre,"sb\pixel.png",0,0 R,0,61366,,3.926991 V,1,61366,61566,0,800,42,800 V,2,61566,61766,42,800,0,800 M,2,61566,62266,160,317,-405,882
Sprite,Foreground,Centre,"sb\rs\bl\bl0.png",0,0 F,0,60366,,1 S,0,60366,,1.4 M,1,60366,61066,-405,882,160,317 R,0,60466,,3.926991 F,0,61266,,0
Animation,Foreground,Centre,"sb\rs\bl\bl.png",160,317,6,30,LoopOnce S,0,61266,,1.4 R,0,61266,,3.926991 M,2,61566,62266,160,317,-405,882
Sprite,Foreground,TopCentre,"sb\pixel.png",0,0 R,0,63366,,-0.7853982 V,1,63366,63566,0,800,42,800 V,2,63566,63766,42,800,0,800 M,2,63566,64266,127,47,-438,-518
Sprite,Foreground,Centre,"sb\rs\bl\bl0.png",0,0 F,0,62366,,1 S,0,62366,,1.4 M,1,62366,63066,-438,-518,127,47 R,0,62466,,-0.7853982 F,0,63266,,0
Animation,Foreground,Centre,"sb\rs\bl\bl.png",127,47,6,30,LoopOnce S,0,63266,,1.4 R,0,63266,,-0.7853982 M,2,63566,64266,127,47,-438,-518
Sprite,Foreground,TopCentre,"sb\pixel.png",0,0 R,0,65366,,-0.7853982 V,1,65366,65566,0,800,42,800 V,2,65566,65766,42,800,0,800 M,2,65566,66266,329,52,-236,-513
Sprite,Foreground,Centre,"sb\rs\bl\bl0.png",0,0 F,0,64366,,1 S,0,64366,,1.4 M,1,64366,65066,-236,-513,329,52 R,0,64466,,-0.7853982 F,0,65266,,0
Animation,Foreground,Centre,"sb\rs\bl\bl.png",329,52,6,30,LoopOnce S,0,65266,,1.4 R,0,65266,,-0.7853982 M,2,65566,66266,329,52,-236,-513
Sprite,Foreground,TopCentre,"sb\pixel.png",0,0 R,0,67366,,3.926991 V,1,67366,67566,0,800,42,800 V,2,67566,67766,42,800,0,800 M,2,67566,68266,165,444,-400,1009
Sprite,Foreground,Centre,"sb\rs\bl\bl0.png",0,0 F,0,66366,,1 S,0,66366,,1.4 M,1,66366,67066,-400,1009,165,444 R,0,66466,,3.926991 F,0,67266,,0
Animation,Foreground,Centre,"sb\rs\bl\bl.png",165,444,6,30,LoopOnce S,0,67266,,1.4 R,0,67266,,3.926991 M,2,67566,68266,165,444,-400,1009
Sprite,Foreground,TopCentre,"sb\pixel.png",0,0 R,0,51366,,3.141593 V,1,51366,51566,0,800,42,800 V,2,51566,51766,42,800,0,800 M,2,51566,52266,272,309,271,1109
Sprite,Foreground,Centre,"sb\rs\bl\bl0.png",0,0 F,0,50366,,1 S,0,50366,,1.4 M,1,50366,51066,271,1109,272,309 R,0,50466,,3.141593 F,0,51266,,0
Animation,Foreground,Centre,"sb\rs\bl\bl.png",272,309,6,30,LoopOnce S,0,51266,,1.4 R,0,51266,,3.141593 M,2,51566,52266,272,309,271,1109
Sprite,Foreground,TopCentre,"sb\pixel.png",0,0 R,0,53366,,3.141593 V,1,53366,53566,0,800,42,800 V,2,53566,53766,42,800,0,800 M,2,53566,54266,276,391,275,1191
Sprite,Foreground,Centre,"sb\rs\bl\bl0.png",0,0 F,0,52366,,1 S,0,52366,,1.4 M,1,52366,53066,275,1191,276,391 R,0,52466,,3.141593 F,0,53266,,0
Animation,Foreground,Centre,"sb\rs\bl\bl.png",276,391,6,30,LoopOnce S,0,53266,,1.4 R,0,53266,,3.141593 M,2,53566,54266,276,391,275,1191
Sprite,Foreground,TopCentre,"sb\pixel.png",0,0 R,0,55366,,3.141593 V,1,55366,55566,0,800,42,800 V,2,55566,55766,42,800,0,800 M,2,55566,56266,297,313,296,1113
Sprite,Foreground,Centre,"sb\rs\bl\bl0.png",0,0 F,0,54366,,1 S,0,54366,,1.4 M,1,54366,55066,296,1113,297,313 R,0,54466,,3.141593 F,0,55266,,0
Animation,Foreground,Centre,"sb\rs\bl\bl.png",297,313,6,30,LoopOnce S,0,55266,,1.4 R,0,55266,,3.141593 M,2,55566,56266,297,313,296,1113
Sprite,Foreground,TopCentre,"sb\pixel.png",0,0 R,0,57366,,3.141593 V,1,57366,57566,0,800,42,800 V,2,57566,57766,42,800,0,800 M,2,57566,58266,237,382,236,1182
Sprite,Foreground,Centre,"sb\rs\bl\bl0.png",0,0 F,0,56366,,1 S,0,56366,,1.4 M,1,56366,57066,236,1182,237,382 R,0,56466,,3.141593 F,0,57266,,0
Animation,Foreground,Centre,"sb\rs\bl\bl.png",237,382,6,30,LoopOnce S,0,57266,,1.4 R,0,57266,,3.141593 M,2,57566,58266,237,382,236,1182
Sprite,Foreground,TopCentre,"sb\pixel.png",0,0 R,0,51366,,2.356194 V,1,51366,51566,0,800,42,800 V,2,51566,51766,42,800,0,800 M,2,51566,52266,431,243,996,808
Sprite,Foreground,Centre,"sb\rs\bl\bl0.png",0,0 F,0,50366,,1 S,0,50366,,1.4 M,1,50366,51066,996,808,431,243 R,0,50466,,2.356194 F,0,51266,,0
Animation,Foreground,Centre,"sb\rs\bl\bl.png",431,243,6,30,LoopOnce S,0,51266,,1.4 R,0,51266,,2.356194 M,2,51566,52266,431,243,996,808
Sprite,Foreground,TopCentre,"sb\pixel.png",0,0 R,0,53366,,2.356194 V,1,53366,53566,0,800,42,800 V,2,53566,53766,42,800,0,800 M,2,53566,54266,435,325,1000,890
Sprite,Foreground,Centre,"sb\rs\bl\bl0.png",0,0 F,0,52366,,1 S,0,52366,,1.4 M,1,52366,53066,1000,890,435,325 R,0,52466,,2.356194 F,0,53266,,0
Animation,Foreground,Centre,"sb\rs\bl\bl.png",435,325,6,30,LoopOnce S,0,53266,,1.4 R,0,53266,,2.356194 M,2,53566,54266,435,325,1000,890
Sprite,Foreground,TopCentre,"sb\pixel.png",0,0 R,0,55366,,2.356194 V,1,55366,55566,0,800,42,800 V,2,55566,55766,42,800,0,800 M,2,55566,56266,456,247,1021,812
Sprite,Foreground,Centre,"sb\rs\bl\bl0.png",0,0 F,0,54366,,1 S,0,54366,,1.4 M,1,54366,55066,1021,812,456,247 R,0,54466,,2.356194 F,0,55266,,0
Animation,Foreground,Centre,"sb\rs\bl\bl.png",456,247,6,30,LoopOnce S,0,55266,,1.4 R,0,55266,,2.356194 M,2,55566,56266,456,247,1021,812
Sprite,Foreground,TopCentre,"sb\pixel.png",0,0 R,0,57366,,2.356194 V,1,57366,57566,0,800,42,800 V,2,57566,57766,42,800,0,800 M,2,57566,58266,396,316,961,881
Sprite,Foreground,Centre,"sb\rs\bl\bl0.png",0,0 F,0,56366,,1 S,0,56366,,1.4 M,1,56366,57066,961,881,396,316 R,0,56466,,2.356194 F,0,57266,,0
Animation,Foreground,Centre,"sb\rs\bl\bl.png",396,316,6,30,LoopOnce S,0,57266,,1.4 R,0,57266,,2.356194 M,2,57566,58266,396,316,961,881
Sprite,Foreground,TopLeft,"sb\pixel.png",40,340 F,0,865,,1 C,0,865,,255,255,255 V,0,865,,560,120 F,0,12553,,0 F,0,12803,,1 F,0,19365,,0
Sprite,Foreground,TopLeft,"sb\pixel.png",45,345 F,0,865,,1 C,0,865,,0,0,0 V,0,865,,550,110 F,0,12553,,0 F,0,12803,,1 F,0,19365,,0
Sprite,Foreground,Centre,"sb\rs\asterisk.jpg",210,375 F,0,865,,1 S,0,865,,0.3 F,0,12553,,0 F,0,12803,,1 F,0,19365,,0
Sprite,Foreground,Centre,"sb\rs\sans\closed.png",130,400 F,0,865,,1 S,0,865,,0.6 F,0,12553,,0
Sprite,Foreground,Centre,"sb\rs\sans\noeyes.png",130,400 F,0,12803,,1 S,0,12803,,0.6 F,0,19365,,0
Sprite,Foreground,Centre,"sb\f\006d.png",248,386.25 F,0,1177,,0 F,0,1178,,1 S,0,1178,,0.5 F,0,5240,,0
Sprite,Foreground,Centre,"sb\f\0065.png",265.5,386.25 F,0,1177,,0 S,0,1178,,0.5 F,0,1234,,1 F,0,5240,,0
Sprite,Foreground,Centre,"sb\f\0067.png",281,390 F,0,1177,,0 S,0,1178,,0.5 F,0,1290,,1 F,0,5240,,0
Sprite,Foreground,Centre,"sb\f\0061.png",296.5,386.25 F,0,1177,,0 S,0,1178,,0.5 F,0,1346,,1 F,0,5240,,0
Sprite,Foreground,Centre,"sb\f\006c.png",308.25,383.25 F,0,1177,,0 S,0,1178,,0.5 F,0,1402,,1 F,0,5240,,0
Sprite,Foreground,Centre,"sb\f\006f.png",320,386.25 F,0,1177,,0 S,0,1178,,0.5 F,0,1458,,1 F,0,5240,,0
Sprite,Foreground,Centre,"sb\f\0076.png",335.5,386.25 F,0,1177,,0 S,0,1178,,0.5 F,0,1514,,1 F,0,5240,,0
Sprite,Foreground,Centre,"sb\f\0061.png",351,386.25 F,0,1177,,0 S,0,1178,,0.5 F,0,1570,,1 F,0,5240,,0
Sprite,Foreground,Centre,"sb\f\006e.png",366.5,386.25 F,0,1177,,0 S,0,1178,,0.5 F,0,1626,,1 F,0,5240,,0
Sprite,Foreground,Centre,"sb\f\0069.png",378.25,383.25 F,0,1177,,0 S,0,1178,,0.5 F,0,1682,,1 F,0,5240,,0
Sprite,Foreground,Centre,"sb\f\0061.png",390,386.25 F,0,1177,,0 S,0,1178,,0.5 F,0,1738,,1 F,0,5240,,0
Sprite,Foreground,Centre,"sb\f\0074.png",246,415.25 F,0,1177,,0 S,0,1178,,0.5 F,0,1850,,1 F,0,5240,,0
Sprite,Foreground,Centre,"sb\f\006f.png",261.5,417.25 F,0,1177,,0 S,0,1178,,0.5 F,0,1906,,1 F,0,5240,,0
Sprite,Foreground,Centre,"sb\f\0062.png",277,414.25 F,0,1177,,0 S,0,1178,,0.5 F,0,1962,,1 F,0,5240,,0
Sprite,Foreground,Centre,"sb\f\0079.png",293.5,421 F,0,1177,,0 S,0,1178,,0.5 F,0,2018,,1 F,0,5240,,0
Sprite,Foreground,Centre,"sb\f\0066.png",320,415.25 F,0,1177,,0 S,0,1178,,0.5 F,0,2130,,1 F,0,5240,,0
Sprite,Foreground,Centre,"sb\f\006f.png",335.5,417.25 F,0,1177,,0 S,0,1178,,0.5 F,0,2186,,1 F,0,5240,,0
Sprite,Foreground,Centre,"sb\f\0078.png",352,417.25 F,0,1177,,0 S,0,1178,,0.5 F,0,2242,,1 F,0,5240,,0
Sprite,Foreground,Centre,"sb\f\0026.png",381.5,414.25 F,0,1177,,0 S,0,1178,,0.5 F,0,2354,,1 F,0,5240,,0
Sprite,Foreground,Centre,"sb\f\0072.png",408,417.25 F,0,1177,,0 S,0,1178,,0.5 F,0,2466,,1 F,0,5240,,0
Sprite,Foreground,Centre,"sb\f\0069.png",419.75,414.25 F,0,1177,,0 S,0,1178,,0.5 F,0,2522,,1 F,0,5240,,0
Sprite,Foreground,Centre,"sb\f\0063.png",431.5,417.25 F,0,1177,,0 S,0,1178,,0.5 F,0,2578,,1 F,0,5240,,0
Sprite,Foreground,Centre,"sb\f\0068.png",447,414.25 F,0,1177,,0 S,0,1178,,0.5 F,0,2634,,1 F,0,5240,,0
Sprite,Foreground,Centre,"sb\f\0061.png",462.5,417.25 F,0,1177,,0 S,0,1178,,0.5 F,0,2690,,1 F,0,5240,,0
Sprite,Foreground,Centre,"sb\f\0061.png",478,417.25 F,0,1177,,0 S,0,1178,,0.5 F,0,2746,,1 F,0,5240,,0
Sprite,Foreground,Centre,"sb\f\0064.png",494.5,414.25 F,0,1177,,0 S,0,1178,,0.5 F,0,2802,,1 F,0,5240,,0
Sprite,Foreground,Centre,"sb\f\0065.png",511,417.25 F,0,1177,,0 S,0,1178,,0.5 F,0,2858,,1 F,0,5240,,0
Sprite,Foreground,Centre,"sb\f\0062.png",526.5,414.25 F,0,1177,,0 S,0,1178,,0.5 F,0,2914,,1 F,0,5240,,0
Sprite,Foreground,Centre,"sb\f\006d.png",248,386.25 F,0,5489,,0 F,0,5490,,1 S,0,5490,,0.5 F,0,6740,,0
Sprite,Foreground,Centre,"sb\f\0061.png",265.5,386.25 F,0,5489,,0 S,0,5490,,0.5 F,0,5541,,1 F,0,6740,,0
Sprite,Foreground,Centre,"sb\f\0070.png",281,390 F,0,5489,,0 S,0,5490,,0.5 F,0,5592,,1 F,0,6740,,0
Sprite,Foreground,Centre,"sb\f\0073.png",295.5,386.25 F,0,5489,,0 S,0,5490,,0.5 F,0,5643,,1 F,0,6740,,0
Sprite,Foreground,Centre,"sb\f\0065.png",310,386.25 F,0,5489,,0 S,0,5490,,0.5 F,0,5694,,1 F,0,6740,,0
Sprite,Foreground,Centre,"sb\f\0074.png",325.5,384.25 F,0,5489,,0 S,0,5490,,0.5 F,0,5745,,1 F,0,6740,,0
Sprite,Foreground,Centre,"sb\f\0062.png",351,383.25 F,0,5489,,0 S,0,5490,,0.5 F,0,5847,,1 F,0,6740,,0
Sprite,Foreground,Centre,"sb\f\0079.png",367.5,390 F,0,5489,,0 S,0,5490,,0.5 F,0,5898,,1 F,0,6740,,0
Sprite,Foreground,Centre,"sb\f\0066.png",246,415.25 F,0,5489,,0 S,0,5490,,0.5 F,0,6000,,1 F,0,6740,,0
Sprite,Foreground,Centre,"sb\f\0061.png",261.5,417.25 F,0,5489,,0 S,0,5490,,0.5 F,0,6051,,1 F,0,6740,,0
Sprite,Foreground,Centre,"sb\f\0074.png",277,415.25 F,0,5489,,0 S,0,5490,,0.5 F,0,6102,,1 F,0,6740,,0
Sprite,Foreground,Centre,"sb\f\0066.png",292.5,415.25 F,0,5489,,0 S,0,5490,,0.5 F,0,6153,,1 F,0,6740,,0
Sprite,Foreground,Centre,"sb\f\0061.png",308,417.25 F,0,5489,,0 S,0,5490,,0.5 F,0,6204,,1 F,0,6740,,0
Sprite,Foreground,Centre,"sb\f\006e.png",323.5,417.25 F,0,5489,,0 S,0,5490,,0.5 F,0,6255,,1 F,0,6740,,0
Sprite,Foreground,Centre,"sb\f\006b.png",349,414.25 F,0,5489,,0 S,0,5490,,0.5 F,0,6357,,1 F,0,6740,,0
Sprite,Foreground,Centre,"sb\f\006f.png",364.5,417.25 F,0,5489,,0 S,0,5490,,0.5 F,0,6408,,1 F,0,6740,,0
Sprite,Foreground,Centre,"sb\f\006c.png",376.25,414.25 F,0,5489,,0 S,0,5490,,0.5 F,0,6459,,1 F,0,6740,,0
Sprite,Foreground,Centre,"sb\f\0065.png",388,417.25 F,0,5489,,0 S,0,5490,,0.5 F,0,6510,,1 F,0,6740,,0
Sprite,Foreground,Centre,"sb\f\006b.png",403.5,414.25 F,0,5489,,0 S,0,5490,,0.5 F,0,6561,,1 F,0,6740,,0
Sprite,Foreground,Centre,"sb\f\0064.png",247,383.25 F,0,6989,,0 F,0,6990,,1 S,0,6990,,0.5 F,0,8990,,0
Sprite,Foreground,Centre,"sb\f\0069.png",259.75,383.25 F,0,6989,,0 S,0,6990,,0.5 F,0,7047,,1 F,0,8990,,0
Sprite,Foreground,Centre,"sb\f\0066.png",271.5,384.25 F,0,6989,,0 S,0,6990,,0.5 F,0,7104,,1 F,0,8990,,0
Sprite,Foreground,Centre,"sb\f\0066.png",287,384.25 F,0,6989,,0 S,0,6990,,0.5 F,0,7161,,1 F,0,8990,,0
Sprite,Foreground,Centre,"sb\f\0069.png",298.75,383.25 F,0,6989,,0 S,0,6990,,0.5 F,0,7218,,1 F,0,8990,,0
Sprite,Foreground,Centre,"sb\f\0063.png",310.5,386.25 F,0,6989,,0 S,0,6990,,0.5 F,0,7275,,1 F,0,8990,,0
Sprite,Foreground,Centre,"sb\f\0075.png",326,386.25 F,0,6989,,0 S,0,6990,,0.5 F,0,7332,,1 F,0,8990,,0
Sprite,Foreground,Centre,"sb\f\006c.png",337.75,383.25 F,0,6989,,0 S,0,6990,,0.5 F,0,7389,,1 F,0,8990,,0
Sprite,Foreground,Centre,"sb\f\0074.png",349.5,384.25 F,0,6989,,0 S,0,6990,,0.5 F,0,7446,,1 F,0,8990,,0
Sprite,Foreground,Centre,"sb\f\0079.png",366,390 F,0,6989,,0 S,0,6990,,0.5 F,0,7503,,1 F,0,8990,,0
Sprite,Foreground,Centre,"sb\f\0062.png",392.5,383.25 F,0,6989,,0 S,0,6990,,0.5 F,0,7617,,1 F,0,8990,,0
Sprite,Foreground,Centre,"sb\f\0079.png",409,390 F,0,6989,,0 S,0,6990,,0.5 F,0,7674,,1 F,0,8990,,0
Sprite,Foreground,Centre,"sb\f\0066.png",246,415.25 F,0,6989,,0 S,0,6990,,0.5 F,0,7788,,1 F,0,8990,,0
Sprite,Foreground,Centre,"sb\f\0061.png",261.5,417.25 F,0,6989,,0 S,0,6990,,0.5 F,0,7845,,1 F,0,8990,,0
Sprite,Foreground,Centre,"sb\f\0074.png",277,415.25 F,0,6989,,0 S,0,6990,,0.5 F,0,7902,,1 F,0,8990,,0
Sprite,Foreground,Centre,"sb\f\0066.png",292.5,415.25 F,0,6989,,0 S,0,6990,,0.5 F,0,7959,,1 F,0,8990,,0
Sprite,Foreground,Centre,"sb\f\0061.png",308,417.25 F,0,6989,,0 S,0,6990,,0.5 F,0,8016,,1 F,0,8990,,0
Sprite,Foreground,Centre,"sb\f\006e.png",323.5,417.25 F,0,6989,,0 S,0,6990,,0.5 F,0,8073,,1 F,0,8990,,0
Sprite,Foreground,Centre,"sb\f\006b.png",349,414.25 F,0,6989,,0 S,0,6990,,0.5 F,0,8187,,1 F,0,8990,,0
Sprite,Foreground,Centre,"sb\f\006f.png",364.5,417.25 F,0,6989,,0 S,0,6990,,0.5 F,0,8244,,1 F,0,8990,,0
Sprite,Foreground,Centre,"sb\f\006c.png",376.25,414.25 F,0,6989,,0 S,0,6990,,0.5 F,0,8301,,1 F,0,8990,,0
Sprite,Foreground,Centre,"sb\f\0065.png",388,417.25 F,0,6989,,0 S,0,6990,,0.5 F,0,8358,,1 F,0,8990,,0
Sprite,Foreground,Centre,"sb\f\006b.png",403.5,414.25 F,0,6989,,0 S,0,6990,,0.5 F,0,8415,,1 F,0,8990,,0
Sprite,Foreground,Centre,"sb\f\0073.png",245,386.25 F,0,9239,,0 F,0,9240,,1 S,0,9240,,0.5 F,0,10490,,0
Sprite,Foreground,Centre,"sb\f\0074.png",259.5,384.25 F,0,9239,,0 S,0,9240,,0.5 F,0,9299,,1 F,0,10490,,0
Sprite,Foreground,Centre,"sb\f\006f.png",275,386.25 F,0,9239,,0 S,0,9240,,0.5 F,0,9358,,1 F,0,10490,,0
Sprite,Foreground,Centre,"sb\f\0072.png",290.5,386.25 F,0,9239,,0 S,0,9240,,0.5 F,0,9417,,1 F,0,10490,,0
Sprite,Foreground,Centre,"sb\f\0079.png",307,390 F,0,9239,,0 S,0,9240,,0.5 F,0,9476,,1 F,0,10490,,0
Sprite,Foreground,Centre,"sb\f\0062.png",323.5,383.25 F,0,9239,,0 S,0,9240,,0.5 F,0,9535,,1 F,0,10490,,0
Sprite,Foreground,Centre,"sb\f\006f.png",339,386.25 F,0,9239,,0 S,0,9240,,0.5 F,0,9594,,1 F,0,10490,,0
Sprite,Foreground,Centre,"sb\f\0061.png",354.5,386.25 F,0,9239,,0 S,0,9240,,0.5 F,0,9653,,1 F,0,10490,,0
Sprite,Foreground,Centre,"sb\f\0072.png",370,386.25 F,0,9239,,0 S,0,9240,,0.5 F,0,9712,,1 F,0,10490,,0
Sprite,Foreground,Centre,"sb\f\0064.png",386.5,383.25 F,0,9239,,0 S,0,9240,,0.5 F,0,9771,,1 F,0,10490,,0
Sprite,Foreground,Centre,"sb\f\0062.png",413,383.25 F,0,9239,,0 S,0,9240,,0.5 F,0,9889,,1 F,0,10490,,0
Sprite,Foreground,Centre,"sb\f\0079.png",429.5,390 F,0,9239,,0 S,0,9240,,0.5 F,0,9948,,1 F,0,10490,,0
Sprite,Foreground,Centre,"sb\f\0062.png",246,414.25 F,0,9239,,0 S,0,9240,,0.5 F,0,10066,,1 F,0,10490,,0
Sprite,Foreground,Centre,"sb\f\0065.png",261.5,417.25 F,0,9239,,0 S,0,9240,,0.5 F,0,10125,,1 F,0,10490,,0
Sprite,Foreground,Centre,"sb\f\0072.png",277,417.25 F,0,9239,,0 S,0,9240,,0.5 F,0,10184,,1 F,0,10490,,0
Sprite,Foreground,Centre,"sb\f\0067.png",292.5,421 F,0,9239,,0 S,0,9240,,0.5 F,0,10243,,1 F,0,10490,,0
Sprite,Foreground,Centre,"sb\f\0079.png",309,421 F,0,9239,,0 S,0,9240,,0.5 F,0,10302,,1 F,0,10490,,0
Sprite,Foreground,Centre,"sb\f\006f.png",246,386.25 F,0,10739,,0 F,0,10740,,1 S,0,10740,,0.5 F,0,12553,,0
Sprite,Foreground,Centre,"sb\f\006e.png",261.5,386.25 F,0,10739,,0 S,0,10740,,0.5 F,0,10771,,1 F,0,12553,,0
Sprite,Foreground,Centre,"sb\f\0064.png",288,383.25 F,0,10739,,0 S,0,10740,,0.5 F,0,10833,,1 F,0,12553,,0
Sprite,Foreground,Centre,"sb\f\0061.png",304.5,386.25 F,0,10739,,0 S,0,10740,,0.5 F,0,10864,,1 F,0,12553,,0
Sprite,Foreground,Centre,"sb\f\0079.png",321,390 F,0,10739,,0 S,0,10740,,0.5 F,0,10895,,1 F,0,12553,,0
Sprite,Foreground,Centre,"sb\f\0073.png",336.5,386.25 F,0,10739,,0 S,0,10740,,0.5 F,0,10926,,1 F,0,12553,,0
Sprite,Foreground,Centre,"sb\f\006c.png",357.25,383.25 F,0,10739,,0 S,0,10740,,0.5 F,0,10988,,1 F,0,12553,,0
Sprite,Foreground,Centre,"sb\f\0069.png",365.25,383.25 F,0,10739,,0 S,0,10740,,0.5 F,0,11019,,1 F,0,12553,,0
Sprite,Foreground,Centre,"sb\f\006b.png",377,383.25 F,0,10739,,0 S,0,10740,,0.5 F,0,11050,,1 F,0,12553,,0
Sprite,Foreground,Centre,"sb\f\0065.png",392.5,386.25 F,0,10739,,0 S,0,10740,,0.5 F,0,11081,,1 F,0,12553,,0
Sprite,Foreground,Centre,"sb\f\0074.png",418,384.25 F,0,10739,,0 S,0,10740,,0.5 F,0,11143,,1 F,0,12553,,0
Sprite,Foreground,Centre,"sb\f\0068.png",433.5,383.25 F,0,10739,,0 S,0,10740,,0.5 F,0,11174,,1 F,0,12553,,0
Sprite,Foreground,Centre,"sb\f\0065.png",449,386.25 F,0,10739,,0 S,0,10740,,0.5 F,0,11205,,1 F,0,12553,,0
Sprite,Foreground,Centre,"sb\f\0073.png",463.5,386.25 F,0,10739,,0 S,0,10740,,0.5 F,0,11236,,1 F,0,12553,,0
Sprite,Foreground,Centre,"sb\f\0065.png",478,386.25 F,0,10739,,0 S,0,10740,,0.5 F,0,11267,,1 F,0,12553,,0
Sprite,Foreground,Centre,"sb\f\002c.png",489.75,394 F,0,10739,,0 S,0,10740,,0.5 F,0,11298,,1 F,0,12553,,0
Sprite,Foreground,Centre,"sb\f\006b.png",246,414.25 F,0,10739,,0 S,0,10740,,0.5 F,0,11360,,1 F,0,12553,,0
Sprite,Foreground,Centre,"sb\f\0069.png",257.75,414.25 F,0,10739,,0 S,0,10740,,0.5 F,0,11391,,1 F,0,12553,,0
Sprite,Foreground,Centre,"sb\f\0064.png",270.5,414.25 F,0,10739,,0 S,0,10740,,0.5 F,0,11422,,1 F,0,12553,,0
Sprite,Foreground,Centre,"sb\f\0073.png",286,417.25 F,0,10739,,0 S,0,10740,,0.5 F,0,11453,,1 F,0,12553,,0
Sprite,Foreground,Centre,"sb\f\006c.png",306.75,414.25 F,0,10739,,0 S,0,10740,,0.5 F,0,11515,,1 F,0,12553,,0
Sprite,Foreground,Centre,"sb\f\0069.png",314.75,414.25 F,0,10739,,0 S,0,10740,,0.5 F,0,11546,,1 F,0,12553,,0
Sprite,Foreground,Centre,"sb\f\006b.png",326.5,414.25 F,0,10739,,0 S,0,10740,,0.5 F,0,11577,,1 F,0,12553,,0
Sprite,Foreground,Centre,"sb\f\0065.png",342,417.25 F,0,10739,,0 S,0,10740,,0.5 F,0,11608,,1 F,0,12553,,0
Sprite,Foreground,Centre,"sb\f\0079.png",368.5,421 F,0,10739,,0 S,0,10740,,0.5 F,0,11670,,1 F,0,12553,,0
Sprite,Foreground,Centre,"sb\f\006f.png",385,417.25 F,0,10739,,0 S,0,10740,,0.5 F,0,11701,,1 F,0,12553,,0
Sprite,Foreground,Centre,"sb\f\0075.png",400.5,417.25 F,0,10739,,0 S,0,10740,,0.5 F,0,11732,,1 F,0,12553,,0
Sprite,Foreground,Centre,"sb\f\002e.png",412.25,422 F,0,10739,,0 S,0,10740,,0.5 F,0,11763,,1 F,0,12553,,0
Sprite,Foreground,Centre,"sb\f\002e.png",423.75,422 F,0,10739,,0 S,0,10740,,0.5 F,0,11794,,1 F,0,12553,,0
Sprite,Foreground,Centre,"sb\f\002e.png",435.25,422 F,0,10739,,0 S,0,10740,,0.5 F,0,11825,,1 F,0,12553,,0
Sprite,Foreground,Centre,"sb\f\0073.png",245,386.25 F,0,13364,,0 F,0,13365,,1 S,0,13365,,0.5 F,0,19365,,0
Sprite,Foreground,Centre,"sb\f\0068.png",259.5,383.25 F,0,13364,,0 S,0,13365,,0.5 F,0,13480,,1 F,0,19365,,0
Sprite,Foreground,Centre,"sb\f\006f.png",275,386.25 F,0,13364,,0 S,0,13365,,0.5 F,0,13595,,1 F,0,19365,,0
Sprite,Foreground,Centre,"sb\f\0075.png",290.5,386.25 F,0,13364,,0 S,0,13365,,0.5 F,0,13710,,1 F,0,19365,,0
Sprite,Foreground,Centre,"sb\f\006c.png",302.25,383.25 F,0,13364,,0 S,0,13365,,0.5 F,0,13825,,1 F,0,19365,,0
Sprite,Foreground,Centre,"sb\f\0064.png",315,383.25 F,0,13364,,0 S,0,13365,,0.5 F,0,13940,,1 F,0,19365,,0
Sprite,Foreground,Centre,"sb\f\0062.png",341.5,383.25 F,0,13364,,0 S,0,13365,,0.5 F,0,14170,,1 F,0,19365,,0
Sprite,Foreground,Centre,"sb\f\0065.png",357,386.25 F,0,13364,,0 S,0,13365,,0.5 F,0,14285,,1 F,0,19365,,0
Sprite,Foreground,Centre,"sb\f\0062.png",382.5,383.25 F,0,13364,,0 S,0,13365,,0.5 F,0,14515,,1 F,0,19365,,0
Sprite,Foreground,Centre,"sb\f\0075.png",398,386.25 F,0,13364,,0 S,0,13365,,0.5 F,0,14630,,1 F,0,19365,,0
Sprite,Foreground,Centre,"sb\f\0072.png",413.5,386.25 F,0,13364,,0 S,0,13365,,0.5 F,0,14745,,1 F,0,19365,,0
Sprite,Foreground,Centre,"sb\f\006e.png",429,386.25 F,0,13364,,0 S,0,13365,,0.5 F,0,14860,,1 F,0,19365,,0
Sprite,Foreground,Centre,"sb\f\0069.png",440.75,383.25 F,0,13364,,0 S,0,13365,,0.5 F,0,14975,,1 F,0,19365,,0
Sprite,Foreground,Centre,"sb\f\006e.png",452.5,386.25 F,0,13364,,0 S,0,13365,,0.5 F,0,15090,,1 F,0,19365,,0
Sprite,Foreground,Centre,"sb\f\0067.png",468,390 F,0,13364,,0 S,0,13365,,0.5 F,0,15205,,1 F,0,19365,,0
Sprite,Foreground,Centre,"sb\f\0069.png",242.25,414.25 F,0,13364,,0 S,0,13365,,0.5 F,0,15435,,1 F,0,19365,,0
Sprite,Foreground,Centre,"sb\f\006e.png",254,417.25 F,0,13364,,0 S,0,13365,,0.5 F,0,15550,,1 F,0,19365,,0
Sprite,Foreground,Centre,"sb\f\0068.png",279.5,414.25 F,0,13364,,0 S,0,13365,,0.5 F,0,15780,,1 F,0,19365,,0
Sprite,Foreground,Centre,"sb\f\0065.png",295,417.25 F,0,13364,,0 S,0,13365,,0.5 F,0,15895,,1 F,0,19365,,0
Sprite,Foreground,Centre,"sb\f\006c.png",306.75,414.25 F,0,13364,,0 S,0,13365,,0.5 F,0,16010,,1 F,0,19365,,0
Sprite,Foreground,Centre,"sb\f\006c.png",314.75,414.25 F,0,13364,,0 S,0,13365,,0.5 F,0,16125,,1 F,0,19365,,0
Sprite,Foreground,Centre,"sb\f\002e.png",322.75,422 F,0,13364,,0 S,0,13365,,0.5 F,0,16240,,1 F,0,19365,,0
Sprite,Foreground,Centre,"sb\pixel.png",320,240 F,0,179365,,0.5 C,0,179365,,0,0,0 V,0,179365,,854,480 F,0,179678,,0 F,0,181365,,0.5 F,0,181678,,0 F,0,183365,,0.5 F,0,183678,,0 F,0,185365,,0.5 F,0,185678,,0
Sprite,Foreground,Centre,"sb\bg\bw.jpg",320,240 F,0,179365,,0.5 F,0,179365,,0.5 S,0,179365,,0.4444444 C,0,179365,,255,0,0 F,0,179397,,0 F,0,179428,,0.5 F,0,179460,,0 F,0,179491,,0.5 F,0,179523,,0 F,0,179554,,0.5 F,0,179586,,0 F,0,179617,,0.5 F,0,179649,,0 F,0,181365,,0.5 F,0,181397,,0 F,0,181428,,0.5 F,0,181460,,0 F,0,181491,,0.5 F,0,181523,,0 F,0,181554,,0.5 F,0,181586,,0 F,0,181617,,0.5 F,0,181649,,0 F,0,183365,,0.5 F,0,183397,,0 F,0,183428,,0.5 F,0,183460,,0 F,0,183491,,0.5 F,0,183523,,0 F,0,183554,,0.5 F,0,183586,,0 F,0,183617,,0.5 F,0,183649,,0 F,0,185365,,0.5 F,0,185397,,0 F,0,185428,,0.5 F,0,185460,,0 F,0,185491,,0.5 F,0,185523,,0 F,0,185554,,0.5 F,0,185586,,0 F,0,185617,,0.5 F,0,185649,,0
Sprite,Foreground,Centre,"sb\pl.png",209,86 C,0,179266,,178,17,17 F,0,179266,179366,0,1 S,2,179366,179966,0.5,0 F,2,179866,179966,1,0
Sprite,Foreground,Centre,"sb\pl.png",109,136 C,0,179391,,178,17,17 F,0,179391,179491,0,1 S,2,179491,180091,0.5,0 F,2,179991,180091,1,0
Sprite,Foreground,Centre,"sb\pl.png",106,246 C,0,179516,,178,17,17 F,0,179516,179616,0,1 S,2,179616,180216,0.5,0 F,2,180116,180216,1,0
Sprite,Foreground,Centre,"sb\pl.png",69,297 C,0,181266,,178,17,17 F,0,181266,181366,0,1 S,2,181366,181966,0.5,0 F,2,181866,181966,1,0
Sprite,Foreground,Centre,"sb\pl.png",227,77 C,0,181516,,178,17,17 F,0,181516,181616,0,1 S,2,181616,182216,0.5,0 F,2,182116,182216,1,0
Sprite,Foreground,Centre,"sb\pl.png",372,413 C,0,183266,,178,17,17 F,0,183266,183366,0,1 S,2,183366,183966,0.5,0 F,2,183866,183966,1,0
Sprite,Foreground,Centre,"sb\pl.png",144,182 C,0,185266,,178,17,17 F,0,185266,185366,0,1 S,2,185366,185966,0.5,0 F,2,185866,185966,1,0
Sprite,Foreground,Centre,"sb\pl.png",102,309 C,0,185516,,178,17,17 F,0,185516,185616,0,1 S,2,185616,186216,0.5,0 F,2,186116,186216,1,0
//Storyboard Sound Samples

[TimingPoints]
366,250,4,2,1,50,1,0
12553,-100,4,3,98,70,0,0
13366,-100,4,3,98,10,0,0
13866,-100,4,3,98,15,0,0
14366,-100,4,3,98,20,0,0
14866,-100,4,3,98,25,0,0
15366,-100,4,3,98,30,0,0
15866,-100,4,3,98,35,0,0
16366,-100,4,3,98,40,0,0
16866,-100,4,3,98,45,0,0
17366,-100,4,3,98,50,0,0
17866,-100,4,3,98,55,0,0
18366,-100,4,3,98,60,0,0
18866,-100,4,3,98,65,0,0
19241,-100,4,2,1,5,0,0
19366,-200,4,2,97,50,0,0
22366,-200,4,2,97,5,0,0
22491,-200,4,2,97,50,0,0
22616,-200,4,2,97,5,0,0
22741,-200,4,2,97,50,0,0
22866,-200,4,2,97,5,0,0
22991,-200,4,2,97,50,0,0
27366,-133.333333333333,4,2,98,65,0,0
35366,-100,4,2,1,85,0,1
42366,-100,4,2,98,85,0,1
43366,-100,4,2,1,85,0,1
50366,-100,4,2,98,85,0,1
51366,-117.647058823529,4,2,1,85,0,0
58366,-117.647058823529,4,2,98,85,0,0
59366,-100,4,2,1,85,0,0
64366,-133.333333333333,4,2,1,85,0,0
65366,-133.333333333333,4,2,1,85,0,0
65866,-100,4,2,1,85,0,0
66366,-100,4,2,98,85,0,0
67366,-100,4,2,98,85,0,1
70366,-100,4,2,1,85,0,1
74366,-100,4,2,98,85,0,0
75366,-100,4,2,98,85,0,1
80366,-100,4,2,1,85,0,1
81366,-100,4,2,1,85,0,1
82366,-100,4,2,98,85,0,0
83366,-100,4,2,98,85,0,1
86366,-100,4,2,1,85,0,1
89366,-100,4,2,1,85,0,1
90366,-100,4,2,98,85,0,0
91366,-100,4,2,98,85,0,1
96366,-100,4,2,1,85,0,1
97366,-100,4,2,98,85,0,1
98366,-100,4,2,98,85,0,0
99366,-133.333333333333,4,2,98,70,0,0
127616,-133.333333333333,4,2,1,70,0,1
130116,-133.333333333333,4,2,98,70,0,1
130303,-133.333333333333,4,2,98,5,0,1
130366,-133.333333333333,4,2,98,70,0,1
130553,-133.333333333333,4,2,98,5,0,1
130616,-133.333333333333,4,2,98,70,0,1
130803,-133.333333333333,4,2,98,5,0,1
130866,-133.333333333333,4,2,98,70,0,1
131366,-100,4,2,1,85,0,0
138366,-100,4,2,98,85,0,0
139366,-100,4,2,1,85,0,1
139866,-100,4,2,99,85,0,1
141366,-100,4,2,1,85,0,0
146366,-100,4,2,98,85,0,0
147366,-100,4,2,99,85,0,1
149116,-100,4,2,99,85,0,0
149366,-100,4,2,99,85,0,1
151116,-100,4,2,99,85,0,0
151366,-100,4,2,99,85,0,1
153116,-100,4,2,99,85,0,0
153366,-100,4,2,99,85,0,1
154366,-100,4,2,98,85,0,1
155366,-100,4,2,1,85,0,0
158366,-100,4,2,98,85,0,0
159366,-100,4,2,1,85,0,1
161241,-100,4,2,1,85,0,0
161366,-100,4,2,98,85,0,1
162241,-100,4,2,98,85,0,1
163366,-100,4,2,1,70,0,0
171366,-100,4,2,1,85,0,1
178366,-100,4,2,98,85,0,1
179366,-100,4,2,98,85,0,1
179616,-100,4,2,1,85,0,1
181366,-100,4,2,98,85,0,1
181616,-100,4,2,1,85,0,1
183241,-100,4,2,98,85,0,1
183616,-100,4,2,1,85,0,1
185241,-100,4,2,98,85,0,1
185616,-100,4,2,1,85,0,1
186366,-100,4,2,98,85,0,1
187241,-333,4,2,1,85,0,0
187803,-333,4,2,1,5,0,0

[Colours]
Combo1 : 151,0,0
Combo2 : 243,109,46
Combo3 : 184,52,14
Combo4 : 215,215,215
Combo5 : 126,126,126
Combo6 : 255,201,174
Combo7 : 255,156,108
Combo8 : 230,0,0
SliderBorder : 255,204,153

[HitObjects]
116,192,12553,117,0,0:0:0:0:
396,192,12803,1,0,0:0:0:0:
256,192,13366,12,0,19241,0:0:0:0:
58,62,19366,37,2,0:2:0:0:
64,97,19491,1,0,0:0:0:0:
70,132,19616,1,2,0:2:0:0:
16,240,19866,1,2,0:2:0:0:
164,314,20241,2,0,P|203:339|257:342,2,89.9999952316285,2|2|2,0:2|0:2|0:2,0:0:0:0:
78,285,20991,2,0,L|61:341,2,44.9999976158143,0|2|0,0:0|0:2|0:0,0:0:0:0:
157,167,21366,5,2,0:2:0:0:
192,173,21491,1,0,0:0:0:0:
228,180,21616,1,2,0:2:0:0:
330,94,21866,1,2,0:2:0:0:
481,67,22241,2,0,L|470:112,1,44.9999976158143,2|0,0:2|0:0,0:0:0:0:
430,130,22491,2,0,L|419:175,1,44.9999976158143,2|0,0:2|0:0,0:0:0:0:
378,197,22741,2,0,L|367:242,1,44.9999976158143,2|0,0:2|0:0,0:0:0:0:
302,319,22991,102,0,L|291:364,2,44.9999976158143,0|2|0,0:0|0:2|0:0,0:0:0:0:
261,206,23366,1,2,0:2:0:0:
254,170,23491,1,0,0:0:0:0:
248,135,23616,1,2,0:2:0:0:
344,47,23866,1,2,0:2:0:0:
180,23,24241,1,2,0:2:0:0:
157,103,24491,1,2,0:2:0:0:
136,183,24741,1,2,0:2:0:0:
43,307,24991,6,0,P|16:302|-2:292,2,44.9999976158143,0|2|0,0:0|0:2|0:0,0:0:0:0:
167,340,25366,1,2,0:2:0:0:
203,333,25491,1,0,0:0:0:0:
238,327,25616,1,2,0:2:0:0:
302,222,25866,1,2,0:2:0:0:
433,346,26241,2,0,P|401:310|344:292,1,89.9999952316285,2|2,0:2|0:2,0:0:0:0:
238,327,26741,1,2,0:2:0:0:
145,240,26991,2,0,L|100:243,2,44.9999976158143,0|2|2,0:0|0:2|0:2,0:0:0:0:
207,136,27366,102,0,L|274:129,1,67.499998998642,6|0,0:2|0:0,0:0:0:0:
369,9,27616,2,0,P|357:38|354:74,1,67.499998998642,2|0,0:2|0:0,0:0:0:0:
431,238,27866,2,0,P|445:208|446:173,1,67.499998998642,2|0,0:2|0:0,0:0:0:0:
362,184,28116,1,0,0:0:0:0:
352,273,28241,2,0,L|279:286,1,67.499998998642,2|0,0:2|0:0,0:0:0:0:
210,243,28491,2,0,L|137:256,1,67.499998998642,2|0,0:2|0:0,0:0:0:0:
62,355,28741,2,0,B|32:318|32:318|63:210,1,134.999997997284,2|0,0:2|0:0,0:0:0:0:
13,138,29116,1,2,0:2:0:0:
13,138,29241,1,0,0:0:0:0:
13,138,29366,6,0,P|47:126|79:127,1,67.499998998642,6|0,0:2|0:0,0:0:0:0:
158,174,29616,1,2,0:2:0:0:
217,21,29866,2,0,P|263:68|333:80,1,134.999997997284,2|0,0:2|0:0,0:0:0:0:
442,28,30241,2,0,L|426:107,1,67.499998998642,2|0,0:2|0:0,0:0:0:0:
480,169,30491,2,0,L|464:248,1,67.499998998642,2|0,0:2|0:0,0:0:0:0:
439,349,30741,2,0,B|365:336|395:293|327:282,1,134.999997997284,2|0,0:2|0:0,0:0:0:0:
170,240,31116,2,0,P|199:222|232:217,1,67.499998998642,2|0,0:2|0:0,0:0:0:0:
332,181,31366,101,6,0:2:0:0:
324,137,31491,1,0,0:0:0:0:
317,93,31616,2,0,L|304:20,1,67.499998998642,2|0,0:2|0:0,0:0:0:0:
181,66,31866,2,0,L|168:-7,2,67.499998998642,2|0|0,0:2|0:0|0:0,0:0:0:0:
236,170,32241,1,2,0:2:0:0:
49,136,32491,1,2,0:2:0:0:
106,337,32741,2,0,L|176:346,1,67.499998998642,2|0,0:2|0:0,0:0:0:0:
261,230,32991,2,0,P|251:189|236:170,2,67.499998998642,0|2|0,0:0|0:2|0:0,0:0:0:0:
353,363,33366,6,0,L|362:293,1,67.499998998642,6|0,0:2|0:0,0:0:0:0:
428,219,33616,2,0,L|437:149,1,67.499998998642,2|0,0:2|0:0,0:0:0:0:
450,62,33866,1,2,0:2:0:0:
238,103,34241,2,0,B|188:87|188:87|171:57|171:57|125:42,2,134.999997997284,2|2|2,0:2|0:2|0:2,0:0:0:0:
441,20,34991,1,0,3:0:0:0:
496,84,35116,1,10,1:2:0:0:
415,96,35241,1,0,0:0:0:0:
306,47,35366,70,0,P|266:68|238:103,1,89.9999952316285,6|2,3:2|3:2,0:0:0:0:
142,131,35616,2,0,P|140:175|155:217,1,89.9999952316285,10|0,1:2|0:0,0:0:0:0:
104,303,35866,2,0,P|179:350|266:365,1,179.999990463257,2|8,3:2|1:2,0:0:0:0:
456,287,36241,6,0,B|448:242|448:242|417:201,1,89.9999952316285,2|0,0:2|3:0,0:0:0:0:
264,274,36491,2,0,B|306:289|306:289|357:283,1,89.9999952316285,2|8,3:2|1:2,0:0:0:0:
371,114,36741,2,0,B|336:143|336:143|316:190,1,89.9999952316285,2|0,3:2|0:0,0:0:0:0:
171,243,36991,1,2,3:2:0:0:
104,303,37116,1,10,1:2:0:0:
19,271,37241,1,2,0:2:0:0:
1,182,37366,102,0,L|30:95,1,89.9999952316285,6|0,3:2|3:2,0:0:0:0:
145,0,37616,2,0,B|169:58|169:58|131:175,1,179.999990463257,10|2,1:2|3:2,0:0:0:0:
211,348,38116,1,8,1:2:0:0:
283,294,38241,6,0,P|322:271|370:268,1,89.9999952316285,2|0,3:2|0:0,0:0:0:0:
467,306,38491,2,0,L|460:207,1,89.9999952316285,2|8,3:2|1:2,0:0:0:0:
367,3,38741,2,0,L|380:187,1,179.999990463257,2|2,3:2|3:2,0:0:0:0:
283,294,39116,1,10,1:2:0:0:
216,233,39241,1,0,0:2:0:0:
240,146,39366,102,0,P|202:113|149:105,1,89.9999952316285,6|0,3:2|3:0,0:0:0:0:
48,145,39616,1,10,1:2:0:0:
257,21,39866,1,2,3:2:0:0:
328,214,40116,1,8,1:2:0:0:
283,294,40241,6,0,B|371:306|371:306|422:229,1,179.999990463257,2|2,3:2|3:2,0:0:0:0:
482,118,40616,1,8,1:2:0:0:
425,45,40741,2,0,P|380:50|341:81,1,89.9999952316285,2|0,3:2|0:0,0:0:0:0:
328,214,40991,1,2,3:2:0:0:
238,215,41116,1,10,1:2:0:0:
175,280,41241,1,2,3:2:0:0:
97,234,41366,102,0,L|76:146,2,89.9999952316285,6|0|10,3:2|3:0|1:2,0:0:0:0:
181,126,41741,1,0,0:0:0:0:
181,126,41866,2,0,L|202:38,1,89.9999952316285,2|0,3:2|0:0,0:0:0:0:
344,18,42116,1,8,1:2:0:0:
378,101,42241,1,2,3:2:0:0:
469,135,42366,6,0,P|405:206|408:306,1,179.999990463257,4|8,1:2|1:2,0:0:0:0:
300,372,42741,2,0,B|264:262|264:262|196:218,1,179.999990463257,6|2,1:2|1:2,0:0:0:0:
28,250,43116,2,0,L|103:298,1,89.9999952316285,14|2,1:2|0:2,0:0:0:0:
268,139,43366,101,6,3:2:0:0:
178,129,43491,1,0,3:0:0:0:
124,201,43616,2,0,P|96:167|90:121,1,89.9999952316285,10|0,1:2|0:0,0:0:0:0:
0,105,43866,2,0,P|15:63|52:35,1,89.9999952316285,2|0,3:2|0:0,0:0:0:0:
230,43,44116,1,8,1:2:0:0:
268,139,44241,6,0,L|364:114,1,89.9999952316285,2|0,3:2|0:0,0:0:0:0:
494,222,44491,2,0,L|406:199,1,89.9999952316285,2|8,3:2|1:2,0:0:0:0:
230,276,44741,2,0,L|326:251,1,89.9999952316285,2|0,3:2|0:0,0:0:0:0:
169,156,44991,1,2,3:2:0:0:
79,148,45116,1,10,1:2:0:0:
30,223,45241,1,2,1:2:0:0:
70,303,45366,102,0,P|109:272|122:234,1,89.9999952316285,6|0,3:2|3:0,0:0:0:0:
181,31,45616,2,0,B|96:60|96:60|78:147,1,179.999990463257,10|2,1:2|3:2,0:0:0:0:
348,80,46116,1,8,1:2:0:0:
412,143,46241,6,0,P|376:167|330:169,1,89.9999952316285,2|0,3:2|0:0,0:0:0:0:
165,193,46491,2,0,P|208:197|244:225,1,89.9999952316285,2|8,3:2|1:2,0:0:0:0:
347,357,46741,2,0,L|331:269,1,89.9999952316285,2|0,3:2|0:0,0:0:0:0:
222,123,46991,1,2,3:2:0:0:
165,193,47116,1,10,1:2:0:0:
211,269,47241,1,2,0:2:0:0:
222,358,47366,102,0,B|171:361|140:326|140:326|108:289|62:293,2,179.999990463257,6|10|2,3:2|1:2|3:2,0:0:0:0:
431,214,48116,1,8,1:2:0:0:
401,114,48241,6,0,P|362:92|315:91,1,89.9999952316285,2|0,3:2|0:0,0:0:0:0:
368,273,48491,2,0,P|406:251|430:213,1,89.9999952316285,2|8,3:2|1:2,0:0:0:0:
240,168,48741,2,0,P|241:212|262:251,1,89.9999952316285,2|0,3:2|0:0,0:0:0:0:
317,90,48991,1,2,3:2:0:0:
235,51,49116,1,10,1:2:0:0:
158,97,49241,1,2,3:2:0:0:
75,61,49366,102,0,L|61:167,1,89.9999952316285,6|0,3:2|3:0,0:0:0:0:
50,263,49616,1,10,1:2:0:0:
302,192,49866,2,0,B|268:163|268:163|217:157,1,89.9999952316285,2|0,3:2|3:0,0:0:0:0:
173,278,50116,2,0,B|207:307|207:307|258:313,1,89.9999952316285,8|2,1:2|3:2,0:0:0:0:
393,311,50366,6,0,P|419:275|422:220,1,89.9999952316285,4|2,1:2|3:2,0:0:0:0:
358,133,50616,1,8,3:0:0:0:
500,180,50741,2,0,P|481:139|435:109,1,89.9999952316285,6|0,1:2|3:0,0:0:0:0:
342,148,50991,1,2,1:2:0:0:
422,23,51116,2,0,P|377:18|328:43,1,89.9999952316285,14|2,1:2|1:2,0:0:0:0:
208,28,51366,38,0,L|189:115,1,76.4999974060059,6|0,3:2|0:0,0:0:0:0:
101,148,51616,1,10,1:2:0:0:
101,148,51741,2,0,L|84:222,1,76.4999974060059,2|0,0:2|3:0,0:0:0:0:
66,321,51991,2,0,P|98:339|144:341,1,76.4999974060059,2|8,3:2|1:2,0:0:0:0:
233,242,52241,6,0,P|304:232|379:281,1,152.999994812012,2|2,3:2|3:2,0:0:0:0:
447,340,52616,1,8,1:2:0:0:
447,340,52741,2,0,L|460:257,1,76.4999974060059,2|0,3:2|0:0,0:0:0:0:
400,130,52991,1,0,3:0:0:0:
324,115,53116,1,8,1:2:0:0:
266,165,53241,1,0,0:0:0:0:
212,110,53366,102,0,P|185:86|131:77,1,76.4999974060059,6|0,3:2|0:0,0:0:0:0:
32,162,53616,1,10,1:2:0:0:
32,162,53741,2,0,L|9:236,1,76.4999974060059,2|2,0:2|3:2,0:0:0:0:
96,361,53991,2,0,P|112:324|110:278,1,76.4999974060059,0|8,0:0|1:2,0:0:0:0:
198,193,54241,6,0,B|236:189|264:220|264:220|290:250|333:248,1,152.999994812012,2|2,3:2|3:2,0:0:0:0:
405,329,54616,2,0,P|428:298|435:253,1,76.4999974060059,10|2,1:2|3:2,0:0:0:0:
497,199,54866,2,0,P|481:163|446:135,1,76.4999974060059,2|2,0:2|3:2,0:0:0:0:
378,26,55116,1,8,1:2:0:0:
307,55,55241,1,0,0:3:0:0:
233,32,55366,102,0,P|155:31|81:84,1,152.999994812012,6|10,3:2|1:2,0:0:0:0:
28,183,55741,2,0,B|23:222|23:222|39:258,1,76.4999974060059,2|0,0:2|3:0,0:0:0:0:
132,355,55991,2,0,B|137:316|137:316|121:280,1,76.4999974060059,2|8,3:2|1:2,0:0:0:0:
145,135,56241,2,0,B|140:174|140:174|156:210,1,76.4999974060059,2|0,0:2|3:0,0:0:0:0:
249,307,56491,2,0,B|254:268|254:268|238:232,1,76.4999974060059,2|8,3:2|1:2,0:0:0:0:
268,84,56741,2,0,B|263:123|263:123|279:159,1,76.4999974060059,2|0,3:2|0:0,0:0:0:0:
364,349,56991,2,0,B|348:297|348:297|365:262|365:262|347:205,1,152.999994812012,2|0,3:2|0:3,0:0:0:0:
173,101,57366,6,0,P|135:82|98:85,1,76.4999974060059,6|0,3:2|0:0,0:0:0:0:
65,226,57616,2,0,P|102:244|139:241,1,76.4999974060059,10|0,1:2|0:0,0:0:0:0:
268,84,57866,2,0,L|290:-2,2,76.4999974060059,2|2|10,3:2|3:2|1:2,0:0:0:0:
220,277,58241,1,2,3:2:0:0:
293,207,58366,102,0,P|325:185|366:182,1,76.4999974060059,4|0,1:2|3:0,0:0:0:0:
489,230,58616,1,8,1:2:0:0:
341,343,58741,2,0,P|337:304|355:267,1,76.4999974060059,4|0,1:2|0:0,0:0:0:0:
489,210,58991,1,0,1:2:0:0:
481,365,59116,2,0,P|445:348|422:314,1,76.4999974060059,12|0,1:2|0:0,0:0:0:0:
445,121,59366,54,0,B|387:88|387:88|260:103,1,179.999990463257,6|10,3:2|1:2,0:0:0:0:
67,268,59866,1,0,3:0:0:0:
67,268,59991,2,0,P|91:228|138:210,1,89.9999952316285,2|8,3:2|1:2,0:0:0:0:
343,263,60241,6,0,L|254:279,1,89.9999952316285,2|0,3:2|0:0,0:0:0:0:
113,123,60491,2,0,P|159:123|198:155,1,89.9999952316285,2|8,3:2|1:2,0:0:0:0:
192,336,60741,2,0,B|235:325|254:279|254:279|271:235|319:220,1,179.999990463257,2|0,3:2|3:0,0:0:0:0:
463,91,61116,1,8,1:2:0:0:
396,30,61241,1,0,0:0:0:0:
308,49,61366,102,0,L|292:146,1,89.9999952316285,6|0,3:2|3:0,0:0:0:0:
412,263,61616,2,0,L|396:166,1,89.9999952316285,10|2,1:2|3:2,0:0:0:0:
222,80,61866,1,0,3:2:0:0:
222,80,61991,2,0,P|179:97|146:136,1,89.9999952316285,2|8,3:2|1:0,0:0:0:0:
146,293,62241,6,0,B|218:344|218:344|316:329,2,179.999990463257,2|2|2,3:2|3:2|3:2,0:0:0:0:
54,87,62991,1,2,3:2:0:0:
141,45,63116,2,0,P|185:53|221:79,1,89.9999952316285,10|0,1:2|3:0,0:0:0:0:
275,203,63366,102,0,L|296:297,1,89.9999952316285,6|0,3:2|3:0,0:0:0:0:
245,363,63616,2,0,L|150:384,1,89.9999952316285,10|0,1:2|0:0,0:0:0:0:
78,331,63866,2,0,L|56:236,1,89.9999952316285,2|0,3:2|3:0,0:0:0:0:
107,171,64116,2,0,L|201:149,1,89.9999952316285,10|0,1:2|0:0,0:0:0:0:
342,182,64366,6,0,P|376:183|406:168,1,67.499998998642,2|0,3:2|3:0,0:0:0:0:
449,103,64616,2,0,P|450:69|435:39,1,67.499998998642,10|0,1:2|3:0,0:0:0:0:
366,6,64866,2,0,P|332:5|302:20,1,67.499998998642,2|0,3:2|3:0,0:0:0:0:
260,83,65116,2,0,P|259:117|274:147,1,67.499998998642,10|0,1:2|3:0,0:0:0:0:
477,208,65366,102,0,L|520:216,4,33.749999499321,6|0|0|0|10,1:2|1:0|1:0|1:0|1:2,0:0:0:0:
275,334,65866,1,2,0:2:0:0:
359,303,65991,2,0,P|385:267|391:218,1,89.9999952316285,2|10,0:2|1:2,0:0:0:0:
335,87,66241,1,2,3:2:0:0:
500,114,66366,6,0,L|413:140,1,89.9999952316285,4|0,1:2|0:0,0:0:0:0:
287,185,66616,1,8,1:0:0:0:
246,379,66741,2,0,L|266:291,1,89.9999952316285,4|0,1:2|0:3,0:0:0:0:
291,159,66991,1,0,3:0:0:0:
146,28,67116,2,0,L|211:89,1,89.9999952316285,12|0,1:2|1:2,0:0:0:0:
313,176,67366,38,0,P|219:187|156:259,2,179.999990463257,4|8|0,3:2|1:0|3:0,0:0:0:0:
59,22,68116,2,0,L|69:127,1,89.9999952316285,8|0,1:0|3:0,0:0:0:0:
161,245,68366,21,2,3:2:0:0:
46,206,68491,1,0,3:0:0:0:
129,341,68616,2,0,P|174:346|222:327,1,89.9999952316285,10|0,1:2|3:0,0:0:0:0:
313,176,68866,1,2,3:2:0:0:
440,267,68991,1,0,3:0:0:0:
470,68,69116,2,0,L|425:147,1,89.9999952316285,10|0,1:2|3:0,0:0:0:0:
258,260,69366,6,0,L|235:299,4,44.9999976158143,6|2|2|2|10,3:2|0:2|3:2|0:0|1:2,0:0:0:0:
241,121,69741,1,0,3:0:0:0:
241,121,69866,2,0,P|205:90|143:82,1,89.9999952316285,2|0,3:2|0:0,0:0:0:0:
26,196,70116,2,0,P|62:165|124:157,1,89.9999952316285,8|0,1:0|3:0,0:0:0:0:
341,291,70366,102,0,B|288:293|258:258|258:258|225:221|181:226,1,179.999990463257,0|8,3:0|1:0,0:0:0:0:
357,194,70741,2,0,B|400:209|400:209|429:243,1,89.9999952316285,0|0,3:3|3:0,0:0:0:0:
420,347,70991,1,2,3:2:0:0:
506,220,71116,1,0,0:0:0:0:
341,291,71241,1,2,3:2:0:0:
388,106,71366,22,0,L|296:123,1,89.9999952316285,6|0,3:2|3:0,0:0:0:0:
149,70,71616,1,10,1:2:0:0:
82,140,71741,1,2,3:2:0:0:
125,218,71866,2,0,P|168:217|214:239,1,89.9999952316285,2|2,3:2|3:2,0:0:0:0:
357,194,72116,1,10,1:2:0:0:
424,264,72241,1,2,3:2:0:0:
381,342,72366,6,0,P|338:341|292:363,1,89.9999952316285,2|0,3:2|3:0,0:0:0:0:
148,304,72616,2,0,L|124:214,1,89.9999952316285,10|0,1:2|3:0,0:0:0:0:
89,69,72866,2,0,P|135:67|181:87,1,89.9999952316285,2|0,3:2|3:0,0:0:0:0:
279,197,73116,2,0,L|303:107,1,89.9999952316285,10|0,1:2|3:0,0:0:0:0:
448,20,73366,102,0,B|486:73|486:73|450:203,1,179.999990463257,6|10,3:2|1:2,0:0:0:0:
247,346,73866,2,0,P|248:301|229:260,1,89.9999952316285,2|6,3:2|3:2,0:0:0:0:
51,185,74116,1,10,1:2:0:0:
110,284,74241,1,6,3:2:0:0:
158,120,74366,6,0,L|246:78,1,89.9999952316285,4|0,1:2|3:0,0:0:0:0:
394,104,74616,1,8,1:2:0:0:
227,215,74741,2,0,L|315:173,1,89.9999952316285,4|0,1:2|3:0,0:0:0:0:
463,199,74991,1,0,1:2:0:0:
300,312,75116,2,0,L|388:270,1,89.9999952316285,12|0,1:2|3:2,0:0:0:0:
478,86,75366,70,0,P|433:84|394:104,1,89.9999952316285,6|0,3:2|3:0,0:0:0:0:
308,26,75616,2,0,P|283:63|281:107,1,89.9999952316285,10|0,1:2|0:0,0:0:0:0:
313,316,75866,2,0,P|288:278|286:234,1,89.9999952316285,2|0,3:2|3:0,0:0:0:0:
483,256,76116,2,0,P|438:258|398:238,1,89.9999952316285,10|0,1:2|3:0,0:0:0:0:
281,107,76366,6,0,B|228:109|198:74|198:74|165:37|121:42,2,179.999990463257,2|8|2,0:2|1:0|0:2,0:0:0:0:
34,163,77116,2,0,L|45:253,1,89.9999952316285,8|0,1:0|3:0,0:0:0:0:
146,351,77366,102,0,P|153:306|181:262,1,89.9999952316285,6|0,3:2|3:0,0:0:0:0:
263,218,77616,1,8,1:0:0:0:
472,88,77866,2,0,L|365:66,1,89.9999952316285,2|0,3:2|3:0,0:0:0:0:
284,179,78116,2,0,L|372:160,1,89.9999952316285,8|0,1:0|0:0,0:0:0:0:
498,335,78366,6,0,B|431:313|431:313|408:273|408:273|348:253,2,179.999990463257,2|8|2,3:2|1:0|0:2,0:0:0:0:
227,342,79116,1,8,1:0:0:0:
169,241,79241,1,0,0:3:0:0:
52,246,79366,102,0,B|100:169|100:169|185:128,1,179.999990463257,6|8,3:2|1:0,0:0:0:0:
411,30,79866,2,0,P|390:71|393:116,1,89.9999952316285,0|0,3:0|3:0,0:0:0:0:
465,180,80116,2,0,P|486:221|483:266,1,89.9999952316285,8|0,1:0|0:0,0:0:0:0:
372,340,80366,21,2,3:2:0:0:
316,216,80491,1,2,3:2:0:0:
380,357,80616,2,0,L|290:352,1,89.9999952316285,10|2,1:2|3:2,0:0:0:0:
138,264,80866,1,2,0:2:0:0:
194,140,80991,1,2,3:2:0:0:
130,281,81116,2,0,L|219:276,1,89.9999952316285,10|2,1:2|3:2,0:0:0:0:
316,216,81366,5,6,3:2:0:0:
63,121,81616,1,8,1:0:0:0:
289,36,81866,2,0,P|333:47|371:83,1,89.9999952316285,0|0,3:0|3:0,0:0:0:0:
455,82,82116,2,0,P|467:125|455:176,1,89.9999952316285,8|0,1:0|3:0,0:0:0:0:
329,349,82366,102,0,P|242:349|187:277,1,179.999990463257,6|8,1:2|1:0,0:0:0:0:
241,162,82741,2,0,P|328:162|383:234,1,179.999990463257,4|0,1:2|1:0,0:0:0:0:
329,349,83116,1,12,1:2:0:0:
287,254,83241,1,0,1:2:0:0:
159,198,83366,54,0,B|49:221|49:221|2:281,2,179.999990463257,4|8|0,3:2|1:0|3:0,0:0:0:0:
372,20,84116,2,0,L|284:40,1,89.9999952316285,8|0,1:0|3:0,0:0:0:0:
166,58,84366,21,2,3:2:0:0:
267,140,84491,1,0,3:0:0:0:
229,256,84616,2,0,P|193:283|150:291,1,89.9999952316285,10|2,1:2|3:2,0:0:0:0:
66,208,84866,1,2,3:2:0:0:
87,354,84991,1,2,3:2:0:0:
159,198,85116,2,0,B|146:155|146:155|102:120,1,89.9999952316285,10|2,1:2|3:2,0:0:0:0:
51,51,85366,6,0,L|16:23,4,44.9999976158143,6|2|2|2|10,3:2|0:2|3:2|0:0|1:2,0:0:0:0:
203,32,85741,1,0,3:0:0:0:
203,32,85866,2,0,P|246:43|279:72,1,89.9999952316285,2|0,3:2|0:0,0:0:0:0:
112,178,86116,2,0,P|148:147|210:139,1,89.9999952316285,8|0,1:0|3:0,0:0:0:0:
365,177,86366,102,0,B|321:172|288:209|288:209|258:244|205:242,1,179.999990463257,0|8,3:0|1:0,0:0:0:0:
81,312,86741,2,0,B|110:346|110:346|153:361,1,89.9999952316285,0|0,3:3|3:0,0:0:0:0:
276,347,86991,1,2,3:2:0:0:
204,241,87116,1,0,0:0:0:0:
365,263,87241,1,2,3:2:0:0:
393,91,87366,22,0,P|347:89|306:106,1,89.9999952316285,6|0,3:2|3:0,0:0:0:0:
180,39,87616,1,10,1:2:0:0:
81,112,87741,1,2,3:2:0:0:
204,52,87866,2,0,L|230:139,1,89.9999952316285,2|2,3:2|3:2,0:0:0:0:
208,296,88116,1,10,1:2:0:0:
307,223,88241,1,2,3:2:0:0:
184,283,88366,6,0,L|157:195,1,89.9999952316285,2|0,3:2|3:0,0:0:0:0:
385,270,88616,2,0,L|408:356,1,89.9999952316285,10|0,1:2|3:0,0:0:0:0:
440,143,88866,2,0,P|398:126|353:129,1,89.9999952316285,2|0,3:2|3:0,0:0:0:0:
270,296,89116,2,0,P|225:299|184:283,1,89.9999952316285,10|0,1:2|3:0,0:0:0:0:
58,348,89366,102,0,B|20:295|20:295|56:165,1,179.999990463257,6|10,3:2|1:2,0:0:0:0:
312,120,89866,2,0,P|313:75|294:34,1,89.9999952316285,2|6,3:2|3:2,0:0:0:0:
168,37,90116,1,10,1:2:0:0:
148,153,90241,1,6,3:2:0:0:
228,240,90366,6,0,B|274:235|274:235|316:198,1,89.9999952316285,4|0,1:2|3:0,0:0:0:0:
394,96,90616,1,8,1:2:0:0:
249,65,90741,2,0,B|203:70|203:70|161:107,1,89.9999952316285,4|0,1:2|0:0,0:0:0:0:
83,209,90991,1,0,1:2:0:0:
238,262,91116,2,0,B|284:257|284:257|326:220,1,89.9999952316285,12|0,1:2|0:0,0:0:0:0:
412,35,91366,70,0,L|436:126,1,89.9999952316285,6|0,3:2|3:0,0:0:0:0:
422,334,91616,2,0,L|398:243,1,89.9999952316285,10|0,1:2|0:0,0:0:0:0:
286,70,91866,2,0,L|310:161,1,89.9999952316285,2|0,3:2|3:0,0:0:0:0:
296,369,92116,2,0,L|272:278,1,89.9999952316285,10|0,1:2|3:0,0:0:0:0:
156,107,92366,6,0,P|104:39|15:14,2,179.999990463257,2|8|2,0:2|1:0|0:2,0:0:0:0:
40,360,93116,2,0,L|32:264,1,89.9999952316285,8|0,1:0|0:0,0:0:0:0:
75,126,93366,102,0,P|78:81|105:43,1,89.9999952316285,6|0,3:2|3:0,0:0:0:0:
222,28,93616,1,8,1:0:0:0:
456,262,93866,2,0,L|349:240,1,89.9999952316285,2|0,3:2|3:0,0:0:0:0:
396,101,94116,2,0,L|308:120,1,89.9999952316285,8|0,1:0|0:0,0:0:0:0:
328,332,94366,6,0,B|261:310|261:310|238:270|238:270|178:250,2,179.999990463257,2|8|2,3:2|1:0|0:2,0:0:0:0:
308,119,95116,1,8,1:0:0:0:
217,59,95241,1,0,0:3:0:0:
114,90,95366,102,0,B|87:274,1,179.999990463257,6|8,3:2|1:0,0:0:0:0:
328,332,95866,2,0,P|329:287|309:248,1,89.9999952316285,0|0,3:0|3:0,0:0:0:0:
207,194,96116,2,0,P|205:149|225:110,1,89.9999952316285,8|0,1:0|0:0,0:0:0:0:
333,64,96366,21,2,3:2:0:0:
481,132,96491,1,2,3:2:0:0:
383,174,96616,2,0,L|293:169,1,89.9999952316285,10|2,1:2|3:2,0:0:0:0:
185,5,96866,1,2,0:2:0:0:
37,73,96991,1,2,3:2:0:0:
135,115,97116,2,0,L|225:110,1,89.9999952316285,10|2,1:2|3:2,0:0:0:0:
383,174,97366,5,6,3:2:0:0:
96,304,97616,1,8,1:0:0:0:
360,345,97866,2,0,P|382:306|385:262,1,89.9999952316285,0|0,3:0|3:0,0:0:0:0:
442,187,98116,2,0,P|427:144|395:114,1,89.9999952316285,8|0,1:0|0:0,0:0:0:0:
251,35,98366,102,0,B|186:64|186:64|142:51|142:51|85:77,1,179.999990463257,6|8,1:2|1:0,0:0:0:0:
89,268,98741,2,0,B|146:294|146:294|190:280|190:280|254:310,1,179.999990463257,4|0,1:2|1:0,0:0:0:0:
336,173,99116,2,0,B|243:173,1,89.9999952316285,12|0,1:2|1:3,0:0:0:0:
159,190,99366,22,0,P|221:143|233:88,2,134.999997997284,0|0|8,3:3|3:3|1:0,0:0:0:0:
78,225,99991,2,0,B|147:229|147:229|204:265,1,134.999997997284,0|0,3:3|3:3,0:0:0:0:
211,350,100366,2,0,P|245:342|274:314,1,67.499998998642,0|8,0:0|1:3,0:0:0:0:
353,318,100616,2,0,P|363:284|353:245,1,67.499998998642,0|0,0:0|3:3,0:0:0:0:
400,179,100866,2,0,B|328:172|328:172|272:124,1,134.999997997284,0|8,0:0|1:3,0:0:0:0:
222,73,101241,1,0,3:3:0:0:
105,105,101366,6,0,P|141:160|206:186,1,134.999997997284,0|0,3:3|3:3,0:0:0:0:
444,255,101866,1,8,1:0:0:0:
444,255,101991,2,0,P|381:250|309:286,1,134.999997997284,0|0,3:3|3:3,0:0:0:0:
261,346,102366,2,0,L|195:334,1,67.499998998642,0|8,0:0|1:3,0:0:0:0:
131,272,102616,2,0,L|65:284,2,67.499998998642,0|0|0,0:0|3:3|0:0,0:0:0:0:
199,217,102991,1,0,3:3:0:0:
166,135,103116,2,0,P|175:101|202:69,1,67.499998998642,8|8,1:3|1:3,0:0:0:0:
289,8,103366,102,0,P|391:-2|468:69,1,202.499996995926,0|0,3:3|0:0,0:0:0:0:
425,197,103866,2,0,P|323:207|246:136,1,202.499996995926,8|0,1:0|3:3,0:0:0:0:
194,75,104366,2,0,L|121:97,1,67.499998998642,0|8,0:0|1:3,0:0:0:0:
29,150,104616,2,0,L|102:172,1,67.499998998642,0|0,0:0|3:3,0:0:0:0:
145,252,104866,2,0,L|281:293,1,134.999997997284,0|8,0:0|1:3,0:0:0:0:
364,316,105241,1,0,0:3:0:0:
334,198,105366,6,0,P|384:161|467:153,2,134.999997997284,0|0|8,3:3|3:3|1:0,0:0:0:0:
274,290,105991,2,0,L|285:362,2,67.499998998642,0|0|0,3:3|0:0|3:3,0:0:0:0:
212,205,106366,1,0,0:0:0:0:
212,205,106491,2,0,B|204:157|204:157|179:126|179:126|171:74,1,134.999997997284,8|0,1:3|3:3,0:0:0:0:
246,20,106866,2,0,L|319:15,1,67.499998998642,0|0,0:0|3:3,0:0:0:0:
87,123,107116,2,0,L|9:129,1,67.499998998642,8|0,1:3|3:3,0:0:0:0:
212,205,107366,102,0,P|274:158|286:103,2,134.999997997284,0|0|8,3:3|3:3|1:0,0:0:0:0:
119,203,107991,2,0,B|142:343,1,134.999997997284,0|0,3:3|3:3,0:0:0:0:
252,373,108366,2,0,P|284:361|310:330,1,67.499998998642,0|8,0:0|1:3,0:0:0:0:
306,197,108616,2,0,P|299:231|313:269,1,67.499998998642,0|0,0:0|3:3,0:0:0:0:
497,360,108866,2,0,P|447:317|372:303,1,134.999997997284,0|8,0:0|1:3,0:0:0:0:
306,338,109241,1,0,3:3:0:0:
390,221,109366,6,0,B|416:173|416:173|390:87,1,134.999997997284,0|0,3:3|3:3,0:0:0:0:
161,46,109866,1,8,1:0:0:0:
161,46,109991,2,0,P|178:107|239:137,1,134.999997997284,0|0,3:3|3:3,0:0:0:0:
309,90,110366,2,0,L|324:20,1,67.499998998642,0|8,0:0|1:3,0:0:0:0:
277,219,110616,2,0,L|262:289,2,67.499998998642,0|0|0,0:0|3:3|0:0,0:0:0:0:
238,136,110991,1,0,3:3:0:0:
148,143,111116,2,0,P|115:151|84:179,1,67.499998998642,8|8,1:3|3:3,0:0:0:0:
59,274,111366,102,0,B|134:340|134:340|244:323,1,202.499996995926,0|0,3:3|0:0,0:0:0:0:
277,219,111866,2,0,B|202:153|202:153|92:170,1,202.499996995926,8|0,1:0|3:3,0:0:0:0:
18,107,112366,2,0,P|42:83|78:70,1,67.499998998642,0|8,0:0|1:3,0:0:0:0:
135,3,112616,2,0,P|167:11|197:36,1,67.499998998642,0|0,0:0|3:3,0:0:0:0:
262,95,112866,2,0,L|409:72,1,134.999997997284,0|8,0:0|1:3,0:0:0:0:
471,126,113241,1,0,3:3:0:0:
394,192,113366,6,0,P|420:252|479:299,2,134.999997997284,0|0|8,3:3|3:3|1:0,0:0:0:0:
395,74,113991,2,0,L|409:5,2,67.499998998642,0|0|0,3:3|0:0|3:3,0:0:0:0:
312,173,114366,1,0,0:0:0:0:
312,173,114491,2,0,B|266:180|266:180|235:205|235:205|187:213,1,134.999997997284,8|0,1:3|3:3,0:0:0:0:
117,144,114866,2,0,L|105:73,1,67.499998998642,8|0,1:3|3:3,0:0:0:0:
83,275,115116,2,0,L|95:346,1,67.499998998642,8|0,1:3|3:3,0:0:0:0:
260,361,115366,102,0,P|284:338|293:299,1,67.499998998642,2|0,3:2|0:0,0:0:0:0:
187,213,115616,2,0,P|194:245|224:272,1,67.499998998642,2|0,3:2|0:0,0:0:0:0:
357,220,115866,2,0,P|325:210|286:222,1,67.499998998642,10|0,1:2|0:0,0:0:0:0:
428,331,116116,1,0,0:0:0:0:
428,331,116241,2,0,L|443:258,1,67.499998998642,2|0,3:2|0:0,0:0:0:0:
463,175,116491,2,0,L|478:102,1,67.499998998642,10|0,1:2|0:0,0:0:0:0:
493,19,116741,2,0,L|338:63,1,134.999997997284,2|2,3:2|3:2,0:0:0:0:
269,80,117116,1,10,1:2:0:0:
235,89,117241,1,2,3:2:0:0:
198,100,117366,6,0,P|261:117|316:163,1,134.999997997284,2|2,3:2|3:2,0:0:0:0:
499,272,117866,2,0,P|466:278|433:299,1,67.499998998642,10|0,1:2|3:3,0:0:0:0:
394,361,118116,1,0,0:0:0:0:
280,337,118241,2,0,L|250:259,1,67.499998998642,2|0,3:2|0:0,0:0:0:0:
242,173,118491,2,0,L|272:251,1,67.499998998642,10|0,1:2|0:0,0:0:0:0:
213,384,118741,2,0,L|160:247,1,134.999997997284,2|2,3:2|3:2,0:0:0:0:
93,193,119116,1,10,1:2:0:0:
80,163,119241,1,2,3:2:0:0:
68,133,119366,102,0,P|93:109|126:99,1,67.499998998642,2|0,3:2|0:0,0:0:0:0:
232,121,119616,2,0,B|243:191|243:191|301:228,2,134.999997997284,2|10|0,3:2|1:2|0:0,0:0:0:0:
251,22,120241,2,0,P|283:31|308:54,1,67.499998998642,2|0,3:2|0:0,0:0:0:0:
403,49,120491,2,0,P|411:81|403:114,1,67.499998998642,10|0,1:2|0:0,0:0:0:0:
462,192,120741,2,0,P|438:215|405:225,1,67.499998998642,2|0,3:2|0:0,0:0:0:0:
257,305,120991,2,0,P|225:315|201:338,2,67.499998998642,2|10|2,3:2|1:2|3:2,0:0:0:0:
338,340,121366,6,0,L|324:181,1,134.999997997284,2|2,3:2|3:2,0:0:0:0:
226,19,121866,2,0,L|233:98,1,67.499998998642,10|0,1:2|0:0,0:0:0:0:
172,171,122116,1,0,0:0:0:0:
172,171,122241,2,0,P|140:150|100:154,1,67.499998998642,2|0,3:2|0:0,0:0:0:0:
42,215,122491,2,0,P|39:251|62:284,1,67.499998998642,10|0,1:2|0:0,0:0:0:0:
148,303,122741,2,0,P|179:285|197:249,1,67.499998998642,2|0,3:2|0:0,0:0:0:0:
299,141,122991,2,0,L|313:73,2,67.499998998642,2|10|2,3:2|1:2|3:2,0:0:0:0:
262,308,123366,102,0,L|328:321,1,67.499998998642,2|0,3:2|0:0,0:0:0:0:
363,240,123616,2,0,L|429:253,1,67.499998998642,2|0,3:2|0:0,0:0:0:0:
505,174,123866,2,0,L|439:161,1,67.499998998642,10|0,1:2|0:0,0:0:0:0:
356,65,124116,1,0,0:0:0:0:
356,65,124241,2,0,P|328:41|284:32,1,67.499998998642,2|0,3:2|0:0,0:0:0:0:
232,86,124491,2,0,P|197:98|167:131,1,67.499998998642,10|0,1:2|0:0,0:0:0:0:
189,202,124741,2,0,P|176:267|202:343,1,134.999997997284,2|2,3:2|3:2,0:0:0:0:
315,359,125116,1,10,1:2:0:0:
347,348,125241,1,2,3:2:0:0:
381,337,125366,6,0,B|430:319|430:319|462:330|462:330|506:314,1,134.999997997284,2|2,3:2|3:2,0:0:0:0:
456,90,125866,2,0,L|446:160,1,67.499998998642,10|0,1:2|3:3,0:0:0:0:
434,239,126116,1,0,0:0:0:0:
307,263,126241,2,0,P|270:262|241:245,1,67.499998998642,2|0,3:2|0:0,0:0:0:0:
172,299,126491,2,0,P|154:266|154:232,1,67.499998998642,10|0,1:2|0:0,0:0:0:0:
207,160,126741,2,0,B|226:82|226:82|187:36,1,134.999997997284,2|2,3:2|3:2,0:0:0:0:
103,39,127116,1,10,1:2:0:0:
88,73,127241,1,2,3:2:0:0:
73,107,127366,1,2,0:2:0:0:
427,169,127616,37,14,0:2:0:0:
102,221,127866,1,14,0:2:0:0:
285,346,128241,5,14,0:2:0:0:
233,21,128491,1,14,0:2:0:0:
285,346,128741,1,14,0:2:0:0:
105,183,128991,101,10,3:2:0:0:
204,166,129116,1,10,1:2:0:0:
304,214,129241,1,10,1:2:0:0:
404,200,129366,1,12,3:0:0:0:
279,21,129616,5,14,0:2:0:0:
227,346,129866,1,14,0:2:0:0:
85,169,130241,101,14,1:2:0:0:
410,221,130491,1,14,0:2:0:0:
85,169,130741,1,14,1:2:0:0:
425,309,130991,5,10,1:2:0:0:
410,221,131116,1,10,1:2:0:0:
395,134,131241,1,10,1:2:0:0:
322,74,131366,70,0,P|393:26|494:38,2,179.999990463257,4|8|0,3:2|1:0|3:0,0:0:0:0:
63,147,132116,2,0,L|161:162,1,89.9999952316285,8|0,1:0|3:0,0:0:0:0:
315,221,132366,6,0,B|253:231|253:231|223:266|223:266|153:278,1,179.999990463257,2|8,0:2|1:0,0:0:0:0:
366,363,132741,2,0,P|434:319|469:229,1,179.999990463257,2|0,0:2|3:0,0:0:0:0:
408,43,133116,2,0,L|392:137,1,89.9999952316285,10|10,1:2|1:2,0:0:0:0:
315,221,133366,102,0,L|299:127,1,89.9999952316285,6|0,3:2|3:0,0:0:0:0:
282,29,133616,1,8,1:0:0:0:
98,206,133866,1,0,3:0:0:0:
24,74,134116,2,0,P|63:54|110:56,1,89.9999952316285,8|0,1:0|3:0,0:0:0:0:
210,120,134366,6,0,L|175:305,1,179.999990463257,2|8,0:2|1:0,0:0:0:0:
313,365,134741,2,0,B|365:366|395:331|395:331|428:294|472:299,1,179.999990463257,2|0,3:2|3:0,0:0:0:0:
425,99,135116,2,0,P|382:80|327:77,1,89.9999952316285,10|0,1:2|1:0,0:0:0:0:
196,28,135366,102,0,L|100:39,1,89.9999952316285,6|2,3:2|3:2,0:0:0:0:
27,139,135616,2,0,L|116:149,1,89.9999952316285,10|2,1:2|0:2,0:0:0:0:
287,218,135866,1,2,3:2:0:0:
227,309,135991,1,2,3:2:0:0:
114,273,136116,2,0,P|150:240|193:230,1,89.9999952316285,10|2,1:2|3:2,0:0:0:0:
316,356,136366,6,0,L|412:345,1,89.9999952316285,2|2,3:2|3:2,0:0:0:0:
485,245,136616,2,0,L|396:235,1,89.9999952316285,10|2,1:2|3:2,0:0:0:0:
225,166,136866,1,2,3:2:0:0:
285,75,136991,1,2,3:2:0:0:
398,111,137116,2,0,P|362:144|319:154,1,89.9999952316285,10|2,1:2|1:2,0:0:0:0:
154,110,137366,102,0,B|143:57|143:57|111:26,2,89.9999952316285,6|2|10,3:2|3:2|1:2,0:0:0:0:
171,228,137741,1,2,3:2:0:0:
281,276,137866,2,0,B|292:329|292:329|324:360,2,89.9999952316285,2|2|10,3:2|3:2|1:2,0:0:0:0:
263,153,138241,1,2,3:2:0:0:
395,172,138366,6,0,B|347:68|347:68|276:41,1,179.999990463257,2|10,1:2|1:2,0:0:0:0:
129,129,138741,2,0,B|177:233|177:233|238:256,1,179.999990463257,2|0,1:2|3:0,0:0:0:0:
186,51,139116,2,0,B|141:37|141:37|87:44,1,89.9999952316285,8|0,1:0|1:0,0:0:0:0:
27,130,139366,37,6,3:2:0:0:
263,153,139616,1,8,1:0:0:0:
85,286,139866,2,0,L|74:349,2,59.9999968210857,2|0|0,3:2|0:0|0:0,0:0:0:0:
158,171,140116,2,0,L|168:111,2,59.9999968210857,10|0|0,1:0|0:0|0:0,0:0:0:0:
234,355,140366,5,2,0:2:0:0:
234,355,140449,2,0,P|258:368|299:372,1,59.9999968210857,0|0,0:0|0:0,0:0:0:0:
331,237,140616,1,10,1:0:0:0:
331,237,140699,2,0,P|312:260|287:277,1,59.9999968210857
117,289,140866,2,0,B|70:295|70:295|31:276,1,89.9999952316285,2|0,3:2|0:0,0:0:0:0:
54,133,141116,2,0,B|99:127|99:127|149:150,1,89.9999952316285,10|0,1:0|0:0,0:0:0:0:
88,210,141366,38,0,B|62:333|62:333|87:382,2,179.999990463257,6|8|0,3:2|1:0|3:0,0:0:0:0:
249,47,142116,2,0,L|341:60,1,89.9999952316285,8|0,1:0|3:0,0:0:0:0:
467,107,142366,6,0,P|383:146|339:231,1,179.999990463257,2|8,0:2|1:0,0:0:0:0:
115,353,142866,2,0,L|135:261,1,89.9999952316285,0|0,0:0|3:0,0:0:0:0:
64,196,143116,2,0,L|84:104,1,89.9999952316285,8|0,1:0|1:0,0:0:0:0:
63,7,143366,101,6,3:2:0:0:
149,28,143491,2,0,P|108:10|64:7,1,89.9999952316285,2|10,3:2|1:2,0:0:0:0:
202,112,143741,1,2,0:2:0:0:
284,76,143866,2,0,L|202:112,1,89.9999952316285,2|2,3:2|3:2,0:0:0:0:
423,199,144116,5,10,1:2:0:0:
340,163,144241,2,0,L|422:198,1,89.9999952316285,2|2,3:2|3:2,0:0:0:0:
327,274,144491,1,2,3:2:0:0:
241,296,144616,2,0,P|282:278|326:274,1,89.9999952316285,10|2,1:2|3:2,0:0:0:0:
178,206,144866,102,0,B|139:233|139:233|126:288,2,89.9999952316285,2|2|10,3:2|3:2|1:2,0:0:0:0:
202,86,145241,2,0,B|241:59|241:59|250:17,2,89.9999952316285,2|6|2,1:2|3:2|3:2,0:0:0:0:
98,137,145616,6,0,B|71:98|71:98|16:85,2,89.9999952316285,10|2|2,1:2|3:2|3:2,0:0:0:0:
275,162,145991,2,0,B|302:201|302:201|343:210,2,89.9999952316285,2|10|2,3:2|1:2|3:2,0:0:0:0:
356,26,146366,102,0,B|371:75|413:93|413:93|459:113|468:157,1,179.999990463257,2|8,1:2|1:2,0:0:0:0:
416,344,146741,2,0,P|344:297|250:315,1,179.999990463257,2|0,1:2|3:2,0:0:0:0:
168,182,147116,2,0,L|204:96,1,89.9999952316285,10|0,1:2|1:2,0:0:0:0:
111,37,147366,54,0,P|75:27|46:26,2,59.9999968210857,6|0|0,3:2|0:0|0:0,0:0:0:0:
202,98,147616,2,0,P|238:88|267:87,2,59.9999968210857,8|0|0,1:0|0:0|0:0,0:0:0:0:
84,153,147866,2,0,P|48:143|19:142,2,59.9999968210857,2|0|0,3:2|0:0|0:0,0:0:0:0:
175,214,148116,2,0,P|211:204|240:203,2,59.9999968210857,8|0|0,1:0|0:0|0:0,0:0:0:0:
66,319,148366,5,2,0:2:0:0:
66,319,148449,2,0,L|56:247,1,59.9999968210857,0|0,0:0|0:0,0:0:0:0:
188,297,148616,1,8,1:0:0:0:
188,297,148699,2,0,L|180:357,1,59.9999968210857,0|0,0:0|0:0,0:0:0:0:
307,318,148866,1,2,3:2:0:0:
307,318,148949,2,0,L|297:246,1,59.9999968210857,0|0,0:0|0:0,0:0:0:0:
429,296,149116,1,10,1:0:0:0:
429,296,149199,2,0,L|421:356,1,59.9999968210857,0|0,0:0|0:0,0:0:0:0:
403,150,149366,102,0,P|417:121|451:98,2,59.9999968210857,6|0|0,3:2|0:0|0:0,0:0:0:0:
313,85,149616,2,0,P|317:55|328:26,2,59.9999968210857,8|0|0,1:0|0:0|0:0,0:0:0:0:
199,85,149866,2,0,P|195:55|184:26,2,59.9999968210857,2|0|0,3:2|0:0|0:0,0:0:0:0:
109,150,150116,2,0,P|95:121|61:98,2,59.9999968210857,8|0|0,1:0|0:0|0:0,0:0:0:0:
122,365,150366,6,0,L|89:252,1,89.9999952316285,2|0,0:2|0:0,0:0:0:0:
200,173,150616,2,0,L|209:277,1,89.9999952316285,8|0,1:0|0:0,0:0:0:0:
390,365,150866,2,0,L|415:278,1,89.9999952316285,2|0,0:2|0:0,0:0:0:0:
312,173,151116,2,0,L|304:262,1,89.9999952316285,10|0,1:0|0:0,0:0:0:0:
460,186,151366,102,0,P|433:168|403:161,2,59.9999968210857,6|0|0,3:2|0:0|0:0,0:0:0:0:
325,58,151616,2,0,P|352:40|382:33,2,59.9999968210857,8|0|0,1:0|0:0|0:0,0:0:0:0:
187,58,151866,2,0,P|160:40|130:33,2,59.9999968210857,2|0|0,3:2|0:0|0:0,0:0:0:0:
52,186,152116,2,0,P|79:168|109:161,2,59.9999968210857,8|0|0,1:0|0:0|0:0,0:0:0:0:
53,328,152366,5,6,3:2:0:0:
105,357,152449,1,0,0:0:0:0:
164,346,152533,1,0,0:0:0:0:
204,302,152616,2,0,L|189:225,2,59.9999968210857,8|0|0,1:0|0:0|0:0,0:0:0:0:
459,328,152866,1,2,3:2:0:0:
407,357,152949,1,0,0:0:0:0:
348,346,153033,1,0,0:0:0:0:
308,302,153116,2,0,L|323:225,2,59.9999968210857,10|0|0,1:0|0:0|0:0,0:0:0:0:
400,115,153366,102,0,B|383:74|383:74|340:44,1,89.9999952316285,6|0,3:2|0:0,0:0:0:0:
166,47,153616,2,0,B|129:74|129:74|112:115,1,89.9999952316285,10|0,1:0|0:0,0:0:0:0:
112,269,153866,2,0,B|129:310|129:310|166:336,1,89.9999952316285,2|0,0:0|0:0,0:0:0:0:
345,336,154116,2,0,B|383:310|383:310|400:269,1,89.9999952316285,10|0,1:0|0:0,0:0:0:0:
426,146,154366,6,0,P|382:137|331:158,1,89.9999952316285,2|0,1:2|3:0,0:0:0:0:
278,252,154616,1,8,1:0:0:0:
249,73,154741,2,0,P|219:107|212:161,1,89.9999952316285,2|0,1:2|0:0,0:0:0:0:
299,260,154991,1,0,3:0:0:0:
95,175,155116,2,0,P|109:217|152:251,1,89.9999952316285,10|0,1:2|1:0,0:0:0:0:
321,268,155366,38,0,L|502:238,2,179.999990463257,6|8|0,3:2|1:0|3:0,0:0:0:0:
20,356,156116,2,0,L|110:341,1,89.9999952316285,8|0,1:0|3:0,0:0:0:0:
219,234,156366,6,0,B|176:202|176:202|40:224,1,179.999990463257,0|8,0:0|1:0,0:0:0:0:
9,103,156741,2,0,P|32:64|69:40,1,89.9999952316285,0|0,0:0|0:0,0:0:0:0:
162,92,156991,1,0,3:0:0:0:
162,92,157116,2,0,P|207:92|246:112,1,89.9999952316285,10|2,1:2|1:2,0:0:0:0:
259,286,157366,102,0,P|339:264|394:170,2,179.999990463257,6|8|0,3:2|1:0|3:0,0:0:0:0:
97,32,158116,2,0,L|79:130,1,89.9999952316285,8|0,1:0|3:0,0:0:0:0:
109,267,158366,6,0,B|162:269|192:234|192:234|225:197|269:202,1,179.999990463257,6|8,1:2|1:0,0:0:0:0:
377,93,158741,2,0,B|425:134|425:134|402:261,1,179.999990463257,4|0,1:2|1:0,0:0:0:0:
321,362,159116,2,0,P|282:334|263:287,1,89.9999952316285,12|0,1:2|1:0,0:0:0:0:
293,160,159366,37,6,3:2:0:0:
190,102,159491,1,0,3:0:0:0:
85,181,159616,2,0,B|117:214|117:214|177:227,1,89.9999952316285,10|0,1:2|0:0,0:0:0:0:
109,43,159866,2,0,B|25:67|25:67|-4:170,1,179.999990463257,2|8,3:2|1:0,0:0:0:0:
20,345,160241,6,0,L|47:250,1,89.9999952316285,2|0,3:2|3:0,0:0:0:0:
160,223,160491,2,0,L|187:128,1,89.9999952316285,2|8,3:2|1:0,0:0:0:0:
298,96,160741,2,0,L|325:1,1,89.9999952316285,2|0,3:2|3:0,0:0:0:0:
450,134,160991,1,2,3:2:0:0:
354,211,161116,1,10,1:2:0:0:
447,288,161241,1,2,1:2:0:0:
322,353,161366,70,0,P|291:285|186:241,1,179.999990463257,6|10,3:2|1:2,0:0:0:0:
60,13,161866,2,0,L|37:109,1,89.9999952316285,2|2,3:2|3:2,0:0:0:0:
97,219,162116,1,10,1:2:0:0:
97,219,162241,6,0,P|118:175|154:148,1,89.9999952316285,2|6,3:2|0:0,0:0:0:0:
212,19,162491,2,0,P|260:15|301:32,1,89.9999952316285,2|10,3:2|1:2,0:0:0:0:
446,15,162741,2,0,P|473:55|478:99,1,89.9999952316285,14|0,3:2|3:2,0:0:0:0:
448,244,162991,101,10,3:2:0:0:
300,259,163116,1,14,1:2:0:0:
357,117,163241,1,6,1:2:0:0:
61,92,167366,54,0,L|50:32,13,44.9999976158143,2|0|0|0|2|0|0|0|2|0|0|0|0|0,0:2|0:0|0:0|0:0|0:2|0:0|0:0|0:0|0:2|0:0|0:0|0:0|0:3|0:0,0:0:0:0:
145,137,168241,2,0,L|156:77,17,44.9999976158143,2|0|0|0|2|0|0|0|2|0|0|0|2|0|2|0|2|0,0:2|0:0|0:0|0:0|0:2|0:0|0:0|0:0|0:2|0:0|0:0|0:0|0:2|0:0|0:2|0:0|0:2|0:0,0:0:0:0:
79,225,169366,6,0,P|60:238|47:262,3,44.9999976158143,2|0|0|0,0:2|0:0|0:0|0:0,0:0:0:0:
122,306,169616,2,0,P|123:328|138:352,3,44.9999976158143,2|0|0|0,0:2|0:0|0:0|0:0,0:0:0:0:
220,336,169866,2,0,P|240:345|268:345,7,44.9999976158143,2|0|0|0|0|0|2|0,0:2|0:0|0:0|0:0|0:3|0:0|0:2|0:0,0:0:0:0:
299,210,170366,102,0,L|288:158,5,44.9999976158143,0|0|2|0|0|0,3:3|3:3|3:2|3:3|3:3|3:3,0:0:0:0:
387,260,170741,2,0,L|398:208,9,44.9999976158143,2|0|0|0|0|0|0|0|0|0,3:2|3:3|0:0|3:3|0:0|3:3|0:0|3:3|0:0|3:3,0:0:0:0:
455,316,171366,86,0,P|426:281|387:260,1,89.9999952316285,6|0,3:2|3:0,0:0:0:0:
382,127,171616,2,0,P|337:133|300:157,1,89.9999952316285,10|0,1:2|0:0,0:0:0:0:
157,66,171866,2,0,L|198:248,1,179.999990463257,2|8,3:2|1:2,0:0:0:0:
46,343,172241,6,0,B|54:298|54:298|85:257,1,89.9999952316285,2|0,0:2|3:0,0:0:0:0:
80,121,172491,2,0,L|134:49,1,89.9999952316285,2|8,3:2|1:2,0:0:0:0:
280,14,172741,2,0,P|286:57|275:105,1,89.9999952316285,2|0,3:2|0:0,0:0:0:0:
196,241,172991,1,2,3:2:0:0:
265,325,173116,1,10,1:2:0:0:
380,309,173241,1,2,0:2:0:0:
433,207,173366,102,0,L|394:119,1,89.9999952316285,6|0,3:2|3:0,0:0:0:0:
280,14,173616,2,0,B|243:125|243:125|267:183,1,179.999990463257,10|2,1:2|3:2,0:0:0:0:
462,349,174116,1,8,1:2:0:0:
361,292,174241,6,0,P|316:295|278:318,1,89.9999952316285,2|0,3:2|0:0,0:0:0:0:
191,378,174491,2,0,L|152:290,1,89.9999952316285,2|8,3:2|1:2,0:0:0:0:
111,76,174741,2,0,B|91:135|91:135|51:158|51:158|29:225,1,179.999990463257,2|2,3:2|3:2,0:0:0:0:
63,345,175116,1,10,1:2:0:0:
154,295,175241,1,2,0:2:0:0:
166,181,175366,102,0,P|209:192|241:222,1,89.9999952316285,6|0,3:2|3:0,0:0:0:0:
246,340,175616,1,10,1:2:0:0:
448,153,175866,1,2,3:2:0:0:
251,23,176116,1,8,1:2:0:0:
261,119,176241,6,0,B|174:100|174:100|152:11,1,179.999990463257,2|2,3:2|3:2,0:0:0:0:
30,125,176616,1,8,1:2:0:0:
19,218,176741,2,0,P|64:213|103:182,1,89.9999952316285,2|0,3:2|0:0,0:0:0:0:
238,215,176991,1,2,3:2:0:0:
229,312,177116,1,10,1:2:0:0:
320,353,177241,1,2,3:2:0:0:
401,289,177366,102,0,L|489:310,2,89.9999952316285,6|0|10,3:2|3:0|1:2,0:0:0:0:
334,205,177741,1,0,0:0:0:0:
334,205,177866,2,0,L|246:184,1,89.9999952316285,2|0,3:2|0:0,0:0:0:0:
193,63,178116,1,8,1:2:0:0:
286,18,178241,1,2,3:2:0:0:
401,53,178366,6,0,P|337:124|340:224,1,179.999990463257,4|8,1:2|1:2,0:0:0:0:
303,387,178741,2,0,P|274:296|186:248,1,179.999990463257,6|2,1:2|1:2,0:0:0:0:
120,134,179116,2,0,P|163:141|209:117,1,89.9999952316285,14|2,1:2|1:2,0:0:0:0:
145,30,179366,101,6,3:2:0:0:
45,80,179491,1,0,3:0:0:0:
42,190,179616,2,0,L|60:279,1,89.9999952316285,10|0,1:2|0:0,0:0:0:0:
157,365,179866,2,0,P|172:323|209:295,1,89.9999952316285,2|0,3:2|3:0,0:0:0:0:
360,327,180116,1,8,1:2:0:0:
454,379,180241,6,0,L|471:290,1,89.9999952316285,2|0,3:2|0:0,0:0:0:0:
422,106,180491,2,0,L|404:194,1,89.9999952316285,2|8,3:2|1:2,0:0:0:0:
284,278,180741,2,0,L|301:189,1,89.9999952316285,2|0,3:2|0:0,0:0:0:0:
233,60,180991,1,2,3:2:0:0:
174,146,181116,1,10,1:2:0:0:
64,155,181241,1,2,1:2:0:0:
5,241,181366,102,0,P|47:255|93:250,1,89.9999952316285,6|0,3:2|3:0,0:0:0:0:
163,21,181616,2,0,B|81:75|81:75|63:154,1,179.999990463257,10|2,1:2|3:2,0:0:0:0:
280,271,182116,1,8,1:2:0:0:
288,364,182241,6,0,P|244:359|208:331,1,89.9999952316285,2|0,3:2|0:0,0:0:0:0:
66,290,182491,2,0,P|52:251|58:200,1,89.9999952316285,2|8,3:2|1:2,0:0:0:0:
124,66,182741,2,0,L|222:39,1,89.9999952316285,2|0,3:2|0:0,0:0:0:0:
375,154,182991,1,2,3:2:0:0:
315,246,183116,1,10,1:2:0:0:
414,305,183241,1,2,0:2:0:0:
308,357,183366,102,0,B|257:360|226:325|226:325|194:288|148:292,2,179.999990463257,6|10|2,3:2|1:2|3:2,0:0:0:0:
430,82,184116,1,8,1:2:0:0:
300,45,184241,6,0,P|259:64|231:102,1,89.9999952316285,2|0,3:2|3:0,0:0:0:0:
255,232,184491,2,0,P|291:256|335:261,1,89.9999952316285,2|8,3:2|1:2,0:0:0:0:
444,168,184741,2,0,P|447:124|430:82,1,89.9999952316285,2|0,3:2|3:0,0:0:0:0:
333,148,184991,1,2,3:2:0:0:
232,99,185116,1,10,1:2:0:0:
164,213,185241,1,2,0:2:0:0:
80,126,185366,102,0,L|68:36,1,89.9999952316285,6|0,3:2|3:0,0:0:0:0:
38,253,185616,2,0,L|49:342,1,89.9999952316285,10|0,1:2|3:0,0:0:0:0:
286,316,185866,2,0,B|251:233|251:233|163:212,1,179.999990463257,2|8,3:2|1:2,0:0:0:0:
80,126,186241,1,2,3:2:0:0:
214,33,186366,6,0,P|240:69|243:124,1,89.9999952316285,4|2,1:2|3:2,0:0:0:0:
179,211,186616,1,8,3:0:0:0:
321,164,186741,2,0,P|302:205|256:235,1,89.9999952316285,6|0,1:2|3:0,0:0:0:0:
163,196,186991,1,2,1:2:0:0:
243,321,187116,1,14,1:2:0:0:
49,339,187241,70,0,P|51:279|76:218,1,121.621615177876,6|0,1:2|0:0,0:0:0:0:
