osu file format v14

[General]
AudioFilename: audio.mp3
AudioLeadIn: 0
PreviewTime: 35303
Countdown: 0
SampleSet: Soft
StackLeniency: 0.7
Mode: 0
LetterboxInBreaks: 0
EpilepsyWarning: 1
WidescreenStoryboard: 1

[Editor]
DistanceSpacing: 0.8
BeatDivisor: 4
GridSize: 4
TimelineZoom: 2.4

[Metadata]
Title:Megalovania Dual Mix
TitleUnicode:Megalovania Dual Mix
Artist:toby fox & RichaadEB
ArtistUnicode:toby fox & RichaadEB
Creator:Fatfan Kolek
Version:Fatfan Kyshiro's Extreme
Source:UNDERTALE
Tags:Chiptune Radiation Sans Boss Battle Ost Soundtrack Nihilist ThunderScott Ace Waters Determination Emilia Kalibe Celektus Kyshiro Bergy
BeatmapID:1702281
BeatmapSetID:763337

[Difficulty]
HPDrainRate:6
CircleSize:4.2
OverallDifficulty:9.2
ApproachRate:9.6
SliderMultiplier:2.01999990463257
SliderTickRate:1

[Events]
//Background and Video events
0,0,"megalovania.jpg",0,0
//Break Periods
2,127616,130857
2,163441,166857
//Storyboard Layer 0 (Background)
Sprite,Background,Centre,"sb\bg\bw.jpg",320,240 F,0,19215,19365,0,0.4 S,0,19365,,0.4444444 F,0,35215,35365,0.4,0
Sprite,Background,Centre,"sb\bg\bw.jpg",320,240 F,0,115215,115365,0,0.2 S,0,115365,,0.4444444 F,0,127215,127365,0.2,0
Sprite,Background,Centre,"sb\bg\red.jpg",320,240 F,0,159215,159365,0,1 S,0,159365,,0.4444444 F,0,163215,163365,1,0
Sprite,Background,Centre,"megalovania.jpg",320,240 F,0,155215,155365,0,1 S,0,155365,,0.4444444 F,0,159215,159365,1,0
Sprite,Background,Centre,"sb\bg\green.jpg",320,240 F,0,147215,147365,0,1 S,0,147365,,0.4444444 F,0,155215,155365,1,0
Sprite,Background,Centre,"megalovania.jpg",320,240 F,0,141215,141365,0,1 S,0,141365,,0.4444444 F,0,147215,147365,1,0
Sprite,Background,Centre,"sb\bg\green.jpg",320,240 F,0,139215,139365,0,1 S,0,139365,,0.4444444 F,0,141215,141365,1,0
Sprite,Background,Centre,"megalovania.jpg",320,240 F,0,131215,131365,0,1 S,0,131365,,0.4444444 F,0,139215,139365,1,0
Sprite,Background,Centre,"sb\bg\red.jpg",320,240 F,0,67215,67365,0,1 S,0,67365,,0.4444444 F,0,99215,99365,1,0
Sprite,Background,Centre,"sb\bg\red.jpg",320,240 F,0,35215,35365,0,1 S,0,35365,,0.4444444 F,0,51215,51365,1,0
Sprite,Background,Centre,"sb\bg\black.jpg",320,240 F,0,127215,127365,0,0.3 S,0,127365,,0.4444444 F,0,131215,131365,0.3,0
Sprite,Background,Centre,"sb\bg\red.jpg",320,240 F,0,171215,171365,0,1 S,0,171365,,0.4444444 F,0,187090,187240,1,0
Sprite,Background,Centre,"sb\bg\black.jpg",320,240 F,0,51215,51365,0,0.4 S,0,51365,,0.4444444 F,0,59215,59365,0.4,0
Sprite,Background,Centre,"megalovania.jpg",320,240 F,0,59215,59365,0,0.4 S,0,59365,,0.4444444 F,0,67215,67365,0.4,0
Sprite,Background,Centre,"sb\bg\bw.jpg",320,240 F,0,163215,163365,0,0.4 S,0,163365,,0.4444444 F,0,171215,171365,0.4,0
Sprite,Background,Centre,"megalovania.jpg",320,240 F,0,-150,0,0,0.1 S,0,0,,0.4444444 F,0,12553,,0
Sprite,Background,Centre,"sb\bg\black.jpg",320,240 S,0,12803,,0.4444444 F,0,19215,19365,0.1,0
Sprite,Background,Centre,"sb\bg\blurred.jpg",0,0 F,0,159215,159365,0,0.8 M,0,159241,159366,318.27,240.53,320.08,240.72 S,0,159365,,0.4466667 M,0,159366,159491,320.08,240.72,317.9,239.03 M,0,159491,159616,317.9,239.03,320.36,238.27 M,0,159617,159647,320.36,238.27,320.4254,238.5269 M,0,159648,159678,320.4254,238.5269,320.4908,238.7839 M,0,159679,159709,320.4908,238.7839,320.5562,239.0408 M,0,159710,159740,320.5562,239.0408,320.6216,239.2977 M,0,159740,159866,320.6216,239.2977,322.04,241.52 M,0,159867,159897,322.04,241.52,321.9746,241.2631 M,0,159898,159928,321.9746,241.2631,321.9092,241.0061 M,0,159929,159959,321.9092,241.0061,321.8438,240.7492 M,0,159960,159990,321.8438,240.7492,321.7784,240.4923 M,0,159990,160116,321.7784,240.4923,322.14,239.31 M,0,160116,160241,322.14,239.31,319.54,238.58 M,0,160242,160272,319.54,238.58,319.555,238.8447 M,0,160273,160303,319.555,238.8447,319.57,239.1094 M,0,160304,160334,319.57,239.1094,319.7436,239.3096 M,0,160335,160365,319.7436,239.3096,319.9175,239.5097 M,0,160365,160491,319.9175,239.5097,321.8,241.42 M,0,160492,160522,321.8,241.42,321.5629,241.3014 M,0,160523,160553,321.5629,241.3014,321.3257,241.1829 M,0,160554,160584,321.3257,241.1829,321.0655,241.2267 M,0,160585,160615,321.0655,241.2267,320.8047,241.2745 M,0,160615,160741,320.8047,241.2745,318.1,241.79 M,0,160742,160772,318.1,241.79,318.3191,241.6406 M,0,160773,160803,318.3191,241.6406,318.5381,241.4913 M,0,160804,160834,318.5381,241.4913,318.627,241.242 M,0,160835,160865,318.627,241.242,318.7148,240.9918 M,0,160865,160991,318.7148,240.9918,320.42,238.76 M,0,160991,161116,320.42,238.76,318.15,239.6 M,0,161116,161241,318.15,239.6,321.34,240.18 M,0,161241,161366,321.34,240.18,318.38,238.26 M,0,161367,161397,318.38,238.26,318.4266,238.521 M,0,161398,161428,318.4266,238.521,318.4732,238.782 M,0,161428,161491,318.4732,238.782,319.01,240.03 M,0,161492,161522,319.01,240.03,318.9656,239.7686 M,0,161523,161553,318.9656,239.7686,318.9212,239.5072 M,0,161553,161616,318.9212,239.5072,319.42,238.39 M,0,161617,161647,319.42,238.39,319.4628,238.6516 M,0,161648,161678,319.4628,238.6516,319.5056,238.9133 M,0,161678,161741,319.5056,238.9133,319.51,240.55 M,0,161742,161772,319.51,240.55,319.4656,240.2886 M,0,161773,161803,319.4656,240.2886,319.4212,240.0272 M,0,161803,161866,319.4212,240.0272,320.44,238.4 M,0,161867,161897,320.44,238.4,320.4828,238.6617 M,0,161898,161928,320.4828,238.6617,320.5256,238.9233 M,0,161928,161991,320.5256,238.9233,320.01,241.09 M,0,161992,162022,320.01,241.09,319.9656,240.8286 M,0,162023,162053,319.9656,240.8286,319.9212,240.5672 M,0,162053,162116,319.9212,240.5672,321.48,238.53 M,0,162117,162147,321.48,238.53,321.5228,238.7916 M,0,162148,162178,321.5228,238.7916,321.5656,239.0533 M,0,162178,162241,321.5656,239.0533,320.51,241.61 M,0,162242,162272,320.51,241.61,320.4656,241.3486 M,0,162273,162303,320.4656,241.3486,320.4212,241.0872 M,0,162303,162366,320.4212,241.0872,322.11,239.98 M,0,162366,162491,322.11,239.98,320.53,239.76 M,0,162491,162616,320.53,239.76,322.11,239.98 M,0,162616,162741,322.11,239.98,319.64,239.03 M,0,162742,162772,319.64,239.03,319.9422,239.1211 M,0,162773,162803,319.9422,239.1211,320.2444,239.2123 M,0,162804,162834,320.2444,239.2123,320.3974,239.4792 M,0,162835,162866,320.3974,239.4792,320.5367,239.7625 M,0,162866,162991,320.5367,239.7625,320.42,241.08 M,0,162991,163116,320.42,241.08,321.56,239.05 M,0,163116,163241,321.56,239.05,322.35,241.82 F,0,163215,163365,0.8,0
Sprite,Background,Centre,"sb\bg\blurblue.jpg",0,0 F,0,155215,155365,0,0.8 M,0,155241,155366,317.44,239.78,317.44,241.32 S,0,155365,,0.4466667 M,0,155367,155397,317.44,241.32,317.5786,241.53 M,0,155398,155428,317.5786,241.53,317.772,241.6909 M,0,155429,155459,317.772,241.6909,318.0014,241.7952 M,0,155460,155491,318.0014,241.7952,318.2393,241.8063 M,0,155492,155522,318.2393,241.8063,318.4588,241.6815 M,0,155523,155553,318.4588,241.6815,318.6783,241.5567 M,0,155554,155584,318.6783,241.5567,318.8978,241.432 M,0,155585,155616,318.8978,241.432,319.1173,241.3072 M,0,155617,155647,319.1173,241.3072,318.8978,241.432 M,0,155648,155678,318.8978,241.432,318.6783,241.5567 M,0,155679,155709,318.6783,241.5567,318.4588,241.6815 M,0,155710,155741,318.4588,241.6815,318.2393,241.8063 M,0,155742,155772,318.2393,241.8063,318.0014,241.7952 M,0,155773,155803,318.0014,241.7952,317.772,241.6909 M,0,155804,155834,317.772,241.6909,317.5786,241.53 M,0,155835,155866,317.5786,241.53,317.44,241.32 M,0,155866,155991,317.44,241.32,318.12,239.25 M,0,155991,156116,318.12,239.25,320.04,239.82 M,0,156117,156147,320.04,239.82,319.7892,239.8413 M,0,156148,156178,319.7892,239.8413,319.5545,239.9319 M,0,156179,156209,319.5545,239.9319,319.3546,240.0845 M,0,156210,156241,319.3546,240.0845,319.2052,240.287 M,0,156241,156366,319.2052,240.287,320.78,241.03 M,0,156367,156397,320.78,241.03,320.987,240.8855 M,0,156398,156428,320.987,240.8855,321.1941,240.7409 M,0,156429,156459,321.1941,240.7409,321.3247,240.5499 M,0,156460,156491,321.3247,240.5499,321.3582,240.2996 M,0,156492,156522,321.3582,240.2996,321.3917,240.0493 M,0,156523,156553,321.3917,240.0493,321.4252,239.799 M,0,156554,156584,321.4252,239.799,321.4587,239.5488 M,0,156585,156616,321.4587,239.5488,321.4922,239.2985 M,0,156616,156741,321.4922,239.2985,319.52,238.51 M,0,156742,156772,319.52,238.51,319.2881,238.6092 M,0,156773,156803,319.2881,238.6092,319.0408,238.6556 M,0,156804,156834,319.0408,238.6556,318.7917,238.622 M,0,156835,156866,318.7917,238.622,318.5583,238.5262 M,0,156867,156897,318.5583,238.5262,318.3245,238.4316 M,0,156898,156928,318.3245,238.4316,318.0752,238.3996 M,0,156929,156959,318.0752,238.3996,317.8277,238.4453 M,0,156960,156991,317.8277,238.4453,317.6,238.54 M,0,156991,157116,317.6,238.54,317.75,240.91 M,0,157116,157241,317.75,240.91,318.12,239.25 M,0,157241,157366,318.12,239.25,319.04,241.28 M,0,157367,157397,319.04,241.28,318.9135,241.0632 M,0,157398,157428,318.9135,241.0632,318.8521,240.8206 M,0,157429,157459,318.8521,240.8206,318.8644,240.5705 M,0,157460,157491,318.8644,240.5705,318.9493,240.3351 M,0,157491,157616,318.9493,240.3351,321.19,241.19 M,0,157617,157647,321.19,241.19,321.0882,241.4202 M,0,157648,157678,321.0882,241.4202,320.9265,241.613 M,0,157679,157709,320.9265,241.613,320.7177,241.7533 M,0,157710,157741,320.7177,241.7533,320.48,241.83 M,0,157741,157866,320.48,241.83,320.63,239.3 M,0,157866,157991,320.63,239.3,320.08,240.72 M,0,157991,158116,320.08,240.72,321.06,240.29 M,0,158116,158241,321.06,240.29,319.64,239.74 M,0,158241,158366,319.64,239.74,322.16,238.77 M,0,158367,158397,322.16,238.77,321.9389,238.6485 M,0,158398,158428,321.9389,238.6485,321.7019,238.5623 M,0,158429,158459,321.7019,238.5623,321.4544,238.5133 M,0,158460,158491,321.4544,238.5133,321.2025,238.4998 M,0,158492,158522,321.2025,238.4998,321.0048,238.6524 M,0,158523,158553,321.0048,238.6524,320.8365,238.8402 M,0,158554,158584,320.8365,238.8402,320.7079,239.0569 M,0,158585,158616,320.7079,239.0569,320.6306,239.2968 M,0,158616,158741,320.6306,239.2968,319.2,240.86 M,0,158742,158772,319.2,240.86,319.2784,241.0994 M,0,158773,158803,319.2784,241.0994,319.4088,241.315 M,0,158804,158834,319.4088,241.315,319.5785,241.5016 M,0,158835,158866,319.5785,241.5016,319.7779,241.6503 M,0,158867,158897,319.7779,241.6503,320.0298,241.636 M,0,158898,158928,320.0298,241.636,320.2771,241.5862 M,0,158929,158959,320.2771,241.5862,320.5139,241.4992 M,0,158960,158991,320.5139,241.4992,320.73,241.38 M,0,158991,159116,320.73,241.38,318.98,238.59 M,0,159116,159241,318.98,238.59,318.27,240.53 F,0,159215,159365,0.8,0
Sprite,Background,Centre,"sb\bg\blurgreen.jpg",0,0 F,0,147215,147365,0,0.8 M,0,147241,147366,318.02,238.75,319.8,239.75 S,0,147365,,0.4466667 M,0,147367,147397,319.8,239.75,319.8439,239.9987 M,0,147398,147428,319.8439,239.9987,319.8878,240.2473 M,0,147429,147459,319.8878,240.2473,319.9024,240.3302 M,0,147460,147491,319.9024,240.3302,319.8585,240.0815 M,0,147492,147522,319.8585,240.0815,319.8146,239.8329 M,0,147523,147532,319.8146,239.8329,319.8,239.75 M,0,147532,147616,319.8,239.75,320.14,238.99 M,0,147617,147647,320.14,238.99,320.0961,238.7413 M,0,147648,147678,320.0961,238.7413,320.0522,238.4927 M,0,147679,147709,320.0522,238.4927,320.0376,238.4098 M,0,147710,147741,320.0376,238.4098,320.0815,238.6585 M,0,147742,147772,320.0815,238.6585,320.1254,238.9071 M,0,147773,147782,320.1254,238.9071,320.14,238.99 M,0,147782,147866,320.14,238.99,320.79,240.62 M,0,147867,147897,320.79,240.62,321.0167,240.7286 M,0,147898,147928,321.0167,240.7286,321.2654,240.7632 M,0,147929,147949,321.2654,240.7632,321.4322,240.7443 M,0,147949,148032,321.4322,240.7443,322.12,240.27 M,0,148032,148116,322.12,240.27,322.24,240.01 M,0,148117,148147,322.24,240.01,322.2843,239.7614 M,0,148148,148178,322.2843,239.7614,322.3286,239.5128 M,0,148179,148209,322.3286,239.5128,322.3433,239.43 M,0,148210,148241,322.3433,239.43,322.299,239.6785 M,0,148242,148272,322.299,239.6785,322.2548,239.9271 M,0,148273,148282,322.2548,239.9271,322.24,240.01 M,0,148282,148366,322.24,240.01,321.37,241.74 M,0,148366,148449,321.37,241.74,320.71,241.75 M,0,148449,148532,320.71,241.75,320.16,241.39 M,0,148532,148616,320.16,241.39,319.89,240.78 M,0,148616,148699,319.89,240.78,319.62,240.18 M,0,148699,148782,319.62,240.18,319.07,239.82 M,0,148782,148866,319.07,239.82,318.42,239.72 M,0,148867,148897,318.42,239.72,318.1722,239.7621 M,0,148898,148928,318.1722,239.7621,317.9498,239.879 M,0,148929,148949,317.9498,239.879,317.8262,239.9928 M,0,148949,149032,317.8262,239.9928,318.09,241.31 M,0,149032,149116,318.09,241.31,318.39,241.44 M,0,149117,149147,318.39,241.44,318.6378,241.3979 M,0,149148,149178,318.6378,241.3979,318.8602,241.281 M,0,149179,149199,318.8602,241.281,318.9838,241.1672 M,0,149199,149282,318.9838,241.1672,320.35,240.06 M,0,149282,149366,320.35,240.06,320.59,240.24 M,0,149367,149397,320.59,240.24,320.8419,240.222 M,0,149398,149428,320.8419,240.222,321.0937,240.204 M,0,149429,149459,321.0937,240.204,321.1777,240.198 M,0,149460,149491,321.1777,240.198,320.9258,240.216 M,0,149492,149522,320.9258,240.216,320.674,240.234 M,0,149523,149532,320.674,240.234,320.59,240.24 M,0,149532,149616,320.59,240.24,319.38,239.01 M,0,149617,149647,319.38,239.01,319.1281,239.028 M,0,149648,149678,319.1281,239.028,318.8763,239.046 M,0,149679,149709,318.8763,239.046,318.7923,239.052 M,0,149710,149741,318.7923,239.052,319.0442,239.034 M,0,149742,149772,319.0442,239.034,319.2961,239.016 M,0,149773,149782,319.2961,239.016,319.38,239.01 M,0,149782,149866,319.38,239.01,319.44,240.02 M,0,149867,149897,319.44,240.02,319.458,240.2719 M,0,149898,149928,319.458,240.2719,319.476,240.5237 M,0,149929,149959,319.476,240.5237,319.482,240.6077 M,0,149960,149991,319.482,240.6077,319.464,240.3558 M,0,149992,150022,319.464,240.3558,319.446,240.104 M,0,150023,150032,319.446,240.104,319.44,240.02 M,0,150032,150116,319.44,240.02,320.33,239.24 M,0,150117,150147,320.33,239.24,320.312,238.9881 M,0,150148,150178,320.312,238.9881,320.294,238.7363 M,0,150179,150209,320.294,238.7363,320.288,238.6523 M,0,150210,150241,320.288,238.6523,320.306,238.9042 M,0,150242,150272,320.306,238.9042,320.324,239.1561 M,0,150273,150282,320.324,239.1561,320.33,239.24 M,0,150282,150366,320.33,239.24,320.08,241.52 M,0,150366,150449,320.08,241.52,320.69,241.65 M,0,150449,150532,320.69,241.65,321.3,241.54 M,0,150532,150616,321.3,241.54,321.82,241.19 M,0,150616,150699,321.82,241.19,322.16,240.66 M,0,150699,150782,322.16,240.66,322.27,240.06 M,0,150782,150866,322.27,240.06,322.2,239.44 M,0,150867,150897,322.2,239.44,321.995,239.2949 M,0,150898,150928,321.995,239.2949,321.7604,239.2066 M,0,150929,150949,321.7604,239.2066,321.5946,239.1815 M,0,150949,151032,321.5946,239.1815,320.83,238.49 M,0,151032,151116,320.83,238.49,320.61,238.56 M,0,151117,151147,320.61,238.56,320.3803,238.6616 M,0,151148,151178,320.3803,238.6616,320.1837,238.8171 M,0,151179,151199,320.1837,238.8171,320.0764,238.9461 M,0,151199,151282,320.0764,238.9461,319.04,238.95 M,0,151282,151366,319.04,238.95,318.99,239.17 M,0,151367,151397,318.99,239.17,318.9674,239.4203 M,0,151398,151428,318.9674,239.4203,319.0059,239.6682 M,0,151429,151459,319.0059,239.6682,319.0327,239.7476 M,0,151460,151491,319.0327,239.7476,318.9731,239.5039 M,0,151492,151522,318.9731,239.5039,318.9778,239.2532 M,0,151523,151532,318.9778,239.2532,318.99,239.17 M,0,151532,151616,318.99,239.17,318.45,240.73 M,0,151617,151647,318.45,240.73,318.7011,240.7445 M,0,151648,151678,318.7011,240.7445,318.9487,240.703 M,0,151679,151709,318.9487,240.703,319.0282,240.6763 M,0,151710,151741,319.0282,240.6763,318.7846,240.7372 M,0,151742,151772,318.7846,240.7372,318.5336,240.7392 M,0,151773,151782,318.5336,240.7392,318.45,240.73 M,0,151782,151866,318.45,240.73,319.99,241.26 M,0,151867,151897,319.99,241.26,320.0052,241.0089 M,0,151898,151928,320.0052,241.0089,319.9656,240.761 M,0,151929,151959,319.9656,240.761,319.9397,240.6812 M,0,151960,151991,319.9397,240.6812,319.9985,240.9253 M,0,151992,152022,319.9985,240.9253,319.9993,241.1764 M,0,152023,152032,319.9993,241.1764,319.99,241.26 M,0,152032,152116,319.99,241.26,320.5,239.71 M,0,152117,152147,320.5,239.71,320.2497,239.6868 M,0,152148,152178,320.2497,239.6868,320.0015,239.7233 M,0,152179,152209,320.0015,239.7233,319.9218,239.7493 M,0,152210,152241,319.9218,239.7493,320.1661,239.692 M,0,152242,152272,320.1661,239.692,320.4168,239.6977 M,0,152273,152282,320.4168,239.6977,320.5,239.71 M,0,152282,152366,320.5,239.71,321.77,241 M,0,152366,152449,321.77,241,321.26,241.52 M,0,152449,152532,321.26,241.52,320.56,241.75 M,0,152532,152616,320.56,241.75,319.84,241.61 M,0,152616,152699,319.84,241.61,319.27,241.15 M,0,152699,152782,319.27,241.15,318.98,240.47 M,0,152782,152866,318.98,240.47,319.06,239.74 M,0,152867,152897,319.06,239.74,319.1323,239.4981 M,0,152898,152928,319.1323,239.4981,319.2045,239.2561 M,0,152929,152949,319.2045,239.2561,319.2527,239.0948 M,0,152949,153032,319.2527,239.0948,320.99,239.06 M,0,153032,153116,320.99,239.06,321.09,238.8 M,0,153117,153147,321.09,238.8,321.1619,238.5579 M,0,153148,153178,321.1619,238.5579,321.2337,238.3159 M,0,153179,153209,321.2337,238.3159,321.2577,238.2352 M,0,153210,153241,321.2577,238.2352,321.1858,238.4772 M,0,153242,153272,321.1858,238.4772,321.114,238.7193 M,0,153273,153282,321.114,238.7193,321.09,238.8 M,0,153282,153366,321.09,238.8,320.47,239.72 M,0,153366,153449,320.47,239.72,320.97,240.33 M,0,153449,153532,320.97,240.33,320.27,240.38 M,0,153532,153615,320.27,240.38,320.4,240.79 M,0,153615,153699,320.4,240.79,319.71,240.79 M,0,153699,153782,319.71,240.79,319.65,240.96 M,0,153782,153866,319.65,240.96,319.04,240.64 M,0,153866,153991,319.04,240.64,319.56,238.62 M,0,153991,154116,319.56,238.62,321.57,239.15 M,0,154116,154241,321.57,239.15,321.04,241.16 M,0,154241,154366,321.04,241.16,319.04,240.64 M,0,154367,154397,319.04,240.64,318.9445,240.8981 M,0,154398,154428,318.9445,240.8981,318.9535,241.1725 M,0,154429,154459,318.9535,241.1725,319.0637,241.424 M,0,154460,154491,319.0637,241.424,319.2649,241.6111 M,0,154492,154522,319.2649,241.6111,319.5208,241.7115 M,0,154523,154553,319.5208,241.7115,319.7955,241.7008 M,0,154554,154584,319.7955,241.7008,320.0481,241.591 M,0,154585,154616,320.0481,241.591,320.236,241.3892 M,0,154616,154741,320.236,241.3892,318.89,239.71 M,0,154742,154772,318.89,239.71,318.9855,239.4519 M,0,154773,154803,318.9855,239.4519,318.9765,239.1775 M,0,154804,154834,318.9765,239.1775,318.8663,238.926 M,0,154835,154866,318.8663,238.926,318.6651,238.7388 M,0,154867,154897,318.6651,238.7388,318.4092,238.6384 M,0,154898,154928,318.4092,238.6384,318.1345,238.6492 M,0,154929,154959,318.1345,238.6492,317.8819,238.759 M,0,154960,154991,317.8819,238.759,317.694,238.9608 M,0,154991,155116,317.694,238.9608,318.17,240.94 M,0,155116,155241,318.17,240.94,317.44,239.78 F,0,155215,155365,0.8,0
Sprite,Background,Centre,"sb\bg\blurblue.jpg",0,0 F,0,141215,141365,0,0.8 M,0,141303,141366,319.56,238.9,319.61,238.56 S,0,141365,,0.4466667 M,0,141367,141397,319.61,238.56,319.358,238.5763 M,0,141398,141428,319.358,238.5763,319.106,238.5927 M,0,141429,141459,319.106,238.5927,318.8541,238.609 M,0,141460,141491,318.8541,238.609,318.6021,238.6253 M,0,141492,141522,318.6021,238.6253,318.4331,238.782 M,0,141523,141553,318.4331,238.782,318.2974,238.9949 M,0,141554,141584,318.2974,238.9949,318.1617,239.2078 M,0,141585,141616,318.1617,239.2078,318.026,239.4208 M,0,141617,141647,318.026,239.4208,318.1617,239.2078 M,0,141648,141678,318.1617,239.2078,318.2974,238.9949 M,0,141679,141709,318.2974,238.9949,318.4331,238.782 M,0,141710,141741,318.4331,238.782,318.6021,238.6253 M,0,141742,141772,318.6021,238.6253,318.8541,238.609 M,0,141773,141803,318.8541,238.609,319.106,238.5927 M,0,141804,141834,319.106,238.5927,319.358,238.5763 M,0,141835,141866,319.358,238.5763,319.61,238.56 M,0,141866,141991,319.61,238.56,321.27,239.16 M,0,141991,142116,321.27,239.16,320.04,239.91 M,0,142117,142147,320.04,239.91,319.7893,239.9335 M,0,142148,142178,319.7893,239.9335,319.5391,239.9089 M,0,142179,142209,319.5391,239.9089,319.2989,239.8343 M,0,142210,142241,319.2989,239.8343,319.0773,239.7148 M,0,142241,142366,319.0773,239.7148,321.6,238.32 M,0,142367,142397,321.6,238.32,321.8012,238.4726 M,0,142398,142428,321.8012,238.4726,322.0023,238.6252 M,0,142429,142459,322.0023,238.6252,322.176,238.7892 M,0,142460,142491,322.176,238.7892,322.1416,239.0394 M,0,142492,142522,322.1416,239.0394,322.1072,239.2895 M,0,142523,142553,322.1072,239.2895,322.0729,239.5397 M,0,142554,142584,322.0729,239.5397,322.0385,239.7898 M,0,142585,142616,322.0385,239.7898,322.0041,240.04 M,0,142616,142741,322.0041,240.04,322.13,242 M,0,142742,142772,322.13,242,321.9288,241.8474 M,0,142773,142803,321.9288,241.8474,321.7277,241.6948 M,0,142804,142834,321.7277,241.6948,321.5539,241.5308 M,0,142835,142866,321.5539,241.5308,321.5871,241.2805 M,0,142867,142897,321.5871,241.2805,321.6204,241.0302 M,0,142898,142928,321.6204,241.0302,321.6536,240.7799 M,0,142929,142959,321.6536,240.7799,321.6869,240.5296 M,0,142960,142991,321.6869,240.5296,321.72,240.28 M,0,142991,143116,321.72,240.28,321.27,239.16 M,0,143116,143241,321.27,239.16,319.82,241.51 M,0,143241,143303,319.82,241.51 M,0,143303,143366,319.82,241.51 M,0,143366,143491,319.82,241.51,320.45,239.88 M,0,143492,143522,320.45,239.88,320.4947,240.1285 M,0,143523,143553,320.4947,240.1285,320.5395,240.377 M,0,143554,143584,320.5395,240.377,320.5842,240.6255 M,0,143585,143616,320.5842,240.6255,320.6289,240.874 M,0,143616,143741,320.6289,240.874,318.06,240.03 M,0,143741,143866,318.06,240.03,319.68,240.66 M,0,143867,143897,319.68,240.66,319.4311,240.7023 M,0,143898,143928,319.4311,240.7023,319.1821,240.7446 M,0,143929,143959,319.1821,240.7446,318.9332,240.787 M,0,143960,143991,318.9332,240.787,318.6843,240.8293 M,0,143991,144116,318.6843,240.8293,319.51,238.28 M,0,144116,144241,319.51,238.28,318.88,239.9 M,0,144242,144272,318.88,239.9,318.8353,239.6515 M,0,144273,144303,318.8353,239.6515,318.7905,239.403 M,0,144304,144334,318.7905,239.403,318.7458,239.1545 M,0,144335,144366,318.7458,239.1545,318.7011,238.906 M,0,144366,144491,318.7011,238.906,321.26,239.77 M,0,144491,144616,321.26,239.77,319.64,239.14 M,0,144617,144647,319.64,239.14,319.8884,239.0948 M,0,144648,144678,319.8884,239.0948,320.1368,239.0497 M,0,144679,144709,320.1368,239.0497,320.3853,239.0045 M,0,144710,144741,320.3853,239.0045,320.63,238.96 M,0,144741,144866,320.63,238.96,319.82,241.51 M,0,144866,144991,319.82,241.51,320.35,239.82 M,0,144991,145116,320.35,239.82,319.87,241.34 M,0,145116,145241,319.87,241.34,320.32,239.98 M,0,145241,145366,320.32,239.98,321.22,241.7 M,0,145367,145397,321.22,241.7,321.4709,241.6909 M,0,145398,145428,321.4709,241.6909,321.7097,241.6155 M,0,145429,145459,321.7097,241.6155,321.9176,241.4757 M,0,145460,145491,321.9176,241.4757,322.0804,241.2847 M,0,145491,145616,322.0804,241.2847,322.49,240.19 M,0,145616,145741,322.49,240.19,321.31,240.81 M,0,145742,145772,321.31,240.81,321.4232,240.5858 M,0,145773,145803,321.4232,240.5858,321.4749,240.3406 M,0,145804,145834,321.4749,240.3406,321.4578,240.0905 M,0,145835,145866,321.4578,240.0905,321.3763,239.853 M,0,145866,145991,321.3763,239.853,320.63,238.95 M,0,145991,146116,320.63,238.95,320.58,240.29 M,0,146117,146147,320.58,240.29,320.4459,240.0777 M,0,146148,146178,320.4459,240.0777,320.261,239.9087 M,0,146179,146209,320.261,239.9087,320.0363,239.798 M,0,146210,146241,320.0363,239.798,319.7896,239.7512 M,0,146241,146366,319.7896,239.7512,317.72,240.74 M,0,146367,146397,317.72,240.74,317.8689,240.9431 M,0,146398,146428,317.8689,240.9431,317.9644,241.1762 M,0,146429,146459,317.9644,241.1762,318.0086,241.4244 M,0,146460,146491,318.0086,241.4244,318.0108,241.6767 M,0,146492,146522,318.0108,241.6767,318.1811,241.5232 M,0,146523,146553,318.1811,241.5232,318.3906,241.3832 M,0,146554,146584,318.3906,241.3832,318.6275,241.298 M,0,146585,146616,318.6275,241.298,318.8786,241.2799 M,0,146616,146741,318.8786,241.2799,320.14,238.99 M,0,146742,146772,320.14,238.99,319.8889,238.9723 M,0,146773,146803,319.8889,238.9723,319.6519,238.8874 M,0,146804,146834,319.6519,238.8874,319.4421,238.7477 M,0,146835,146866,319.4421,238.7477,319.2708,238.5919 M,0,146867,146897,319.2708,238.5919,319.2687,238.8442 M,0,146898,146928,319.2687,238.8442,319.2248,239.0925 M,0,146929,146959,319.2248,239.0925,319.1296,239.3257 M,0,146960,146991,319.1296,239.3257,318.981,239.529 M,0,146991,147116,318.981,239.529,318.55,240.5 M,0,147116,147241,318.55,240.5,318.02,238.75 F,0,147215,147365,0.8,0
Sprite,Background,Centre,"sb\bg\blurgreen.jpg",0,0 F,0,139215,139365,0,0.8 M,0,139241,139366,321.55,238.34,319.79,239.63 S,0,139365,,0.4466667 M,0,139367,139397,319.79,239.63,319.7902,239.3783 M,0,139398,139428,319.7902,239.3783,319.8424,239.1326 M,0,139429,139459,319.8424,239.1326,319.9474,238.9042 M,0,139460,139491,319.9474,238.9042,320.0978,238.7025 M,0,139491,139616,320.0978,238.7025,321.55,238.34 M,0,139616,139741,321.55,238.34,322.41,239.72 M,0,139741,139803,322.41,239.72 M,0,139803,139866,322.41,239.72 M,0,139867,139897,322.41,239.72,322.3755,239.9701 M,0,139898,139928,322.3755,239.9701,322.341,240.2203 M,0,139929,139959,322.341,240.2203,322.3295,240.3036 M,0,139960,139991,322.3295,240.3036,322.364,240.0535 M,0,139992,140022,322.364,240.0535,322.3985,239.8034 M,0,140023,140032,322.3985,239.8034,322.41,239.72 M,0,140032,140116,322.41,239.72,321.45,239 M,0,140117,140147,321.45,239,321.4845,238.7499 M,0,140148,140178,321.4845,238.7499,321.519,238.4997 M,0,140179,140209,321.519,238.4997,321.5305,238.4164 M,0,140210,140241,321.5305,238.4164,321.496,238.6665 M,0,140242,140272,321.496,238.6665,321.4615,238.9166 M,0,140273,140282,321.4615,238.9166,321.45,239 M,0,140282,140366,321.45,239,320.6,239.74 M,0,140366,140449,320.6,239.74,320.5,240.26 M,0,140449,140532,320.5,240.26,320.4,240.78 M,0,140532,140616,320.4,240.78,320.31,241.31 M,0,140616,140741,320.31,241.31,317.72,241.72 M,0,140741,140803,317.72,241.72,317.79,241.39 M,0,140803,140866,317.79,241.39,317.84,241.05 M,0,140866,140991,317.84,241.05,318.64,240.55 M,0,140991,141053,318.64,240.55,318.71,240.22 M,0,141053,141116,318.71,240.22,318.76,239.88 M,0,141116,141241,318.76,239.88,319.49,239.23 F,0,141215,141365,0.8,0 M,0,141241,141303,319.49,239.23,319.56,238.9
Sprite,Background,Centre,"sb\bg\blurblue.jpg",0,0 M,0,127366,131366,321.06,239.35,320.44,240.9 F,0,131215,131365,0,0.8 S,0,131365,,0.4466667 M,0,131367,131397,320.44,240.9,320.6847,240.9624 M,0,131398,131428,320.6847,240.9624,320.9293,241.0248 M,0,131429,131459,320.9293,241.0248,321.174,241.0872 M,0,131460,131491,321.174,241.0872,321.4187,241.1497 M,0,131492,131522,321.4187,241.1497,321.474,240.9048 M,0,131523,131553,321.474,240.9048,321.5282,240.6581 M,0,131554,131584,321.5282,240.6581,321.5825,240.4115 M,0,131585,131616,321.5825,240.4115,321.6367,240.1649 M,0,131617,131647,321.6367,240.1649,321.5825,240.4115 M,0,131648,131678,321.5825,240.4115,321.5282,240.6581 M,0,131679,131709,321.5282,240.6581,321.474,240.9048 M,0,131710,131741,321.474,240.9048,321.4187,241.1497 M,0,131742,131772,321.4187,241.1497,321.174,241.0872 M,0,131773,131803,321.174,241.0872,320.9293,241.0248 M,0,131804,131834,320.9293,241.0248,320.6847,240.9624 M,0,131835,131866,320.6847,240.9624,320.44,240.9 M,0,131866,131991,320.44,240.9,320.02,239.33 M,0,131991,132116,320.02,239.33,318.87,240.28 M,0,132117,132147,318.87,240.28,319.1151,240.3383 M,0,132148,132178,319.1151,240.3383,319.3669,240.3437 M,0,132179,132209,319.3669,240.3437,319.614,240.2961 M,0,132210,132241,319.614,240.2961,319.8462,240.1987 M,0,132241,132366,319.8462,240.1987,318.32,238.98 M,0,132367,132397,318.32,238.98,318.3356,239.232 M,0,132398,132428,318.3356,239.232,318.3512,239.484 M,0,132429,132459,318.3512,239.484,318.3668,239.7361 M,0,132460,132491,318.3668,239.7361,318.3824,239.9881 M,0,132492,132522,318.3824,239.9881,318.398,240.2401 M,0,132523,132553,318.398,240.2401,318.4136,240.4921 M,0,132554,132584,318.4136,240.4921,318.4292,240.7441 M,0,132585,132616,318.4292,240.7441,318.4448,240.9961 M,0,132616,132741,318.4448,240.9961,320.63,241.84 M,0,132742,132772,320.63,241.84,320.645,241.588 M,0,132773,132803,320.645,241.588,320.6599,241.3359 M,0,132804,132834,320.6599,241.3359,320.6749,241.0838 M,0,132835,132866,320.6749,241.0838,320.6899,240.8318 M,0,132867,132897,320.6899,240.8318,320.7049,240.5797 M,0,132898,132928,320.7049,240.5797,320.7198,240.3277 M,0,132929,132959,320.7198,240.3277,320.7348,240.0756 M,0,132960,132991,320.7348,240.0756,320.7498,239.8236 M,0,132991,133116,320.7498,239.8236,321.67,238.38 M,0,133116,133241,321.67,238.38,322.23,241.1 M,0,133241,133366,322.23,241.1,320.75,239.82 M,0,133367,133397,320.75,239.82,320.5266,239.7032 M,0,133398,133428,320.5266,239.7032,320.3272,239.5487 M,0,133429,133459,320.3272,239.5487,320.1543,239.365 M,0,133460,133491,320.1543,239.365,320.0066,239.1604 M,0,133492,133522,320.0066,239.1604,319.9572,239.3862 M,0,133523,133553,319.9572,239.3862,319.8744,239.6244 M,0,133554,133584,319.8744,239.6244,319.7512,239.8444 M,0,133585,133616,319.7512,239.8444,319.5909,240.039 M,0,133616,133741,319.5909,240.039,320.32,240.82 M,0,133741,133866,320.32,240.82,321.3,239.22 M,0,133867,133897,321.3,239.22,321.55,239.185 M,0,133898,133928,321.55,239.185,321.8001,239.1499 M,0,133929,133959,321.8001,239.1499,322.0502,239.1148 M,0,133960,133991,322.0502,239.1148,322.3002,239.0798 M,0,133991,134116,322.3002,239.0798,320.6,238.43 M,0,134117,134147,320.6,238.43,320.3499,238.3949 M,0,134148,134178,320.3499,238.3949,320.0999,238.3599 M,0,134179,134209,320.0999,238.3599,319.8498,238.3248 M,0,134210,134241,319.8498,238.3248,319.5998,238.2898 M,0,134241,134366,319.5998,238.2898,318.05,239.36 M,0,134367,134397,318.05,239.36,317.9888,239.604 M,0,134398,134428,317.9888,239.604,317.9941,239.8554 M,0,134429,134459,317.9941,239.8554,318.0656,240.0963 M,0,134460,134491,318.0656,240.0963,318.198,240.3096 M,0,134492,134522,318.198,240.3096,318.382,240.4804 M,0,134523,134553,318.382,240.4804,318.6044,240.5965 M,0,134554,134584,318.6044,240.5965,318.8496,240.6498 M,0,134585,134616,318.8496,240.6498,319.1,240.64 M,0,134616,134741,319.1,240.64,320.89,240.63 M,0,134742,134772,320.89,240.63,321.1411,240.6459 M,0,134773,134803,321.1411,240.6459,321.3872,240.5948 M,0,134804,134834,321.3872,240.5948,321.6109,240.4803 M,0,134835,134866,321.6109,240.4803,321.7961,240.3107 M,0,134867,134897,321.7961,240.3107,321.9297,240.0982 M,0,134898,134928,321.9297,240.0982,322.0021,239.8579 M,0,134929,134959,322.0021,239.8579,322.0083,239.6071 M,0,134960,134991,322.0083,239.6071,321.9508,239.3624 M,0,134991,135116,321.9508,239.3624,320,239.84 M,0,135116,135178,320,239.84,320,240.24 M,0,135178,135241,320,240.24,320,240.64 M,0,135241,135303,320,240.64,320,241.04 M,0,135303,135366,320,241.04,320,241.44 M,0,135367,135397,320,241.44,320.2512,241.4653 M,0,135398,135428,320.2512,241.4653,320.5024,241.4907 M,0,135429,135459,320.5024,241.4907,320.7537,241.5161 M,0,135460,135491,320.7537,241.5161,321.0049,241.5414 M,0,135491,135616,321.0049,241.5414,322.46,239.49 M,0,135616,135741,322.46,239.49,321.78,238.84 M,0,135741,135866,321.78,238.84,321.59,239.75 M,0,135866,135991,321.59,239.75,320.8,239.49 M,0,135991,136116,320.8,239.49,321.91,240.54 M,0,136116,136241,321.91,240.54,322.21,239.05 M,0,136241,136366,322.21,239.05,320.22,238.44 M,0,136366,136491,320.22,238.44,320.54,240.76 M,0,136491,136616,320.54,240.76,321.59,239.75 M,0,136616,136741,321.59,239.75,319.27,239.43 M,0,136741,136866,319.27,239.43,321.79,239.77 M,0,136866,136991,321.79,239.77,319.07,239.4 M,0,136991,137116,319.07,239.4,320.56,240.95 M,0,137116,137241,320.56,240.95,320.18,238.24 M,0,137241,137366,320.18,238.24,319.84,241.55 M,0,137367,137397,319.84,241.55,319.5907,241.574 M,0,137398,137428,319.5907,241.574,319.3475,241.5179 M,0,137429,137459,319.3475,241.5179,319.1372,241.3835 M,0,137460,137491,319.1372,241.3835,318.9841,241.1863 M,0,137491,137553,318.9841,241.1863,318.17,241.32 M,0,137553,137616,318.17,241.32,318.04,241.16 M,0,137617,137647,318.04,241.16,317.8923,240.9577 M,0,137648,137678,317.8923,240.9577,317.8163,240.72 M,0,137679,137709,317.8163,240.72,317.8239,240.4704 M,0,137710,137741,317.8239,240.4704,317.9142,240.2377 M,0,137741,137803,317.9142,240.2377,317.49,239.53 M,0,137803,137866,317.49,239.53,317.55,239.35 M,0,137867,137897,317.55,239.35,317.6509,239.1208 M,0,137898,137928,317.6509,239.1208,317.8194,238.9367 M,0,137929,137959,317.8194,238.9367,318.0402,238.8204 M,0,137960,137991,318.0402,238.8204,318.2874,238.7858 M,0,137991,138053,318.2874,238.7858,318.9,238.2 M,0,138053,138116,318.9,238.2,319.07,238.17 M,0,138117,138147,319.07,238.17,319.3192,238.145 M,0,138148,138178,319.3192,238.145,319.562,238.202 M,0,138179,138209,319.562,238.202,319.7707,238.3387 M,0,138210,138241,319.7707,238.3387,319.9199,238.5386 M,0,138241,138366,319.9199,238.5386,318.9,239.94 M,0,138367,138397,318.9,239.94,319.0231,240.1605 M,0,138398,138428,319.0231,240.1605,319.1523,240.3724 M,0,138429,138459,319.1523,240.3724,319.4003,240.42 M,0,138460,138491,319.4003,240.42,319.6483,240.4675 M,0,138492,138522,319.6483,240.4675,319.8963,240.5151 M,0,138523,138553,319.8963,240.5151,320.1417,240.5514 M,0,138554,138584,320.1417,240.5514,320.3455,240.4023 M,0,138585,138616,320.3455,240.4023,320.54,240.26 M,0,138616,138741,320.54,240.26,322.47,238.74 M,0,138742,138772,322.47,238.74,322.3431,238.9583 M,0,138773,138803,322.3431,238.9583,322.2125,239.1714 M,0,138804,138834,322.2125,239.1714,321.9646,239.219 M,0,138835,138866,321.9646,239.219,321.7166,239.2666 M,0,138867,138897,321.7166,239.2666,321.4686,239.3142 M,0,138898,138928,321.4686,239.3142,321.2223,239.3544 M,0,138929,138959,321.2223,239.3544,321.0185,239.2053 M,0,138960,138991,321.0185,239.2053,320.82,239.06 M,0,138991,139116,320.82,239.06,319.07,238.17 M,0,139116,139241,319.07,238.17,321.55,238.34 F,0,139215,139365,0.8,0
Sprite,Background,Centre,"sb\bg\blurred.jpg",0,0 F,0,35215,35365,0,0.8 M,17,35241,35366,319.025,240.9615,322.11,239.48 S,0,35365,,0.4466667 M,17,35367,35397,322.11,239.48,321.882,239.3214 M,17,35398,35428,321.882,239.3214,321.654,239.1628 M,17,35429,35459,321.654,239.1628,321.3789,239.1916 M,17,35460,35491,321.3789,239.1916,321.1031,239.2238 M,17,35491,35616,321.1031,239.2238,320.67,241.2 M,17,35617,35647,320.67,241.2,320.898,241.3586 M,17,35648,35678,320.898,241.3586,321.126,241.5172 M,17,35679,35709,321.126,241.5172,321.4011,241.4884 M,17,35710,35741,321.4011,241.4884,321.6769,241.4562 M,17,35741,35866,321.6769,241.4562,320.04,239.95 M,17,35867,35897,320.04,239.95,319.7663,239.9048 M,17,35898,35928,319.7663,239.9048,319.4898,239.919 M,17,35929,35959,319.4898,239.919,319.232,240.0188 M,17,35960,35991,319.232,240.0188,319.008,240.1825 M,17,35992,36022,319.008,240.1825,318.7847,240.3473 M,17,36023,36053,318.7847,240.3473,318.5279,240.4494 M,17,36054,36084,318.5279,240.4494,318.2515,240.4658 M,17,36085,36116,318.2515,240.4658,317.9776,240.4218 M,17,36116,36241,317.9776,240.4218,318.24,239.4 M,17,36241,36366,318.24,239.4,319.71,240.79 M,17,36366,36491,319.71,240.79,318.29,241.66 M,17,36492,36522,318.29,241.66,318.3236,241.3843 M,17,36523,36553,318.3236,241.3843,318.3571,241.1086 M,17,36554,36584,318.3571,241.1086,318.3907,240.8329 M,17,36585,36616,318.3907,240.8329,318.4243,240.5571 M,17,36616,36741,318.4243,240.5571,320.9,240.51 M,17,36742,36772,320.9,240.51,320.644,240.6177 M,17,36773,36803,320.644,240.6177,320.3879,240.7254 M,17,36804,36834,320.3879,240.7254,320.1319,240.833 M,17,36835,36866,320.1319,240.833,319.8759,240.9407 M,17,36866,36991,319.8759,240.9407,317.44,239.78 M,17,36991,37116,317.44,239.78,318.65,238.69 M,17,37117,37147,318.65,238.69,318.8722,238.8566 M,17,37148,37178,318.8722,238.8566,319.0944,239.0233 M,17,37179,37209,319.0944,239.0233,319.3166,239.19 M,17,37210,37241,319.3166,239.19,319.5388,239.3566 M,17,37241,37366,319.5388,239.3566,321.01,241.48 M,17,37366,37491,321.01,241.48,320.57,239.31 M,17,37491,37616,320.57,239.31,322.5,240.48 M,17,37617,37647,322.5,240.48,322.2235,240.497 M,17,37648,37678,322.2235,240.497,321.9496,240.4569 M,17,37679,37709,321.9496,240.4569,321.6898,240.3612 M,17,37710,37741,321.6898,240.3612,321.4543,240.2156 M,17,37741,37866,321.4543,240.2156,319.05,240.23 M,17,37867,37897,319.05,240.23,319.3265,240.213 M,17,37898,37928,319.3265,240.213,319.6005,240.2531 M,17,37929,37959,319.6005,240.2531,319.8602,240.3488 M,17,37960,37991,319.8602,240.3488,320.0957,240.4944 M,17,37991,38116,320.0957,240.4944,319.34,241.5 M,17,38116,38241,319.34,241.5,317.87,240.93 M,17,38242,38272,317.87,240.93,317.7902,240.664 M,17,38273,38303,317.7902,240.664,317.7104,240.3979 M,17,38304,38334,317.7104,240.3979,317.6306,240.1319 M,17,38335,38366,317.6306,240.1319,317.7204,239.8695 M,17,38367,38397,317.7204,239.8695,317.7879,239.6073 M,17,38398,38428,317.7879,239.6073,317.6913,239.3469 M,17,38429,38459,317.6913,239.3469,317.5948,239.0865 M,17,38460,38491,317.5948,239.0865,317.4982,238.826 M,17,38491,38616,317.4982,238.826,319.5,238.46 M,17,38616,38741,319.5,238.46,319.75,239.49 M,17,38742,38772,319.75,239.49,319.4773,239.5356 M,17,38773,38803,319.4773,239.5356,319.2029,239.5048 M,17,38804,38834,319.2029,239.5048,318.9467,239.4017 M,17,38835,38866,318.9467,239.4017,318.7297,239.2302 M,17,38866,38991,318.7297,239.2302,320.94,238.85 M,17,38991,39116,320.94,238.85,320.17,240.52 M,17,39117,39147,320.17,240.52,320.386,240.3474 M,17,39148,39178,320.386,240.3474,320.6415,240.2425 M,17,39179,39209,320.6415,240.2425,320.9159,240.2137 M,17,39210,39241,320.9159,240.2137,321.1884,240.2596 M,17,39241,39366,321.1884,240.2596,321.83,241.38 M,17,39366,39491,321.83,241.38,319.25,240.51 M,17,39491,39616,319.25,240.51,319.37,241.77 M,17,39617,39647,319.37,241.77,319.6431,241.7195 M,17,39648,39678,319.6431,241.7195,319.9162,241.669 M,17,39679,39709,319.9162,241.669,320.1894,241.6185 M,17,39710,39741,320.1894,241.6185,320.4625,241.568 M,17,39741,39866,320.4625,241.568,319.87,239.51 M,17,39867,39897,319.87,239.51,319.6111,239.4095 M,17,39898,39928,319.6111,239.4095,319.3521,239.309 M,17,39929,39959,319.3521,239.309,319.0964,239.2989 M,17,39960,39991,319.0964,239.2989,318.8452,239.4174 M,17,39992,40022,318.8452,239.4174,318.594,239.5359 M,17,40023,40053,318.594,239.5359,318.3428,239.6544 M,17,40054,40084,318.3428,239.6544,318.0916,239.773 M,17,40085,40116,318.0916,239.773,317.8404,239.8915 M,17,40116,40241,317.8404,239.8915,321.01,240.26 M,17,40242,40272,321.01,240.26,321.1457,240.0177 M,17,40273,40303,321.1457,240.0177,321.2814,239.7753 M,17,40304,40334,321.2814,239.7753,321.2269,239.5076 M,17,40335,40366,321.2269,239.5076,321.1595,239.2381 M,17,40366,40491,321.1595,239.2381,319.71,241.19 M,17,40492,40522,319.71,241.19,319.8515,241.429 M,17,40523,40553,319.8515,241.429,319.9929,241.668 M,17,40554,40584,319.9929,241.668,320.2534,241.7537 M,17,40585,40616,320.2534,241.7537,320.5201,241.8313 M,17,40616,40741,320.5201,241.8313,319.6,239.67 M,17,40742,40772,319.6,239.67,319.3222,239.67 M,17,40773,40803,319.3222,239.67,319.0445,239.67 M,17,40804,40834,319.0445,239.67,318.8387,239.8468 M,17,40835,40866,318.8387,239.8468,318.6399,240.0408 M,17,40866,40991,318.6399,240.0408,321.4,241.2 M,17,40991,41116,321.4,241.2,320.28,238.98 M,17,41116,41241,320.28,238.98,320.17,240.44 M,17,41241,41366,320.17,240.44,321.95,239.63 M,17,41367,41397,321.95,239.63,321.9862,239.3546 M,17,41398,41428,321.9862,239.3546,322.0225,239.0793 M,17,41429,41459,322.0225,239.0793,322.0587,238.8039 M,17,41460,41491,322.0587,238.8039,322.0949,238.5285 M,17,41491,41616,322.0949,238.5285,320.04,240.53 M,17,41617,41647,320.04,240.53,320.0751,240.8055 M,17,41648,41678,320.0751,240.8055,320.1101,241.0811 M,17,41679,41709,320.1101,241.0811,320.1452,241.3566 M,17,41710,41741,320.1452,241.3566,320.18,241.63 M,17,41741,41866,320.18,241.63,318.4,239.05 M,17,41867,41897,318.4,239.05,318.6716,239.1059 M,17,41898,41928,318.6716,239.1059,318.9235,239.2211 M,17,41929,41959,318.9235,239.2211,319.1347,239.4 M,17,41960,41991,319.1347,239.4,319.2898,239.6296 M,17,41992,42022,319.2898,239.6296,319.5228,239.4807 M,17,42023,42053,319.5228,239.4807,319.7858,239.3938 M,17,42054,42084,319.7858,239.3938,320.0622,239.3723 M,17,42085,42116,320.0622,239.3723,320.3375,239.4059 M,17,42116,42241,320.3375,239.4059,318.26,240.12 M,17,42241,42366,318.26,240.12,319.91,238.43 M,17,42366,42491,319.91,238.43,321.03,240.21 M,17,42491,42616,321.03,240.21,321.37,239.03 M,17,42616,42741,321.37,239.03,320.69,241.36 M,17,42741,42866,320.69,241.36,319.2,239.61 M,17,42866,42991,319.2,239.61,319.43,240.79 M,17,42991,43116,319.43,240.79,318,238.66 M,17,43116,43241,318,238.66,317.66,239.68 M,17,43241,43366,317.66,239.68,320.42,238.81 M,17,43367,43397,320.42,238.81,320.181,238.6685 M,17,43398,43428,320.181,238.6685,319.942,238.5271 M,17,43429,43459,319.942,238.5271,319.6673,238.5443 M,17,43460,43491,319.6673,238.5443,319.3907,238.5699 M,17,43491,43616,319.3907,238.5699,321.31,240.69 M,17,43617,43647,321.31,240.69,321.5866,240.7156 M,17,43648,43678,321.5866,240.7156,321.8614,240.7333 M,17,43679,43709,321.8614,240.7333,322.1004,240.5918 M,17,43710,43741,322.1004,240.5918,322.3394,240.4503 M,17,43741,43866,322.3394,240.4503,319.89,240.12 M,17,43867,43897,319.89,240.12,319.791,240.3785 M,17,43898,43928,319.791,240.3785,319.7571,240.6529 M,17,43929,43959,319.7571,240.6529,319.7875,240.928 M,17,43960,43991,319.7875,240.928,319.8866,241.1866 M,17,43991,44116,319.8866,241.1866,321.55,239.39 M,17,44116,44241,321.55,239.39,319.04,239.37 M,17,44242,44272,319.04,239.37,318.7654,239.3285 M,17,44273,44303,318.7654,239.3285,318.4908,239.2869 M,17,44304,44334,318.4908,239.2869,318.2161,239.2454 M,17,44335,44366,318.2161,239.2454,317.9415,239.2038 M,17,44366,44491,317.9415,239.2038,318.19,241.61 M,17,44492,44522,318.19,241.61,318.2315,241.3354 M,17,44523,44553,318.2315,241.3354,318.2731,241.0607 M,17,44554,44584,318.2731,241.0607,318.3146,240.7861 M,17,44585,44616,318.3146,240.7861,318.3562,240.5115 M,17,44616,44741,318.3562,240.5115,320.62,238.45 M,17,44742,44772,320.62,238.45,320.6653,238.7237 M,17,44773,44803,320.6653,238.7237,320.651,239.0002 M,17,44804,44834,320.651,239.0002,320.5512,239.258 M,17,44835,44866,320.5512,239.258,320.3875,239.482 M,17,44867,44897,320.3875,239.482,320.2227,239.7053 M,17,44898,44928,320.2227,239.7053,320.1206,239.9622 M,17,44929,44959,320.1206,239.9622,320.1042,240.2385 M,17,44960,44991,320.1042,240.2385,320.1482,240.5124 M,17,44991,45116,320.1482,240.5124,321.33,240.26 M,17,45116,45241,321.33,240.26,319.49,238.71 M,17,45241,45366,319.49,238.71,321.89,238.88 M,17,45367,45397,321.89,238.88,321.6527,239.0232 M,17,45398,45428,321.6527,239.0232,321.3926,239.1183 M,17,45429,45459,321.3926,239.1183,321.1192,239.1627 M,17,45460,45491,321.1192,239.1627,320.8422,239.1528 M,17,45491,45616,320.8422,239.1528,317.96,239.57 M,17,45617,45647,317.96,239.57,318.2369,239.5585 M,17,45648,45678,318.2369,239.5585,318.5103,239.6022 M,17,45679,45709,318.5103,239.6022,318.7695,239.6995 M,17,45710,45741,318.7695,239.6995,319,239.84 M,17,45741,45866,319,239.84,320.2,241.45 M,17,45867,45897,320.2,241.45,320.2292,241.1738 M,17,45898,45928,320.2292,241.1738,320.2584,240.8976 M,17,45929,45959,320.2584,240.8976,320.2876,240.6214 M,17,45960,45991,320.2876,240.6214,320.3168,240.3452 M,17,45991,46116,320.3168,240.3452,321.67,241.15 M,17,46116,46241,321.67,241.15,319.08,241.65 M,17,46242,46272,319.08,241.65,318.8072,241.5978 M,17,46273,46303,318.8072,241.5978,318.5344,241.5456 M,17,46304,46334,318.5344,241.5456,318.2616,241.4934 M,17,46335,46366,318.2616,241.4934,317.9888,241.4413 M,17,46366,46491,317.9888,241.4413,320.49,240.31 M,17,46492,46522,320.49,240.31,320.7628,240.2578 M,17,46523,46553,320.7628,240.2578,321.0356,240.2056 M,17,46554,46584,321.0356,240.2056,321.3084,240.1534 M,17,46585,46616,321.3084,240.1534,321.5812,240.1012 M,17,46616,46741,321.5812,240.1012,319.47,238.86 M,17,46742,46772,319.47,238.86,319.213,238.7571 M,17,46773,46803,319.213,238.7571,318.9394,238.7167 M,17,46804,46834,318.9394,238.7167,318.6635,238.7384 M,17,46835,46866,318.6635,238.7384,318.4015,238.8279 M,17,46867,46897,318.4015,238.8279,318.1677,238.9756 M,17,46898,46928,318.1677,238.9756,317.9729,239.1721 M,17,46929,46959,317.9729,239.1721,317.8326,239.4106 M,17,46960,46991,317.8326,239.4106,317.7515,239.675 M,17,46991,47116,317.7515,239.675,318.9,239.91 M,17,47116,47241,318.9,239.91,320.41,238.38 M,17,47241,47366,320.41,238.38,317.53,238.58 M,17,47367,47397,317.53,238.58,317.5836,238.8525 M,17,47398,47428,317.5836,238.8525,317.6371,239.1251 M,17,47429,47459,317.6371,239.1251,317.6907,239.3976 M,17,47460,47491,317.6907,239.3976,317.7443,239.6701 M,17,47491,47616,317.7443,239.6701,319.89,240.68 M,17,47617,47647,319.89,240.68,319.9421,240.4072 M,17,47648,47678,319.9421,240.4072,319.9942,240.1344 M,17,47679,47709,319.9942,240.1344,320.0463,239.8615 M,17,47710,47741,320.0463,239.8615,320.0983,239.5887 M,17,47741,47866,320.0983,239.5887,322.26,240.72 M,17,47867,47897,322.26,240.72,322.3136,240.9925 M,17,47898,47928,322.3136,240.9925,322.3672,241.2651 M,17,47929,47959,322.3672,241.2651,322.4207,241.5376 M,17,47960,47991,322.4207,241.5376,322.4743,241.8101 M,17,47991,48116,322.4743,241.8101,321.54,239.45 M,17,48116,48241,321.54,239.45,320.25,241.65 M,17,48241,48366,320.25,241.65,319.14,240.08 M,17,48366,48491,319.14,240.08,321.36,240.34 M,17,48492,48522,321.36,240.34,321.1016,240.4404 M,17,48523,48553,321.1016,240.4404,320.8296,240.493 M,17,48554,48584,320.8296,240.493,320.5525,240.4977 M,17,48585,48616,320.5525,240.4977,320.2792,240.4505 M,17,48616,48741,320.2792,240.4505,318.06,241.32 M,17,48742,48772,318.06,241.32,318.3173,241.2168 M,17,48773,48803,318.3173,241.2168,318.5889,241.1619 M,17,48804,48834,318.5889,241.1619,318.8659,241.157 M,17,48835,48866,318.8659,241.157,319.1397,241.1999 M,17,48866,48991,319.1397,241.1999,320.36,241.82 M,17,48991,49116,320.36,241.82,319.14,240.08 M,17,49117,49147,319.14,240.08,318.9997,239.8408 M,17,49148,49178,318.9997,239.8408,318.9012,239.5817 M,17,49179,49209,318.9012,239.5817,318.8452,239.3102 M,17,49210,49241,318.8452,239.3102,318.8384,239.033 M,17,49241,49366,318.8384,239.033,320.88,238.42 M,17,49367,49397,320.88,238.42,320.8537,238.6965 M,17,49398,49428,320.8537,238.6965,320.8273,238.973 M,17,49429,49459,320.8273,238.973,320.801,239.2495 M,17,49460,49491,320.801,239.2495,320.7747,239.526 M,17,49491,49616,320.7747,239.526,322.15,241.36 M,17,49617,49647,322.15,241.36,322.1226,241.0836 M,17,49648,49678,322.1226,241.0836,322.0952,240.8072 M,17,49679,49709,322.0952,240.8072,322.0678,240.5308 M,17,49710,49741,322.0678,240.5308,322.0404,240.2544 M,17,49741,49866,322.0404,240.2544,318.77,240.85 M,17,49867,49897,318.77,240.85,318.993,241.0156 M,17,49898,49928,318.993,241.0156,319.216,241.1811 M,17,49929,49959,319.216,241.1811,319.4407,241.3365 M,17,49960,49991,319.4407,241.3365,319.7049,241.2509 M,17,49992,50022,319.7049,241.2509,319.9691,241.1653 M,17,50023,50053,319.9691,241.1653,320.2334,241.0797 M,17,50054,50084,320.2334,241.0797,320.4976,240.9942 M,17,50085,50116,320.4976,240.9942,320.7618,240.9086 M,17,50116,50241,320.7618,240.9086,319.64,240.08 M,17,50241,50366,319.64,240.08,318.19,241.8 M,17,50366,50491,318.19,241.8,318.09,239.67 M,17,50491,50616,318.09,239.67,319.85,240.1 M,17,50616,50741,319.85,240.1,317.55,240.74 M,17,50741,50866,317.55,240.74,319.02,239.13 M,17,50866,50991,319.02,239.13,318.82,240.65 M,17,50991,51116,318.82,240.65,317.98,238.53 M,17,51116,51241,317.98,238.53,320.77,239.26 F,0,51215,51365,0.8,0
Sprite,Background,Centre,"sb\bg\blurred.jpg",0,0 F,0,67215,67365,0,0.8 M,0,67241,67366,318.99,241.03,321.09,240.51 S,0,67365,,0.4466667 M,0,67367,67397,321.09,240.51,321.2003,240.256 M,0,67398,67428,321.2003,240.256,321.2491,239.9837 M,0,67429,67459,321.2491,239.9837,321.234,239.7076 M,0,67460,67491,321.234,239.7076,321.1579,239.4415 M,0,67491,67616,321.1579,239.4415,318.85,240.94 M,0,67617,67647,318.85,240.94,318.7397,241.194 M,0,67648,67678,318.7397,241.194,318.6909,241.4663 M,0,67679,67709,318.6909,241.4663,318.706,241.7424 M,0,67710,67741,318.706,241.7424,318.7821,242.0085 M,0,67741,67866,318.7821,242.0085,320.2,241.27 M,0,67866,67991,320.2,241.27,318,240.29 M,0,67991,68116,318,240.29,319.39,240.09 M,0,68117,68147,319.39,240.09,319.3685,239.8131 M,0,68148,68178,319.3685,239.8131,319.347,239.5362 M,0,68179,68209,319.347,239.5362,319.3255,239.2592 M,0,68210,68241,319.3255,239.2592,319.304,238.9823 M,0,68241,68366,319.304,238.9823,318,240.29 M,0,68366,68491,318,240.29,320.92,238.88 M,0,68491,68616,320.92,238.88,318.01,239.06 M,0,68616,68741,318.01,239.06,320.71,240.04 M,0,68741,68866,320.71,240.04,317.83,240.28 M,0,68867,68897,317.83,240.28,317.8053,240.5567 M,0,68898,68928,317.8053,240.5567,317.7806,240.8333 M,0,68929,68959,317.7806,240.8333,317.7559,241.11 M,0,68960,68991,317.7559,241.11,317.7312,241.3866 M,0,68991,69116,317.7312,241.3866,320.77,239.91 M,0,69117,69147,320.77,239.91,320.7923,239.6331 M,0,69148,69178,320.7923,239.6331,320.8147,239.3563 M,0,69179,69209,320.8147,239.3563,320.837,239.0795 M,0,69210,69241,320.837,239.0795,320.8593,238.8026 M,0,69241,69366,320.8593,238.8026,319.16,239.66 M,0,69366,69428,319.16,239.66,319.19,239.88 M,0,69428,69491,319.19,239.88,319.22,240.1 M,0,69491,69553,319.22,240.1,319.25,240.32 M,0,69553,69616,319.25,240.32,319.28,240.54 M,0,69617,69647,319.28,240.54,319.4903,240.7202 M,0,69648,69678,319.4903,240.7202,319.7366,240.846 M,0,69679,69709,319.7366,240.846,320.0055,240.9107 M,0,69710,69741,320.0055,240.9107,320.2819,240.9107 M,0,69741,69866,320.2819,240.9107,322.18,239.45 M,0,69867,69897,322.18,239.45,321.9025,239.4516 M,0,69898,69928,321.9025,239.4516,321.6291,239.4053 M,0,69929,69959,321.6291,239.4053,321.3709,239.3044 M,0,69960,69991,321.3709,239.3044,321.1404,239.1504 M,0,69992,70022,321.1404,239.1504,321.0298,239.4037 M,0,70023,70053,321.0298,239.4037,320.8615,239.6237 M,0,70054,70084,320.8615,239.6237,320.6442,239.7957 M,0,70085,70116,320.6442,239.7957,320.3953,239.918 M,0,70116,70241,320.3953,239.918,318.19,238.44 M,0,70242,70272,318.19,238.44,318.4394,238.5613 M,0,70273,70303,318.4394,238.5613,318.6574,238.7323 M,0,70304,70334,318.6574,238.7323,318.8269,238.9514 M,0,70335,70366,318.8269,238.9514,318.9385,239.2051 M,0,70367,70397,318.9385,239.2051,319.1659,239.0582 M,0,70398,70428,319.1659,239.0582,319.4236,238.9562 M,0,70429,70459,319.4236,238.9562,319.6969,238.9088 M,0,70460,70491,319.6969,238.9088,319.9743,238.9096 M,0,70491,70616,319.9743,238.9096,317.78,239.6 M,0,70617,70647,317.78,239.6,317.8159,239.8754 M,0,70648,70678,317.8159,239.8754,317.8518,240.1508 M,0,70679,70709,317.8518,240.1508,317.8878,240.4263 M,0,70710,70741,317.8878,240.4263,317.9237,240.7017 M,0,70741,70866,317.9237,240.7017,319.06,241.7 M,0,70866,70991,319.06,241.7,321.1,240.63 M,0,70992,71022,321.1,240.63,320.8291,240.5687 M,0,71023,71053,320.8291,240.5687,320.5582,240.5074 M,0,71054,71084,320.5582,240.5074,320.2873,240.4462 M,0,71085,71116,320.2873,240.4462,320.0404,240.559 M,0,71117,71147,320.0404,240.559,319.7961,240.6913 M,0,71148,71178,319.7961,240.6913,319.5303,240.6299 M,0,71179,71209,319.5303,240.6299,319.2629,240.5547 M,0,71210,71241,319.2629,240.5547,318.9955,240.4796 M,0,71241,71366,318.9955,240.4796,320.64,241.7 M,0,71367,71397,320.64,241.7,320.9161,241.6698 M,0,71398,71428,320.9161,241.6698,321.1922,241.6396 M,0,71429,71459,321.1922,241.6396,321.4683,241.6094 M,0,71460,71491,321.4683,241.6094,321.7444,241.5792 M,0,71491,71616,321.7444,241.5792,322.14,238.99 M,0,71616,71741,322.14,238.99,320.15,239.92 M,0,71741,71866,320.15,239.92,321.55,240.01 M,0,71866,71991,321.55,240.01,319.72,238.48 M,0,71991,72116,319.72,238.48,318.99,240.47 M,0,72116,72241,318.99,240.47,320.99,239.04 M,0,72241,72366,320.99,239.04,318.07,239.64 M,0,72367,72397,318.07,239.64,317.8997,239.8585 M,0,72398,72428,317.8997,239.8585,317.7767,240.1066 M,0,72429,72459,317.7767,240.1066,317.7054,240.3741 M,0,72460,72491,317.7054,240.3741,317.6897,240.6508 M,0,72491,72616,317.6897,240.6508,319.75,238.68 M,0,72617,72647,319.75,238.68,319.4731,238.6884 M,0,72648,72678,319.4731,238.6884,319.2036,238.752 M,0,72679,72709,319.2036,238.752,318.9521,238.8677 M,0,72710,72741,318.9521,238.8677,318.729,239.0321 M,0,72741,72866,318.729,239.0321,321.61,239.5 M,0,72867,72897,321.61,239.5,321.4246,239.2941 M,0,72898,72928,321.4246,239.2941,321.2026,239.1286 M,0,72929,72959,321.2026,239.1286,320.9527,239.0094 M,0,72960,72991,320.9527,239.0094,320.6838,238.9422 M,0,72991,73116,320.6838,238.9422,322.12,241.37 M,0,73117,73147,322.12,241.37,322.1587,241.0957 M,0,73148,73178,322.1587,241.0957,322.1407,240.8194 M,0,73179,73209,322.1407,240.8194,322.0676,240.5524 M,0,73210,73241,322.0676,240.5524,321.9404,240.3062 M,0,73241,73366,321.9404,240.3062,319.26,240.47 M,0,73367,73397,319.26,240.47,319.4377,240.6831 M,0,73398,73428,319.4377,240.6831,319.5768,240.9231 M,0,73429,73459,319.5768,240.9231,319.6709,241.184 M,0,73460,73491,319.6709,241.184,319.7188,241.4573 M,0,73492,73522,319.7188,241.4573,319.8766,241.2565 M,0,73523,73553,319.8766,241.2565,320.0717,241.0592 M,0,73554,73584,320.0717,241.0592,320.2952,240.8948 M,0,73585,73616,320.2952,240.8948,320.541,240.7661 M,0,73616,73741,320.541,240.7661,320.14,239.56 M,0,73741,73866,320.14,239.56,318.6,241.44 M,0,73867,73897,318.6,241.44,318.3252,241.4055 M,0,73898,73928,318.3252,241.4055,318.064,241.3139 M,0,73929,73959,318.064,241.3139,317.8277,241.1698 M,0,73960,73991,317.8277,241.1698,317.6274,240.9785 M,0,73991,74116,317.6274,240.9785,320.3,239.44 M,0,74117,74147,320.3,239.44,320.5748,239.4745 M,0,74148,74178,320.5748,239.4745,320.836,239.5661 M,0,74179,74209,320.836,239.5661,321.0723,239.7102 M,0,74210,74241,321.0723,239.7102,321.2726,239.9015 M,0,74241,74366,321.2726,239.9015,317.85,239.82 M,0,74367,74397,317.85,239.82,317.6575,239.575 M,0,74398,74428,317.6575,239.575,317.5932,239.2713 M,0,74429,74459,317.5932,239.2713,317.6743,238.9716 M,0,74460,74491,317.6743,238.9716,317.8831,238.7416 M,0,74492,74522,317.8831,238.7416,318.1737,238.6319 M,0,74523,74553,318.1737,238.6319,318.4827,238.6665 M,0,74554,74584,318.4827,238.6665,318.7421,238.8382 M,0,74585,74616,318.7421,238.8382,318.8966,239.109 M,0,74616,74741,318.8966,239.109,320.3,241.17 M,0,74742,74772,320.3,241.17,320.1436,241.4394 M,0,74773,74803,320.1436,241.4394,319.8854,241.6117 M,0,74804,74834,319.8854,241.6117,319.5769,241.6477 M,0,74835,74866,319.5769,241.6477,319.2856,241.5393 M,0,74867,74897,319.2856,241.5393,319.0752,241.3101 M,0,74898,74928,319.0752,241.3101,318.992,241.0099 M,0,74929,74959,318.992,241.0099,319.0547,240.7042 M,0,74960,74991,319.0547,240.7042,319.2498,240.4602 M,0,74991,75116,319.2498,240.4602,321.61,239.48 M,0,75117,75147,321.61,239.48,321.3887,239.7031 M,0,75148,75178,321.3887,239.7031,321.1175,239.8611 M,0,75179,75209,321.1175,239.8611,320.8137,239.9406 M,0,75210,75241,320.8137,239.9406,320.4997,239.9358 M,0,75241,75366,320.4997,239.9358,318.36,238.59 M,0,75367,75397,318.36,238.59,318.6357,238.624 M,0,75398,75428,318.6357,238.624,318.9113,238.6579 M,0,75429,75459,318.9113,238.6579,319.187,238.6919 M,0,75460,75491,319.187,238.6919,319.4627,238.7258 M,0,75491,75616,319.4627,238.7258,322.56,240.5 M,0,75617,75647,322.56,240.5,322.2841,240.5323 M,0,75648,75678,322.2841,240.5323,322.0083,240.5646 M,0,75679,75709,322.0083,240.5646,321.7324,240.5969 M,0,75710,75741,321.7324,240.5969,321.4565,240.6292 M,0,75741,75866,321.4565,240.6292,319.35,241.39 M,0,75867,75897,319.35,241.39,319.316,241.1143 M,0,75898,75928,319.316,241.1143,319.2821,240.8387 M,0,75929,75959,319.2821,240.8387,319.2481,240.563 M,0,75960,75991,319.2481,240.563,319.2142,240.2873 M,0,75991,76116,319.2142,240.2873,320.8,238.27 M,0,76117,76147,320.8,238.27,320.834,238.5457 M,0,76148,76178,320.834,238.5457,320.8679,238.8213 M,0,76179,76209,320.8679,238.8213,320.9019,239.097 M,0,76210,76241,320.9019,239.097,320.9358,239.3727 M,0,76241,76366,320.9358,239.3727,320.42,241.71 M,0,76367,76397,320.42,241.71,320.205,241.5347 M,0,76398,76428,320.205,241.5347,319.9673,241.3918 M,0,76429,76459,319.9673,241.3918,319.712,241.2835 M,0,76460,76491,319.712,241.2835,319.4433,241.2149 M,0,76492,76522,319.4433,241.2149,319.1677,241.1839 M,0,76523,76553,319.1677,241.1839,318.8905,241.1954 M,0,76554,76584,318.8905,241.1954,318.6179,241.2463 M,0,76585,76616,318.6179,241.2463,318.3552,241.3349 M,0,76616,76741,318.3552,241.3349,320.47,240.3 M,0,76741,76866,320.47,240.3,319.03,238.93 M,0,76867,76897,319.03,238.93,319.0627,239.2058 M,0,76898,76928,319.0627,239.2058,319.0955,239.4816 M,0,76929,76959,319.0955,239.4816,319.1282,239.7574 M,0,76960,76991,319.1282,239.7574,319.1609,240.0333 M,0,76991,77116,319.1609,240.0333,317.44,241.42 M,0,77117,77147,317.44,241.42,317.6802,241.2813 M,0,77148,77178,317.6802,241.2813,317.938,241.179 M,0,77179,77209,317.938,241.179,318.2079,241.1154 M,0,77210,77241,318.2079,241.1154,318.48,241.09 M,0,77241,77366,318.48,241.09,322.5,240.68 M,0,77367,77397,322.5,240.68,322.2423,240.7825 M,0,77398,77428,322.2423,240.7825,321.9718,240.8428 M,0,77429,77459,321.9718,240.8428,321.6951,240.8596 M,0,77460,77491,321.6951,240.8596,321.4195,240.8302 M,0,77492,77522,321.4195,240.8302,321.1518,240.7579 M,0,77523,77553,321.1518,240.7579,320.9001,240.6418 M,0,77554,77584,320.9001,240.6418,320.6695,240.4879 M,0,77585,77616,320.6695,240.4879,320.4681,240.2974 M,0,77616,77741,320.4681,240.2974,319.99,238.92 M,0,77741,77866,319.99,238.92,321.65,238.57 M,0,77867,77897,321.65,238.57,321.7465,238.8305 M,0,77898,77928,321.7465,238.8305,321.8429,239.0909 M,0,77929,77959,321.8429,239.0909,321.7764,239.3567 M,0,77960,77991,321.7764,239.3567,321.6971,239.6228 M,0,77991,78116,321.6971,239.6228,319.2,241.08 M,0,78117,78147,319.2,241.08,319.1035,240.8195 M,0,78148,78178,319.1035,240.8195,319.0071,240.5591 M,0,78179,78209,319.0071,240.5591,319.0736,240.2933 M,0,78210,78241,319.0736,240.2933,319.153,240.0272 M,0,78241,78366,319.153,240.0272,317.68,238.61 M,0,78367,78397,317.68,238.61,317.8146,238.853 M,0,78398,78428,317.8146,238.853,317.9492,239.0959 M,0,78429,78459,317.9492,239.0959,318.0838,239.3389 M,0,78460,78491,318.0838,239.3389,318.0133,239.6037 M,0,78492,78522,318.0133,239.6037,317.933,239.8696 M,0,78523,78553,317.933,239.8696,317.8527,240.1354 M,0,78554,78584,317.8527,240.1354,317.7723,240.4013 M,0,78585,78616,317.7723,240.4013,317.692,240.6672 M,0,78616,78741,317.692,240.6672,319.39,239.02 M,0,78741,78866,319.39,239.02,320.19,240.65 M,0,78867,78897,320.19,240.65,319.9754,240.8254 M,0,78898,78928,319.9754,240.8254,319.7316,240.9569 M,0,78929,78959,319.7316,240.9569,319.4678,241.0416 M,0,78960,78991,319.4678,241.0416,319.1924,241.0715 M,0,78991,79116,319.1924,241.0715,321.13,239.2 M,0,79117,79147,321.13,239.2,321.4056,239.2289 M,0,79148,79178,321.4056,239.2289,321.6697,239.3121 M,0,79179,79209,321.6697,239.3121,321.9119,239.4464 M,0,79210,79241,321.9119,239.4464,322.12,239.62 M,0,79241,79366,322.12,239.62,320.14,241.64 M,0,79367,79397,320.14,241.64,319.8642,241.6069 M,0,79398,79428,319.8642,241.6069,319.5885,241.5738 M,0,79429,79459,319.5885,241.5738,319.3127,241.5407 M,0,79460,79491,319.3127,241.5407,319.0369,241.5076 M,0,79492,79522,319.0369,241.5076,318.7611,241.4745 M,0,79523,79553,318.7611,241.4745,318.4854,241.4414 M,0,79554,79584,318.4854,241.4414,318.2096,241.4084 M,0,79585,79616,318.2096,241.4084,317.9338,241.3753 M,0,79616,79741,317.9338,241.3753,320.29,239.89 M,0,79742,79772,320.29,239.89,320.5658,239.8569 M,0,79773,79803,320.5658,239.8569,320.8416,239.8238 M,0,79804,79834,320.8416,239.8238,321.1173,239.7907 M,0,79835,79866,321.1173,239.7907,321.3931,239.7576 M,0,79867,79897,321.3931,239.7576,321.6689,239.7245 M,0,79898,79928,321.6689,239.7245,321.9446,239.6915 M,0,79929,79959,321.9446,239.6915,322.2204,239.6584 M,0,79960,79991,322.2204,239.6584,322.4962,239.6253 M,0,79991,80116,322.4962,239.6253,318.9,239 M,0,80117,80147,318.9,239,318.8676,239.2758 M,0,80148,80178,318.8676,239.2758,318.8351,239.5517 M,0,80179,80209,318.8351,239.5517,318.8026,239.8275 M,0,80210,80241,318.8026,239.8275,318.7702,240.1034 M,0,80241,80366,318.7702,240.1034,320.1,238.53 M,0,80366,80491,320.1,238.53,317.76,240.29 M,0,80491,80616,317.76,240.29,319.75,240.72 M,0,80616,80741,319.75,240.72,318.6,238.21 M,0,80741,80866,318.6,238.21,319.95,238.65 M,0,80866,80991,319.95,238.65,317.93,240.17 M,0,80991,81116,317.93,240.17,319.65,240.54 M,0,81116,81241,319.65,240.54,318.66,238.37 M,0,81241,81366,318.66,238.37,319.58,240.39 M,0,81367,81397,319.58,240.39,319.8545,240.3474 M,0,81398,81428,319.8545,240.3474,320.1289,240.3048 M,0,81429,81459,320.1289,240.3048,320.4034,240.2622 M,0,81460,81491,320.4034,240.2622,320.6779,240.2196 M,0,81491,81616,320.6779,240.2196,322.45,239.25 M,0,81617,81647,322.45,239.25,322.1755,239.2074 M,0,81648,81678,322.1755,239.2074,321.9011,239.1648 M,0,81679,81709,321.9011,239.1648,321.6266,239.1222 M,0,81710,81741,321.6266,239.1222,321.3521,239.0796 M,0,81741,81866,321.3521,239.0796,319.17,239.44 M,0,81866,81991,319.17,239.44,321.69,240.05 M,0,81991,82116,321.69,240.05,319.46,240.56 M,0,82117,82147,319.46,240.56,319.3688,240.8219 M,0,82148,82178,319.3688,240.8219,319.3199,241.0948 M,0,82179,82209,319.3199,241.0948,319.313,241.372 M,0,82210,82241,319.313,241.372,319.3524,241.6464 M,0,82241,82366,319.3524,241.6464,318.17,239.29 M,0,82367,82397,318.17,239.29,318.4811,239.2365 M,0,82398,82428,318.4811,239.2365,318.7921,239.1831 M,0,82429,82459,318.7921,239.1831,319.0032,238.9538 M,0,82460,82491,319.0032,238.9538,319.2082,238.7138 M,0,82492,82522,319.2082,238.7138,319.3493,238.9679 M,0,82523,82553,319.3493,238.9679,319.4865,239.2521 M,0,82554,82584,319.4865,239.2521,319.7564,239.4036 M,0,82585,82616,319.7564,239.4036,320.0407,239.5407 M,0,82616,82741,320.0407,239.5407,322.19,240.72 M,0,82742,82772,322.19,240.72,321.9047,240.8549 M,0,82773,82803,321.9047,240.8549,321.63,241.0006 M,0,82804,82834,321.63,241.0006,321.4928,241.2849 M,0,82835,82866,321.4928,241.2849,321.3535,241.5523 M,0,82867,82897,321.3535,241.5523,321.1484,241.3123 M,0,82898,82928,321.1484,241.3123,320.9401,241.0783 M,0,82929,82959,320.9401,241.0783,320.629,241.0248 M,0,82960,82991,320.629,241.0248,320.3179,240.9714 M,0,82991,83116,320.3179,240.9714,320.17,238.58 M,0,83116,83241,320.17,238.58,321.15,240.15 M,0,83241,83366,321.15,240.15,318.72,240.32 M,0,83367,83397,318.72,240.32,318.4453,240.279 M,0,83398,83428,318.4453,240.279,318.1706,240.2381 M,0,83429,83459,318.1706,240.2381,317.8959,240.1971 M,0,83460,83491,317.8959,240.1971,317.6212,240.1561 M,0,83491,83616,317.6212,240.1561,320.81,239.28 M,0,83617,83647,320.81,239.28,321.0847,239.239 M,0,83648,83678,321.0847,239.239,321.3594,239.1981 M,0,83679,83709,321.3594,239.1981,321.6341,239.1571 M,0,83710,83741,321.6341,239.1571,321.9088,239.1161 M,0,83741,83866,321.9088,239.1161,319.37,238.79 M,0,83866,83991,319.37,238.79,320.32,240.86 M,0,83991,84116,320.32,240.86,322.19,239.55 M,0,84117,84147,322.19,239.55,321.9153,239.509 M,0,84148,84178,321.9153,239.509,321.6406,239.4681 M,0,84179,84209,321.6406,239.4681,321.3659,239.4271 M,0,84210,84241,321.3659,239.4271,321.0912,239.3861 M,0,84241,84366,321.0912,239.3861,318.07,240.55 M,0,84366,84491,318.07,240.55,320.14,239.89 M,0,84491,84616,320.14,239.89,318.07,239.21 M,0,84616,84741,318.07,239.21,319.37,241 M,0,84741,84866,319.37,241,319.37,238.79 M,0,84867,84897,319.37,238.79,319.151,238.6195 M,0,84898,84928,319.151,238.6195,318.9125,238.4778 M,0,84929,84959,318.9125,238.4778,318.6582,238.3669 M,0,84960,84991,318.6582,238.3669,318.3925,238.2871 M,0,84991,85116,318.3925,238.2871,320.5,241.02 M,0,85117,85147,320.5,241.02,320.7662,240.9417 M,0,85148,85178,320.7662,240.9417,321.0196,240.8287 M,0,85179,85209,321.0196,240.8287,321.2556,240.6831 M,0,85210,85241,321.2556,240.6831,321.47,240.51 M,0,85241,85366,321.47,240.51,318.83,239.79 M,0,85366,85428,318.83,239.79,318.71,240.04 M,0,85428,85491,318.71,240.04,318.59,240.29 M,0,85491,85553,318.59,240.29,318.47,240.54 M,0,85553,85616,318.47,240.54,318.36,240.79 M,0,85617,85647,318.36,240.79,318.4041,241.0642 M,0,85648,85678,318.4041,241.0642,318.4482,241.3385 M,0,85679,85709,318.4482,241.3385,318.4922,241.6127 M,0,85710,85741,318.4922,241.6127,318.5363,241.8869 M,0,85741,85866,318.5363,241.8869,322.32,239.66 M,0,85867,85897,322.32,239.66,322.096,239.4957 M,0,85898,85928,322.096,239.4957,321.872,239.3315 M,0,85929,85959,321.872,239.3315,321.5998,239.3821 M,0,85960,85991,321.5998,239.3821,321.327,239.4346 M,0,85992,86022,321.327,239.4346,321.0543,239.4872 M,0,86023,86053,321.0543,239.4872,320.7816,239.5397 M,0,86054,86084,320.7816,239.5397,320.6451,239.781 M,0,86085,86116,320.6451,239.781,320.5093,240.0233 M,0,86116,86241,320.5093,240.0233,317.72,239.54 M,0,86242,86272,317.72,239.54,317.944,239.7043 M,0,86273,86303,317.944,239.7043,318.168,239.8685 M,0,86304,86334,318.168,239.8685,318.4402,239.8179 M,0,86335,86366,318.4402,239.8179,318.713,239.7654 M,0,86367,86397,318.713,239.7654,318.9857,239.7128 M,0,86398,86428,318.9857,239.7128,319.2585,239.6603 M,0,86429,86459,319.2585,239.6603,319.3992,239.4214 M,0,86460,86491,319.3992,239.4214,319.5391,239.1815 M,0,86491,86616,319.5391,239.1815,318.49,238.65 M,0,86616,86741,318.49,238.65,319.03,240.59 M,0,86741,86866,319.03,240.59,320.42,239.1 M,0,86866,86991,320.42,239.1,317.57,239.75 M,0,86992,87022,317.57,239.75,317.5121,240.0217 M,0,87023,87053,317.5121,240.0217,317.4542,240.2933 M,0,87054,87084,317.4542,240.2933,317.5136,240.5562 M,0,87085,87116,317.5136,240.5562,317.6111,240.8163 M,0,87117,87147,317.6111,240.8163,317.7086,241.0763 M,0,87148,87178,317.7086,241.0763,317.6879,241.3411 M,0,87179,87209,317.6879,241.3411,317.6111,241.608 M,0,87210,87241,317.6111,241.608,317.5343,241.8749 M,0,87241,87366,317.5343,241.8749,319.73,239.81 M,0,87367,87397,319.73,239.81,319.4875,239.6768 M,0,87398,87428,319.4875,239.6768,319.22,239.6069 M,0,87429,87459,319.22,239.6069,318.9435,239.6033 M,0,87460,87491,318.9435,239.6033,318.6754,239.671 M,0,87491,87616,318.6754,239.671,320.47,241.34 M,0,87616,87741,320.47,241.34,321.27,239.66 M,0,87741,87866,321.27,239.66,319.29,241.02 M,0,87866,87991,319.29,241.02,321.58,241.6 M,0,87991,88116,321.58,241.6,320.34,240.35 M,0,88116,88241,320.34,240.35,319.69,241.99 M,0,88241,88366,319.69,241.99,322.04,240.32 M,0,88367,88397,322.04,240.32,322.0908,240.0469 M,0,88398,88428,322.0908,240.0469,322.1415,239.7738 M,0,88429,88459,322.1415,239.7738,322.1922,239.5008 M,0,88460,88491,322.1922,239.5008,322.243,239.2277 M,0,88491,88616,322.243,239.2277,319.06,240.12 M,0,88617,88647,319.06,240.12,319.1107,240.3931 M,0,88648,88678,319.1107,240.3931,319.1615,240.6662 M,0,88679,88709,319.1615,240.6662,319.2122,240.9392 M,0,88710,88741,319.2122,240.9392,319.263,241.2123 M,0,88741,88866,319.263,241.2123,320.59,239.96 M,0,88867,88897,320.59,239.96,320.6407,239.6869 M,0,88898,88928,320.6407,239.6869,320.6915,239.4138 M,0,88929,88959,320.6915,239.4138,320.7422,239.1408 M,0,88960,88991,320.7422,239.1408,320.793,238.8677 M,0,88991,89116,320.793,238.8677,317.61,239.76 M,0,89117,89147,317.61,239.76,317.6607,240.0331 M,0,89148,89178,317.6607,240.0331,317.7115,240.3062 M,0,89179,89209,317.7115,240.3062,317.7622,240.5792 M,0,89210,89241,317.7622,240.5792,317.813,240.8523 M,0,89241,89366,317.813,240.8523,319.75,239.1 M,0,89367,89397,319.75,239.1,319.6042,238.8649 M,0,89398,89428,319.6042,238.8649,319.4032,238.6754 M,0,89429,89459,319.4032,238.6754,319.1606,238.5432 M,0,89460,89491,319.1606,238.5432,318.8912,238.4814 M,0,89492,89522,318.8912,238.4814,318.615,238.4894 M,0,89523,89553,318.615,238.4894,318.3513,238.5724 M,0,89554,89584,318.3513,238.5724,318.1166,238.7185 M,0,89585,89616,318.1166,238.7185,317.9295,238.9225 M,0,89616,89741,317.9295,238.9225,320.1,240.66 M,0,89741,89866,320.1,240.66,318.01,239.95 M,0,89867,89897,318.01,239.95,318.2842,239.9059 M,0,89898,89928,318.2842,239.9059,318.5585,239.8618 M,0,89929,89959,318.5585,239.8618,318.8061,239.9827 M,0,89960,89991,318.8061,239.9827,319.0525,240.1109 M,0,89991,90116,319.0525,240.1109,321.83,239.82 M,0,90117,90147,321.83,239.82,321.5566,239.8688 M,0,90148,90178,321.5566,239.8688,321.2831,239.9176 M,0,90179,90209,321.2831,239.9176,321.0375,239.7941 M,0,90210,90241,321.0375,239.7941,320.7933,239.6618 M,0,90241,90366,320.7933,239.6618,317.54,241.5 M,0,90367,90397,317.54,241.5,317.8176,241.3498 M,0,90398,90428,317.8176,241.3498,318.0952,241.1996 M,0,90429,90459,318.0952,241.1996,318.3727,241.0493 M,0,90460,90491,318.3727,241.0493,318.673,241.1269 M,0,90492,90522,318.673,241.1269,318.9747,241.2196 M,0,90523,90553,318.9747,241.2196,319.2764,241.3123 M,0,90554,90584,319.2764,241.3123,319.5781,241.405 M,0,90585,90616,319.5781,241.405,319.8798,241.4977 M,0,90616,90741,319.8798,241.4977,322.37,240.51 M,0,90742,90772,322.37,240.51,322.0924,240.6602 M,0,90773,90803,322.0924,240.6602,321.8148,240.8104 M,0,90804,90834,321.8148,240.8104,321.5373,240.9607 M,0,90835,90866,321.5373,240.9607,321.237,240.8831 M,0,90867,90897,321.237,240.8831,320.9353,240.7904 M,0,90898,90928,320.9353,240.7904,320.6336,240.6977 M,0,90929,90959,320.6336,240.6977,320.3319,240.605 M,0,90960,90991,320.3319,240.605,320.0302,240.5123 M,0,90991,91116,320.0302,240.5123,317.54,239.14 M,0,91116,91241,317.54,239.14,320.14,238.67 M,0,91241,91366,320.14,238.67,319.09,240.28 M,0,91367,91397,319.09,240.28,318.9832,240.0242 M,0,91398,91428,318.9832,240.0242,318.9229,239.7537 M,0,91429,91459,318.9229,239.7537,318.9105,239.477 M,0,91460,91491,318.9105,239.477,318.9474,239.2022 M,0,91491,91616,318.9474,239.2022,321.49,240.61 M,0,91617,91647,321.49,240.61,321.5233,240.8853 M,0,91648,91678,321.5233,240.8853,321.5079,241.162 M,0,91679,91709,321.5079,241.162,321.4442,241.4316 M,0,91710,91741,321.4442,241.4316,321.34,241.68 M,0,91741,91866,321.34,241.68,318.41,241.06 M,0,91867,91897,318.41,241.06,318.653,241.1944 M,0,91898,91928,318.653,241.1944,318.8981,241.3171 M,0,91929,91959,318.8981,241.3171,319.1724,241.273 M,0,91960,91991,319.1724,241.273,319.44,241.23 M,0,91991,92116,319.44,241.23,321.81,239.36 M,0,92117,92147,321.81,239.36,321.5358,239.3159 M,0,92148,92178,321.5358,239.3159,321.2615,239.2719 M,0,92179,92209,321.2615,239.2719,321.0161,239.3967 M,0,92210,92241,321.0161,239.3967,320.7718,239.529 M,0,92241,92366,320.7718,239.529,317.91,239.75 M,0,92367,92397,317.91,239.75,318.1837,239.7048 M,0,92398,92428,318.1837,239.7048,318.4602,239.719 M,0,92429,92459,318.4602,239.719,318.718,239.8188 M,0,92460,92491,318.718,239.8188,318.942,239.9825 M,0,92492,92522,318.942,239.9825,319.1653,240.1473 M,0,92523,92553,319.1653,240.1473,319.4221,240.2494 M,0,92554,92584,319.4221,240.2494,319.6985,240.2658 M,0,92585,92616,319.6985,240.2658,319.9724,240.2218 M,0,92616,92741,319.9724,240.2218,319.66,239.17 M,0,92741,92866,319.66,239.17,318.19,240.71 M,0,92866,92991,318.19,240.71,320.14,241.02 M,0,92991,93116,320.14,241.02,318.48,239.45 M,0,93117,93147,318.48,239.45,318.2389,239.3129 M,0,93148,93178,318.2389,239.3129,317.9808,239.2112 M,0,93179,93209,317.9808,239.2112,317.7113,239.1459 M,0,93210,93241,317.7113,239.1459,317.435,239.1207 M,0,93241,93366,317.435,239.1207,319.5,241.9 M,0,93367,93397,319.5,241.9,319.5879,241.6371 M,0,93398,93428,319.5879,241.6371,319.7296,241.3988 M,0,93429,93459,319.7296,241.3988,319.9133,241.1909 M,0,93460,93491,319.9133,241.1909,320.1262,241.0128 M,0,93492,93522,320.1262,241.0128,320.4026,241.0222 M,0,93523,93553,320.4026,241.0222,320.6756,241.0715 M,0,93554,93584,320.6756,241.0715,320.9385,241.1604 M,0,93585,93616,320.9385,241.1604,321.185,241.2879 M,0,93616,93741,321.185,241.2879,318.45,240.96 M,0,93741,93866,318.45,240.96,320.62,239.93 M,0,93867,93897,320.62,239.93,320.362,240.0318 M,0,93898,93928,320.362,240.0318,320.0919,240.0944 M,0,93929,93959,320.0919,240.0944,319.8155,240.1172 M,0,93960,93991,319.8155,240.1172,319.5389,240.0965 M,0,93991,94116,319.5389,240.0965,317.5,238.77 M,0,94117,94147,317.5,238.77,317.7768,238.7507 M,0,94148,94178,317.7768,238.7507,318.0533,238.772 M,0,94179,94209,318.0533,238.772,318.3237,238.8332 M,0,94210,94241,318.3237,238.8332,318.58,238.93 M,0,94241,94366,318.58,238.93,320.74,241.08 M,0,94367,94397,320.74,241.08,320.7824,240.8055 M,0,94398,94428,320.7824,240.8055,320.8248,240.531 M,0,94429,94459,320.8248,240.531,320.8672,240.2565 M,0,94460,94491,320.8672,240.2565,320.9096,239.982 M,0,94492,94522,320.9096,239.982,320.9521,239.7075 M,0,94523,94553,320.9521,239.7075,320.9945,239.433 M,0,94554,94584,320.9945,239.433,321.0369,239.1586 M,0,94585,94616,321.0369,239.1586,321.0793,238.8841 M,0,94616,94741,321.0793,238.8841,319.82,239.41 M,0,94741,94866,319.82,239.41,321.84,240.82 M,0,94866,94991,321.84,240.82,321.95,239.51 M,0,94991,95116,321.95,239.51,319.69,240.78 M,0,95116,95241,319.69,240.78,321.96,240.94 M,0,95241,95366,321.96,240.94,319.69,239.29 M,0,95367,95397,319.69,239.29,319.4868,239.101 M,0,95398,95428,319.4868,239.101,319.3201,238.8795 M,0,95429,95459,319.3201,238.8795,319.1942,238.6852 M,0,95460,95491,319.1942,238.6852,318.9759,238.8561 M,0,95492,95522,318.9759,238.8561,318.726,238.9759 M,0,95523,95553,318.726,238.9759,318.4554,239.0358 M,0,95554,95584,318.4554,239.0358,318.1781,239.0383 M,0,95585,95616,318.1781,239.0383,317.9042,238.9936 M,0,95616,95741,317.9042,238.9936,318.85,240.19 M,0,95741,95866,318.85,240.19,320.75,240 M,0,95867,95897,320.75,240,320.8615,239.7464 M,0,95898,95928,320.8615,239.7464,320.92,239.4757 M,0,95929,95959,320.92,239.4757,320.9246,239.1988 M,0,95960,95991,320.9246,239.1988,320.8703,238.9272 M,0,95991,96116,320.8703,238.9272,318.7,240.37 M,0,96117,96147,318.7,240.37,318.6416,240.6408 M,0,96148,96178,318.6416,240.6408,318.643,240.9176 M,0,96179,96209,318.643,240.9176,318.7041,241.1875 M,0,96210,96241,318.7041,241.1875,318.8195,241.4392 M,0,96241,96366,318.8195,241.4392,320.46,241.26 M,0,96366,96491,320.46,241.26,317.59,240.47 M,0,96491,96616,317.59,240.47,320.15,240.27 M,0,96616,96741,320.15,240.27,317.85,241.38 M,0,96741,96866,317.85,241.38,319.6,241.59 M,0,96866,96991,319.6,241.59,318.38,239.99 M,0,96991,97116,318.38,239.99,319.45,240.63 M,0,97116,97241,319.45,240.63,318.64,241.05 M,0,97241,97366,318.64,241.05,321.14,241.26 M,0,97367,97397,321.14,241.26,321.3229,241.052 M,0,97398,97428,321.3229,241.052,321.4579,240.8104 M,0,97429,97459,321.4579,240.8104,321.5404,240.5461 M,0,97460,97491,321.5404,240.5461,321.5621,240.2701 M,0,97492,97522,321.5621,240.2701,321.5273,239.9954 M,0,97523,97553,321.5273,239.9954,321.4317,239.7355 M,0,97554,97584,321.4317,239.7355,321.2837,239.5016 M,0,97585,97616,321.2837,239.5016,321.0909,239.3029 M,0,97616,97741,321.0909,239.3029,319.69,238.75 M,0,97741,97866,319.69,238.75,319.33,240.1 M,0,97867,97897,319.33,240.1,319.5703,240.2393 M,0,97898,97928,319.5703,240.2393,319.8105,240.3787 M,0,97929,97959,319.8105,240.3787,320.0826,240.3533 M,0,97960,97991,320.0826,240.3533,320.3575,240.3134 M,0,97991,98116,320.3575,240.3134,318.57,239.15 M,0,98117,98147,318.57,239.15,318.2953,239.1086 M,0,98148,98178,318.2953,239.1086,318.0232,239.0799 M,0,98179,98209,318.0232,239.0799,317.7842,239.2214 M,0,98210,98241,317.7842,239.2214,317.55,239.36 M,0,98241,98366,317.55,239.36,318.34,241.63 M,0,98367,98397,318.34,241.63,318.6266,241.761 M,0,98398,98428,318.6266,241.761,318.9337,241.8311 M,0,98429,98459,318.9337,241.8311,319.2488,241.8397 M,0,98460,98491,319.2488,241.8397,319.5609,241.7944 M,0,98492,98522,319.5609,241.7944,319.8036,241.5965 M,0,98523,98553,319.8036,241.5965,320.0028,241.3523 M,0,98554,98584,320.0028,241.3523,320.1514,241.0744 M,0,98585,98616,320.1514,241.0744,320.2451,240.7735 M,0,98616,98741,320.2451,240.7735,319.46,238.51 M,0,98742,98772,319.46,238.51,319.1734,238.379 M,0,98773,98803,319.1734,238.379,318.8662,238.3089 M,0,98804,98834,318.8662,238.3089,318.5512,238.3003 M,0,98835,98866,318.5512,238.3003,318.2392,238.3456 M,0,98867,98897,318.2392,238.3456,317.9928,238.5392 M,0,98898,98928,317.9928,238.5392,317.7899,238.7803 M,0,98929,98959,317.7899,238.7803,317.639,239.0569 M,0,98960,98991,317.639,239.0569,317.5447,239.3576 M,0,98991,99116,317.5447,239.3576,321.13,241.07 M,0,99117,99147,321.13,241.07,321.2631,240.7851 M,0,99148,99178,321.2631,240.7851,321.4554,240.5352 M,0,99179,99209,321.4554,240.5352,321.2005,240.3636 M,0,99210,99241,321.2005,240.3636,320.9717,240.1469 F,0,99215,99365,0.8,0
Sprite,Background,Centre,"sb\bg\blurred.jpg",0,0 F,0,171215,171365,0,0.8 M,0,171303,171366,318.64,239.68,318.49,239.42 S,0,171365,,0.4466667 M,0,171367,171397,318.49,239.42,318.7437,239.2543 M,0,171398,171428,318.7437,239.2543,319.0006,239.1023 M,0,171429,171459,319.0006,239.1023,319.3017,239.1362 M,0,171460,171490,319.3017,239.1362,319.6028,239.1702 M,0,171490,171616,319.6028,239.1702,320.19,241.29 M,0,171617,171647,320.19,241.29,319.9363,241.4557 M,0,171648,171678,319.9363,241.4557,319.6794,241.6077 M,0,171679,171709,319.6794,241.6077,319.3783,241.5737 M,0,171710,171740,319.3783,241.5737,319.0772,241.5398 M,0,171740,171866,319.0772,241.5398,320.26,239.72 M,0,171867,171897,320.26,239.72,320.5583,239.6692 M,0,171898,171928,320.5583,239.6692,320.8599,239.6849 M,0,171929,171959,320.8599,239.6849,321.1402,239.796 M,0,171960,171991,321.1402,239.796,321.3836,239.976 M,0,171992,172022,321.3836,239.976,321.6288,240.1534 M,0,172023,172053,321.6288,240.1534,321.9115,240.2583 M,0,172054,172084,321.9115,240.2583,322.2133,240.2697 M,0,172085,172115,322.2133,240.2697,322.5,240.22 M,0,172115,172241,322.5,240.22,321.65,238.99 M,0,172241,172366,321.65,238.99,320.64,240.56 M,0,172366,172491,320.64,240.56,321.98,241.84 M,0,172492,172522,321.98,241.84,321.9397,241.5397 M,0,172523,172553,321.9397,241.5397,321.8993,241.2394 M,0,172554,172584,321.8993,241.2394,321.859,240.9391 M,0,172585,172615,321.859,240.9391,321.8186,240.6388 M,0,172615,172741,321.8186,240.6388,319.3,240.24 M,0,172742,172772,319.3,240.24,319.5798,240.3564 M,0,172773,172803,319.5798,240.3564,319.8595,240.4727 M,0,172804,172834,319.8595,240.4727,320.1393,240.5891 M,0,172835,172865,320.1393,240.5891,320.4191,240.7054 M,0,172865,172991,320.4191,240.7054,322.56,239.83 M,0,172991,173116,322.56,239.83,322.01,238.62 M,0,173117,173147,322.01,238.62,321.7667,238.8006 M,0,173148,173178,321.7667,238.8006,321.5235,238.9813 M,0,173179,173209,321.5235,238.9813,321.2802,239.1619 M,0,173210,173240,321.2802,239.1619,321.037,239.3426 M,0,173240,173366,321.037,239.3426,318.99,241.48 M,0,173366,173491,318.99,241.48,318.17,239.1 M,0,173491,173616,318.17,239.1,320.11,238.93 M,0,173617,173647,320.11,238.93,319.9159,239.16 M,0,173648,173678,319.9159,239.16,319.6596,239.3172 M,0,173679,173709,319.6596,239.3172,319.3659,239.3825 M,0,173710,173740,319.3659,239.3825,319.07,239.35 M,0,173740,173866,319.07,239.35,318.02,240.84 M,0,173867,173897,318.02,240.84,318.3169,240.7878 M,0,173898,173928,318.3169,240.7878,318.5876,240.6557 M,0,173929,173959,318.5876,240.6557,318.8092,240.4516 M,0,173960,173990,318.8092,240.4516,318.9635,240.1923 M,0,173990,174116,318.9635,240.1923,319.33,238.55 M,0,174116,174241,319.33,238.55,321.06,240.47 M,0,174242,174272,321.06,240.47,320.8783,240.7114 M,0,174273,174303,320.8783,240.7114,320.7627,240.9907 M,0,174304,174334,320.7627,240.9907,320.7105,241.2887 M,0,174335,174366,320.7105,241.2887,320.7094,241.5914 M,0,174367,174397,320.7094,241.5914,320.4991,241.395 M,0,174398,174428,320.4991,241.395,320.2469,241.2281 M,0,174429,174459,320.2469,241.2281,319.9619,241.1282 M,0,174460,174490,319.9619,241.1282,319.67,241.11 M,0,174490,174616,319.67,241.11,320.5,238.46 M,0,174616,174741,320.5,238.46,321.31,239.23 M,0,174742,174772,321.31,239.23,321.0724,239.4181 M,0,174773,174803,321.0724,239.4181,320.8349,239.6061 M,0,174804,174834,320.8349,239.6061,320.5334,239.6001 M,0,174835,174865,320.5334,239.6001,320.2305,239.59 M,0,174865,174991,320.2305,239.59,318.46,238.6 M,0,174991,175116,318.46,238.6,318.24,241.06 M,0,175117,175147,318.24,241.06,318.3901,240.7968 M,0,175148,175178,318.3901,240.7968,318.5401,240.5335 M,0,175179,175209,318.5401,240.5335,318.6902,240.2703 M,0,175210,175240,318.6902,240.2703,318.8403,240.0071 M,0,175240,175366,318.8403,240.0071,320.5,238.46 M,0,175366,175491,320.5,238.46,318.04,239.5 M,0,175491,175616,318.04,239.5,320.02,240.47 M,0,175617,175647,320.02,240.47,320.3195,240.4947 M,0,175648,175678,320.3195,240.4947,320.608,240.4128 M,0,175679,175709,320.608,240.4128,320.8474,240.2312 M,0,175710,175740,320.8474,240.2312,321.0001,239.9727 M,0,175740,175866,321.0001,239.9727,322.19,238.44 M,0,175867,175897,322.19,238.44,321.9566,238.6332 M,0,175898,175928,321.9566,238.6332,321.7231,238.8264 M,0,175929,175959,321.7231,238.8264,321.6375,239.0737 M,0,175960,175991,321.6375,239.0737,321.6907,239.372 M,0,175992,176022,321.6907,239.372,321.744,239.6703 M,0,176023,176053,321.744,239.6703,321.7972,239.9686 M,0,176054,176084,321.7972,239.9686,321.8505,240.2668 M,0,176085,176115,321.8505,240.2668,321.9038,240.5651 M,0,176115,176241,321.9038,240.5651,319.33,241.94 M,0,176242,176272,319.33,241.94,319.6199,241.852 M,0,176273,176303,319.6199,241.852,319.9006,241.7521 M,0,176304,176334,319.9006,241.7521,320.0551,241.4915 M,0,176335,176365,320.0551,241.4915,320.2095,241.2308 M,0,176365,176491,320.2095,241.2308,318.62,239.1 M,0,176492,176522,318.62,239.1,318.5416,239.3927 M,0,176523,176553,318.5416,239.3927,318.4829,239.6829 M,0,176554,176584,318.4829,239.6829,318.6317,239.9468 M,0,176585,176615,318.6317,239.9468,318.78,240.21 M,0,176615,176741,318.78,240.21,321.38,239.97 M,0,176742,176772,321.38,239.97,321.1632,239.7583 M,0,176773,176803,321.1632,239.7583,320.9409,239.56 M,0,176804,176834,320.9409,239.56,320.6379,239.56 M,0,176835,176865,320.6379,239.56,320.3349,239.56 M,0,176865,176991,320.3349,239.56,318.59,241.25 M,0,176991,177116,318.59,241.25,319.56,238.79 M,0,177116,177241,319.56,238.79,319.69,240.42 M,0,177241,177366,319.69,240.42,317.65,239.66 M,0,177367,177397,317.65,239.66,317.618,239.3587 M,0,177398,177428,317.618,239.3587,317.5861,239.0574 M,0,177429,177459,317.5861,239.0574,317.5541,238.7561 M,0,177460,177490,317.5541,238.7561,317.5222,238.4548 M,0,177490,177616,317.5222,238.4548,319.91,240.34 M,0,177617,177647,319.91,240.34,319.8703,240.6404 M,0,177648,177678,319.8703,240.6404,319.8306,240.9408 M,0,177679,177709,319.8306,240.9408,319.7908,241.2411 M,0,177710,177740,319.7908,241.2411,319.7511,241.5415 M,0,177740,177866,319.7511,241.5415,321.78,238.62 M,0,177867,177897,321.78,238.62,321.6302,238.8834 M,0,177898,177928,321.6302,238.8834,321.471,239.1337 M,0,177929,177959,321.471,239.1337,321.1736,239.1912 M,0,177960,177991,321.1736,239.1912,320.876,239.2487 M,0,177992,178022,320.876,239.2487,320.5786,239.3062 M,0,178023,178053,320.5786,239.3062,320.2843,239.3487 M,0,178054,178084,320.2843,239.3487,320.0385,239.1717 M,0,178085,178115,320.0385,239.1717,319.8,239 M,0,178115,178241,319.8,239,319.45,238.17 M,0,178241,178366,319.45,238.17,318.5,240.03 M,0,178366,178491,318.5,240.03,320.26,240.25 M,0,178491,178616,320.26,240.25,318.5,240.03 M,0,178616,178741,318.5,240.03,321.13,241.13 M,0,178741,178866,321.13,241.13,319.37,241.35 M,0,178866,178991,319.37,241.35,321.13,241.13 M,0,178991,179116,321.13,241.13,322,238.66 M,0,179116,179241,322,238.66,322.34,239.68 M,0,179241,179366,322.34,239.68,320.3,238.63 M,0,179366,179429,320.3,238.63,320.13,238.4 M,0,179429,179491,320.13,238.4,319.86,238.49 M,0,179491,179554,319.86,238.49,319.86,238.77 M,0,179554,179616,319.86,238.77,320.13,238.86 M,0,179617,179647,320.13,238.86,319.9194,238.6437 M,0,179648,179678,319.9194,238.6437,319.6642,238.4826 M,0,179679,179709,319.6642,238.4826,319.3768,238.3908 M,0,179710,179740,319.3768,238.3908,319.0759,238.3703 M,0,179740,179866,319.0759,238.3703,317.44,240.12 M,0,179867,179897,317.44,240.12,317.6506,239.9037 M,0,179898,179928,317.6506,239.9037,317.9058,239.7426 M,0,179929,179959,317.9058,239.7426,318.1932,239.6508 M,0,179960,179990,318.1932,239.6508,318.4941,239.6303 M,0,179990,180116,318.4941,239.6303,317.79,238.43 M,0,180116,180241,317.79,238.43,321.16,239.81 M,0,180242,180272,321.16,239.81,321.4597,239.7655 M,0,180273,180303,321.4597,239.7655,321.7594,239.721 M,0,180304,180334,321.7594,239.721,322.0591,239.6765 M,0,180335,180365,322.0591,239.6765,322.3589,239.632 M,0,180365,180491,322.3589,239.632,320.64,241.81 M,0,180492,180522,320.64,241.81,320.5918,241.5109 M,0,180523,180553,320.5918,241.5109,320.5435,241.2117 M,0,180554,180584,320.5435,241.2117,320.4953,240.9126 M,0,180585,180615,320.4953,240.9126,320.447,240.6135 M,0,180615,180741,320.447,240.6135,321.4,238.64 M,0,180742,180772,321.4,238.64,321.1016,238.5894 M,0,180773,180803,321.1016,238.5894,320.7999,238.6039 M,0,180804,180834,320.7999,238.6039,320.5186,238.7124 M,0,180835,180866,320.5186,238.7124,320.274,238.8908 M,0,180867,180897,320.274,238.8908,320.0293,239.0689 M,0,180898,180928,320.0293,239.0689,319.7476,239.1765 M,0,180929,180959,319.7476,239.1765,319.4459,239.1904 M,0,180960,180990,319.4459,239.1904,319.15,239.14 M,0,180990,181116,319.15,239.14,317.79,238.43 M,0,181116,181241,317.79,238.43,319.53,238.23 M,0,181241,181366,319.53,238.23,320.08,240.2 M,0,181366,181429,320.08,240.2,320.25,240.43 M,0,181429,181491,320.25,240.43,320.52,240.34 M,0,181491,181554,320.52,240.34,320.52,240.06 M,0,181554,181616,320.52,240.06,320.25,239.97 M,0,181617,181647,320.25,239.97,320.4606,240.1863 M,0,181648,181678,320.4606,240.1863,320.7158,240.3474 M,0,181679,181709,320.7158,240.3474,321.0032,240.4392 M,0,181710,181740,321.0032,240.4392,321.3041,240.4597 M,0,181740,181866,321.3041,240.4597,319.39,241.86 M,0,181867,181897,319.39,241.86,319.3507,241.5596 M,0,181898,181928,319.3507,241.5596,319.3114,241.2591 M,0,181929,181959,319.3114,241.2591,319.2721,240.9587 M,0,181960,181990,319.2721,240.9587,319.2328,240.6582 M,0,181990,182116,319.2328,240.6582,319.07,239.4 M,0,182116,182241,319.07,239.4,320.58,241.65 M,0,182242,182272,320.58,241.65,320.8693,241.56 M,0,182273,182303,320.8693,241.56,321.1628,241.5329 M,0,182304,182334,321.1628,241.5329,321.4567,241.5165 M,0,182335,182365,321.4567,241.5165,321.7454,241.4246 M,0,182365,182491,321.7454,241.4246,319.03,240.49 M,0,182492,182522,319.03,240.49,318.7401,240.4018 M,0,182523,182553,318.7401,240.4018,318.4467,240.3713 M,0,182554,182584,318.4467,240.3713,318.1524,240.3594 M,0,182585,182615,318.1524,240.3594,317.8637,240.2675 M,0,182615,182741,317.8637,240.2675,320.3,238.75 M,0,182742,182772,320.3,238.75,320.6015,238.7799 M,0,182773,182803,320.6015,238.7799,320.903,238.8098 M,0,182804,182834,320.903,238.8098,321.2046,238.8397 M,0,182835,182866,321.2046,238.8397,321.5061,238.8696 M,0,182867,182897,321.5061,238.8696,321.6261,239.1456 M,0,182898,182928,321.6261,239.1456,321.7436,239.4249 M,0,182929,182959,321.7436,239.4249,321.8612,239.7041 M,0,182960,182990,321.8612,239.7041,321.9788,239.9834 M,0,182990,183116,321.9788,239.9834,320.61,240.08 M,0,183116,183241,320.61,240.08,318.97,239.1 M,0,183241,183303,318.97,239.1 M,0,183303,183366,318.97,239.1,319.09,239.51 M,0,183366,183428,319.09,239.51,318.62,239.36 M,0,183428,183491,318.62,239.36,318.62,238.87 M,0,183491,183553,318.62,238.87,319.09,238.72 M,0,183553,183616,319.09,238.72,319.37,239.11 M,0,183617,183647,319.37,239.11,319.139,239.3043 M,0,183648,183678,319.139,239.3043,318.9622,239.5486 M,0,183679,183709,318.9622,239.5486,318.8522,239.8296 M,0,183710,183740,318.8522,239.8296,318.8163,240.1295 M,0,183740,183866,318.8163,240.1295,318.13,241.79 M,0,183867,183897,318.13,241.79,318.0672,241.4936 M,0,183898,183928,318.0672,241.4936,318.0044,241.1972 M,0,183929,183959,318.0044,241.1972,317.9416,240.9007 M,0,183960,183990,317.9416,240.9007,317.88,240.61 M,0,183990,184116,317.88,240.61,319.48,241.32 M,0,184116,184241,319.48,241.32,317.66,239.48 M,0,184241,184366,317.66,239.48,319.97,238.48 M,0,184366,184491,319.97,238.48,318.81,240.12 M,0,184492,184522,318.81,240.12,319.0479,240.3056 M,0,184523,184553,319.0479,240.3056,319.3245,240.4259 M,0,184554,184584,319.3245,240.4259,319.6234,240.4663 M,0,184585,184615,319.6234,240.4663,319.9225,240.4296 M,0,184615,184741,319.9225,240.4296,321.89,241.58 M,0,184742,184772,321.89,241.58,321.6521,241.3944 M,0,184773,184803,321.6521,241.3944,321.3755,241.274 M,0,184804,184834,321.3755,241.274,321.0767,241.2337 M,0,184835,184865,321.0767,241.2337,320.7775,241.2704 M,0,184865,184991,320.7775,241.2704,320.04,241.9 M,0,184991,185116,320.04,241.9,319.6,239.46 M,0,185116,185241,319.6,239.46,321.2,240.03 M,0,185241,185303,321.2,240.03 M,0,185303,185366,321.2,240.03,321.08,239.62 M,0,185366,185428,321.08,239.62,321.55,239.77 M,0,185428,185491,321.55,239.77,321.55,240.26 M,0,185491,185553,321.55,240.26,321.08,240.41 M,0,185553,185616,321.08,240.41,320.8,240.02 M,0,185617,185647,320.8,240.02,321.031,239.8257 M,0,185648,185678,321.031,239.8257,321.2078,239.5814 M,0,185679,185709,321.2078,239.5814,321.3178,239.3004 M,0,185710,185740,321.3178,239.3004,321.3537,239.0005 M,0,185740,185866,321.3537,239.0005,319.41,241.17 M,0,185867,185897,319.41,241.17,319.6533,241.3506 M,0,185898,185928,319.6533,241.3506,319.8966,241.5312 M,0,185929,185959,319.8966,241.5312,320.1527,241.633 M,0,185960,185991,320.1527,241.633,320.4407,241.5389 M,0,185992,186022,320.4407,241.5389,320.7287,241.4447 M,0,186023,186053,320.7287,241.4447,321.0167,241.3506 M,0,186054,186084,321.0167,241.3506,321.3047,241.2565 M,0,186085,186115,321.3047,241.2565,321.5927,241.1624 M,0,186115,186241,321.5927,241.1624,319.6,239.46 M,0,186241,186366,319.6,239.46,317.91,241.78 M,0,186366,186491,317.91,241.78,318.38,239.89 M,0,186491,186616,318.38,239.89,319.76,241.18 M,0,186616,186741,319.76,241.18,317.81,241.88 M,0,186741,186866,317.81,241.88,318.34,239.76 M,0,186866,186991,318.34,239.76,319.89,241.2 M,0,186991,187116,319.89,241.2,317.44,240.7 F,0,187090,187240,0.8,0
Sprite,Background,Centre,"sb\rs\heart.png",0,0 F,0,51215,51365,0,1 M,17,51241,51366,397,166,196,319 S,0,51365,,2 M,0,51367,51428,196,319,193.3669,276.4787 M,0,51429,51491,193.3669,276.4787,213.2709,239.0242 M,0,51492,51553,213.2709,239.0242,234.2127,202.0692 M,0,51554,51616,234.2127,202.0692,232.3684,159.5525 M,17,51616,51741,232.3684,159.5525,64,152 M,0,51742,51803,64,152,99.48643,175.5733 M,0,51804,51866,99.48643,175.5733,141.3909,183.216 M,17,51866,51991,141.3909,183.216,364,262 M,0,51992,52053,364,262,322.1047,269.351 M,0,52054,52116,322.1047,269.351,286.4635,292.5604 M,17,52116,52241,286.4635,292.5604,378,392 M,0,52242,52303,378,392,420.6044,386.7637 M,0,52304,52366,420.6044,386.7637,463.2088,381.5274 M,0,52367,52428,463.2088,381.5274,505.8133,376.2911 M,0,52429,52491,505.8133,376.2911,548.4177,371.0548 M,17,52491,52616,548.4177,371.0548,490,248 M,17,52616,52741,490,248,256,401 M,0,52742,52803,256,401,213.6104,395.1714 M,0,52804,52866,213.6104,395.1714,174.1838,378.5934 M,0,52867,52928,174.1838,378.5934,140.3902,352.397 M,0,52929,52991,140.3902,352.397,114.3465,318.4603 M,17,52991,53116,114.3465,318.4603,268,96 M,17,53116,53241,268,96,261,279 M,17,53241,53366,261,279,128,171 M,0,53367,53428,128,171,170.4208,177.5599 M,0,53429,53491,170.4208,177.5599,212.8416,184.1198 M,17,53491,53616,212.8416,184.1198,452,212 M,17,53616,53741,452,212,390,76 M,0,53742,53803,390,76,361.034,107.3977 M,0,53804,53866,361.034,107.3977,342.3839,145.8262 M,17,53866,53991,342.3839,145.8262,427,371 M,0,53992,54053,427,371,408.1403,332.6582 M,0,54054,54116,408.1403,332.6582,379.2309,301.1948 M,17,54116,54241,379.2309,301.1948,159,315 M,0,54242,54303,159,315,201.3628,308.0753 M,0,54304,54366,201.3628,308.0753,243.7255,301.1506 M,17,54366,54491,243.7255,301.1506,142,135 M,0,54492,54553,142,135,128.2559,131.0215 M,0,54554,54574,128.2559,131.0215,142,135 M,17,54574,54616,142,135,171,114 M,0,54617,54678,171,114,199.0851,146.1178 M,0,54679,54741,199.0851,146.1178,213.5453,186.2393 M,17,54741,54866,213.5453,186.2393,317,387 M,0,54867,54928,317,387,330.9521,346.7567 M,0,54929,54991,330.9521,346.7567,358.5856,314.3475 M,17,54991,55116,358.5856,314.3475,518,214 M,17,55116,55241,518,214,518,360 M,17,55241,55366,518,360,389,182 M,0,55367,55428,389,182,385.5769,139.2117 M,0,55429,55491,385.5769,139.2117,382.1539,96.42341 M,17,55491,55616,382.1539,96.42341,518,100 M,17,55616,55741,518,100,260,160 M,0,55742,55803,260,160,256.4769,202.7802 M,0,55804,55866,256.4769,202.7802,253,245 M,17,55866,55991,253,245,120,177 M,0,55992,56053,120,177,116.5769,134.2117 M,0,56054,56116,116.5769,134.2117,113.1539,91.42341 M,17,56116,56241,113.1539,91.42341,350,271 M,0,56242,56303,350,271,389.5034,287.4935 M,0,56304,56366,389.5034,287.4935,431.8058,293.9629 M,17,56366,56491,431.8058,293.9629,145,280 M,0,56492,56553,145,280,102.6214,285.836 M,0,56554,56616,102.6214,285.836,64,303 M,17,56616,56741,64,303,248,411 M,0,56742,56803,248,411,249.5458,368.1028 M,0,56804,56866,249.5458,368.1028,251.0917,325.2057 M,17,56866,56991,251.0917,325.2057,173,142 M,0,56992,57053,173,142,215.1122,149.0753 M,0,57054,57116,215.1122,149.0753,251.4113,171.4527 M,0,57117,57178,251.4113,171.4527,288.6356,151.7389 M,0,57179,57241,288.6356,151.7389,331.0772,148.2537 M,17,57241,57366,331.0772,148.2537,539,338 M,0,57367,57428,539,338,501.3653,371.6731 M,0,57429,57491,501.3653,371.6731,451.1433,368.0897 M,17,57491,57616,451.1433,368.0897,400,221 M,0,57617,57678,400,221,437.6347,187.3269 M,0,57679,57741,437.6347,187.3269,487.8567,190.9103 M,17,57741,57866,487.8567,190.9103,336,322 M,17,57866,57991,336,322,283,181 M,17,57991,58116,283,181,470,278 M,17,58116,58241,470,278,202,397 M,17,58241,58366,202,397,208,105 M,0,58367,58428,208,105,260.9648,77.439 M,0,58429,58491,260.9648,77.439,320.3377,82.95826 M,0,58492,58553,320.3377,82.95826,367.3657,119.6447 M,0,58554,58615,367.3657,119.6447,386.8394,176.0992 M,17,58615,58741,386.8394,176.0992,202,397 M,0,58742,58803,202,397,206.8886,337.08 M,0,58804,58866,206.8886,337.08,242.5591,288.9446 M,0,58867,58928,242.5591,288.9446,278.1637,240.7668 M,0,58929,58990,278.1637,240.7668,283,181 M,17,58990,59116,283,181,69,162 M,0,59117,59178,69,162,119.5932,194.2116 M,0,59179,59240,119.5932,194.2116,179.2839,199.9742 M,17,59240,59366,179.2839,199.9742,391,316 M,0,59367,59428,391,316,341.6979,325.3596 M,0,59429,59491,341.6979,325.3596,299.1906,352.0219 M,17,59491,59616,299.1906,352.0219,507,256 M,0,59617,59678,507,256,522.6307,208.2775 M,0,59679,59741,522.6307,208.2775,520.8879,158.0954 M,17,59741,59866,520.8879,158.0954,403,200 M,17,59866,59991,403,200,494,371 M,0,59992,60053,494,371,527.0824,408.7345 M,0,60054,60116,527.0824,408.7345,571.5669,431.9512 M,17,60116,60241,571.5669,431.9512,395,189 M,0,60242,60303,395,189,355.8861,157.057 M,0,60304,60366,355.8861,157.057,311.8988,144.4919 M,0,60367,60428,311.8988,144.4919,262.3272,154.1308 M,0,60429,60491,262.3272,154.1308,212.7556,163.7697 M,17,60491,60616,212.7556,163.7697,302,254 M,17,60616,60741,302,254,128,236 M,0,60742,60803,128,236,102.131,193.2657 M,0,60804,60866,102.131,193.2657,99.97674,143.3866 M,17,60866,60991,99.97674,143.3866,210,304 M,17,60991,61116,210,304,312,285 M,0,61117,61178,312,285,308.6932,334.8872 M,0,61179,61241,308.6932,334.8872,283,377 M,17,61241,61366,283,377,431,109 M,0,61367,61428,431,109,481.3782,105.4954 M,0,61429,61491,481.3782,105.4954,531.7565,101.9909 M,17,61491,61616,531.7565,101.9909,318,115 M,17,61616,61741,318,115,485,209 M,0,61742,61803,485,209,434.6218,205.4954 M,0,61804,61866,434.6218,205.4954,384.2435,201.9908 M,17,61866,61991,384.2435,201.9908,294,309 M,0,61992,62053,294,309,344.3782,305.4954 M,0,62054,62116,344.3782,305.4954,394.7565,301.9908 M,17,62116,62241,394.7565,301.9908,158,243 M,0,62242,62303,158,243,127.1561,203.7672 M,0,62304,62366,127.1561,203.7672,119.4367,154.5238 M,17,62366,62491,119.4367,154.5238,294,309 M,0,62492,62553,294,309,275.1404,355.2192 M,0,62554,62616,275.1404,355.2192,236.2681,386.4473 M,17,62616,62741,236.2681,386.4473,277,174 M,0,62742,62803,277,174,326.3271,166.4707 M,0,62804,62866,326.3271,166.4707,372.9408,184.0997 M,17,62866,62991,372.9408,184.0997,210,88 M,17,62991,63116,210,88,475,137 M,0,63117,63178,475,137,472.6646,187.446 M,0,63179,63241,472.6646,187.446,470.3291,237.8919 M,17,63241,63366,470.3291,237.8919,132,374 M,0,63367,63428,132,374,97.48342,337.6656 M,0,63429,63491,97.48342,337.6656,80.34753,290.6122 M,17,63491,63616,80.34753,290.6122,215,272 M,0,63617,63678,215,272,202.6715,223.4384 M,0,63679,63741,202.6715,223.4384,211.1511,174.0987 M,17,63741,63866,211.1511,174.0987,341,217 M,0,63867,63928,341,217,354.7404,168.8046 M,0,63929,63991,354.7404,168.8046,386.5597,130.1362 M,17,63991,64116,386.5597,130.1362,470,237 M,0,64117,64178,470,237,506.3344,202.4834 M,0,64179,64241,506.3344,202.4834,553.3878,185.3475 M,17,64241,64366,553.3878,185.3475,549,341 M,0,64367,64428,549,341,547.4558,391.0847 M,0,64429,64491,547.4558,391.0847,525.9591,436.302 M,17,64491,64616,525.9591,436.302,418,354 M,0,64617,64678,418,354,391.3036,396.4198 M,0,64679,64741,391.3036,396.4198,350.0052,424.7526 M,17,64741,64866,350.0052,424.7526,290,304 M,0,64867,64928,290,304,245.6146,327.3239 M,0,64929,64991,245.6146,327.3239,195.6979,331.655 M,17,64991,65116,195.6979,331.655,213,198 M,0,65117,65178,213,198,162.8986,196.7344 M,0,65179,65241,162.8986,196.7344,117.5043,175.5832 M,17,65241,65366,117.5043,175.5832,391,111 M,17,65366,65428,391,111,407,113 M,17,65428,65491,407,113,423,116 M,17,65491,65553,423,116,439,119 M,17,65553,65616,439,119,455,122 M,17,65616,65741,455,122,388,273 M,17,65741,65866,388,273,267,177 M,17,65866,65991,267,177,495,236 M,17,65991,66116,495,236,396,368 M,17,66116,66241,396,368,380,185 M,17,66241,66366,380,185,530,349 M,0,66367,66428,530,349,470.1928,329.6355 M,0,66429,66491,470.1928,329.6355,414.3685,357.8333 M,0,66492,66553,414.3685,357.8333,355.9914,353.2797 M,0,66554,66616,355.9914,353.2797,293.0324,351.8311 M,17,66616,66741,293.0324,351.8311,84,227 M,0,66742,66803,84,227,143.8163,245.8981 M,0,66804,66866,143.8163,245.8981,199.641,216.6339 M,0,66867,66928,199.641,216.6339,258.1791,221.828 M,0,66929,66991,258.1791,221.828,321.1421,223.0734 M,17,66991,67116,321.1421,223.0734,141,140 M,17,67116,67241,141,140,219,343 F,0,67215,67365,1,0
Sprite,Background,Centre,"sb\rs\bones.png",0,0 F,0,99215,99365,0,1 M,17,99241,99366,417.1666,240,266,240 S,0,99365,,0.78 M,0,99367,99428,266,240,223.7896,240 M,0,99429,99491,223.7896,240,181.5792,240 M,17,99491,99616,181.5792,240,354,240 M,0,99617,99678,354,240,396.2104,240 M,0,99679,99741,396.2104,240,438.4208,240 M,17,99741,99866,438.4208,240,250,240 M,17,99866,99991,250,240,257,240 M,17,99991,100116,257,240,264,240 M,17,100116,100241,264,240,266,240 M,0,100242,100303,266,240,223.7896,240 M,0,100304,100366,223.7896,240,181.5792,240 M,17,100366,100491,181.5792,240,354,240 M,0,100492,100553,354,240,396.2104,240 M,0,100554,100616,396.2104,240,438.4208,240 M,17,100616,100741,438.4208,240,266,240 M,0,100742,100803,266,240,223.7896,240 M,0,100804,100866,223.7896,240,181.5792,240 M,17,100866,100991,181.5792,240,264,240 M,17,100991,101116,264,240,257,240 M,17,101116,101241,257,240,250,240 M,17,101241,101366,250,240,167,240 M,0,101367,101428,167,240,209.5045,240 M,0,101429,101491,209.5045,240,247,240 M,17,101491,101616,247,240,427,240 M,0,101617,101678,427,240,384.4955,240 M,0,101679,101741,384.4955,240,347,240 M,17,101741,101866,347,240,324,240 M,17,101866,101991,324,240,363,240 M,17,101991,102116,363,240,405,240 M,17,102116,102241,405,240,167,240 M,0,102242,102303,167,240,209.5045,240 M,0,102304,102366,209.5045,240,247,240 M,17,102366,102491,247,240,427,240 M,0,102492,102553,427,240,384.4955,240 M,0,102554,102616,384.4955,240,347,240 M,17,102616,102741,347,240,167,240 M,0,102742,102803,167,240,209.5045,240 M,0,102804,102866,209.5045,240,247,240 M,17,102866,102991,247,240,405,240 M,17,102991,103116,405,240,363,240 M,17,103116,103241,363,240,324,240 M,17,103241,103366,324,240,114,240 M,0,103367,103428,114,240,108.4818,240 M,0,103429,103491,108.4818,240,102.9636,240 M,17,103491,103616,102.9636,240,288,240 M,0,103617,103678,288,240,282.4818,240 M,0,103679,103741,282.4818,240,276.9636,240 M,17,103741,103866,276.9636,240,247,240 M,17,103866,103991,247,240,231,240 M,17,103991,104116,231,240,217,240 M,17,104116,104241,217,240,114,240 M,0,104242,104303,114,240,108.4818,240 M,0,104304,104366,108.4818,240,102.9636,240 M,17,104366,104491,102.9636,240,288,240 M,0,104492,104553,288,240,282.4818,240 M,0,104554,104616,282.4818,240,276.9636,240 M,17,104616,104741,276.9636,240,114,240 M,0,104742,104803,114,240,108.4818,240 M,0,104804,104866,108.4818,240,102.9636,240 M,17,104866,104991,102.9636,240,217,240 M,17,104991,105116,217,240,231,240 M,17,105116,105241,231,240,247,240 M,17,105241,105366,247,240,420,240 M,0,105367,105428,420,240,380.9169,240 M,0,105429,105491,380.9169,240,338.4786,240 M,17,105491,105616,338.4786,240,487,240 M,0,105617,105678,487,240,526.0039,240 M,0,105679,105741,526.0039,240,568,240 M,17,105741,105866,568,240,395,240 M,17,105866,105991,395,240,319,240 M,17,105991,106116,319,240,247,240 M,17,106116,106241,247,240,420,240 M,0,106242,106303,420,240,380.9169,240 M,0,106304,106366,380.9169,240,338.4786,240 M,17,106366,106491,338.4786,240,487,240 M,0,106492,106553,487,240,526.0039,240 M,0,106554,106616,526.0039,240,568,240 M,17,106616,106741,568,240,420,240 M,0,106742,106803,420,240,380.9169,240 M,0,106804,106866,380.9169,240,338.4786,240 M,17,106866,106991,338.4786,240,247,240 M,17,106991,107116,247,240,319,240 M,17,107116,107241,319,240,395,240 S,0,107215,107365,0.78,1.08 R,0,107215,107365,0,1.570796 M,17,107241,107366,320,100,320,322 M,0,107367,107428,320,322,320,314.2003 M,0,107429,107491,320,314.2003,320,306.4005 M,17,107491,107616,320,306.4005,320,261 M,0,107617,107678,320,261,320,268.7997 M,0,107679,107741,320,268.7997,320,276.5995 M,17,107741,107866,320,276.5995,320,202 M,17,107866,107991,320,202,320,174 M,17,107991,108116,320,174,320,146 M,17,108116,108241,320,146,320,322 M,0,108242,108303,320,322,320,314.2003 M,0,108304,108366,320,314.2003,320,306.4005 M,17,108366,108491,320,306.4005,320,261 M,0,108492,108553,320,261,320,268.7997 M,0,108554,108616,320,268.7997,320,276.5995 M,17,108616,108741,320,276.5995,320,322 M,0,108742,108803,320,322,320,314.2003 M,0,108804,108866,320,314.2003,320,306.4005 M,17,108866,108991,320,306.4005,320,146 M,17,108991,109116,320,146,320,174 M,17,109116,109241,320,174,320,202 M,17,109241,109366,320,202,320,116 M,0,109367,109428,320,116,320,116.1283 M,0,109429,109491,320,116.1283,320,136 M,17,109491,109616,320,136,320,237 M,0,109617,109678,320,237,320,236.8717 M,0,109679,109741,320,236.8717,320,217 M,17,109741,109866,320,217,320,60 M,17,109866,109991,320,60,320,71 M,17,109991,110116,320,71,320,81 M,17,110116,110241,320,81,320,116 M,0,110242,110303,320,116,320,116.1283 M,0,110304,110366,320,116.1283,320,136 M,17,110366,110491,320,136,320,237 M,0,110492,110553,320,237,320,236.8717 M,0,110554,110616,320,236.8717,320,217 M,17,110616,110741,320,217,320,116 M,0,110742,110803,320,116,320,116.1283 M,0,110804,110866,320,116.1283,320,136 M,17,110866,110991,320,136,320,81 M,17,110991,111116,320,81,320,71 M,17,111116,111241,320,71,320,60 M,17,111241,111366,320,60,320,186 M,0,111367,111428,320,186,320,228.5688 M,0,111429,111491,320,228.5688,320,271.1377 M,17,111491,111616,320,271.1377,320,403 M,0,111617,111678,320,403,320,360.4312 M,0,111679,111741,320,360.4312,320,317.8623 M,17,111741,111866,320,317.8623,320,116 M,17,111866,111991,320,116,320,171 M,17,111991,112116,320,171,320,229 M,17,112116,112241,320,229,320,186 M,0,112242,112303,320,186,320,228.5688 M,0,112304,112366,320,228.5688,320,271.1377 M,17,112366,112491,320,271.1377,320,403 M,0,112492,112553,320,403,320,360.4312 M,0,112554,112616,320,360.4312,320,317.8623 M,17,112616,112741,320,317.8623,320,186 M,0,112742,112803,320,186,320,228.5688 M,0,112804,112866,320,228.5688,320,271.1377 M,17,112866,112991,320,271.1377,320,229 M,17,112991,113116,320,229,320,171 M,17,113116,113241,320,171,320,116 M,17,113241,113366,320,116,320,114 M,0,113367,113428,320,114,320,96.32009 M,0,113429,113491,320,96.32009,320,97.97632 M,17,113491,113616,320,97.97632,320,259 M,0,113617,113678,320,259,320,274.8737 M,0,113679,113741,320,274.8737,320,273 M,17,113741,113866,320,273,320,374 M,17,113866,113991,320,374,320,356 M,17,113991,114116,320,356,320,334 M,17,114116,114241,320,334,320,114 M,0,114242,114303,320,114,320,96.32009 M,0,114304,114366,320,96.32009,320,97.97632 M,17,114366,114491,320,97.97632,320,259 M,0,114492,114553,320,259,320,274.8737 M,0,114554,114616,320,274.8737,320,273 M,17,114616,114741,320,273,320,114 M,0,114742,114803,320,114,320,96.32009 M,0,114804,114866,320,96.32009,320,97.97632 M,17,114866,114991,320,97.97632,320,334 M,17,114991,115116,320,334,320,356 M,17,115116,115241,320,356,320,374 F,0,115215,115365,1,0
Sprite,Background,Centre,"sb\rs\heart.png",0,0 F,0,99215,99365,0,1 M,17,99241,99366,417.1666,254.6949,266,91 S,0,99365,,2 M,0,99367,99428,266,91,223.7896,98.79975 M,0,99429,99491,223.7896,98.79975,181.5792,106.5995 M,17,99491,99616,181.5792,106.5995,354,152 M,0,99617,99678,354,152,396.2104,144.2003 M,0,99679,99741,396.2104,144.2003,438.4208,136.4005 M,17,99741,99866,438.4208,136.4005,250,211 M,17,99866,99991,250,211,257,239 M,17,99991,100116,257,239,264,267 M,17,100116,100241,264,267,266,91 M,0,100242,100303,266,91,223.7896,98.79975 M,0,100304,100366,223.7896,98.79975,181.5792,106.5995 M,17,100366,100491,181.5792,106.5995,354,152 M,0,100492,100553,354,152,396.2104,144.2003 M,0,100554,100616,396.2104,144.2003,438.4208,136.4005 M,17,100616,100741,438.4208,136.4005,266,91 M,0,100742,100803,266,91,223.7896,98.79975 M,0,100804,100866,223.7896,98.79975,181.5792,106.5995 M,17,100866,100991,181.5792,106.5995,264,267 M,17,100991,101116,264,267,257,239 M,17,101116,101241,257,239,250,211 M,17,101241,101366,250,211,167,368 M,0,101367,101428,167,368,209.5045,367.8717 M,0,101429,101491,209.5045,367.8717,247,348 M,17,101491,101616,247,348,427,247 M,0,101617,101678,427,247,384.4955,247.1283 M,0,101679,101741,384.4955,247.1283,347,267 M,17,101741,101866,347,267,324,424 M,17,101866,101991,324,424,363,413 M,17,101991,102116,363,413,405,403 M,17,102116,102241,405,403,167,368 M,0,102242,102303,167,368,209.5045,367.8717 M,0,102304,102366,209.5045,367.8717,247,348 M,17,102366,102491,247,348,427,247 M,0,102492,102553,427,247,384.4955,247.1283 M,0,102554,102616,384.4955,247.1283,347,267 M,17,102616,102741,347,267,167,368 M,0,102742,102803,167,368,209.5045,367.8717 M,0,102804,102866,209.5045,367.8717,247,348 M,17,102866,102991,247,348,405,403 M,17,102991,103116,405,403,363,413 M,17,103116,103241,363,413,324,424 M,17,103241,103366,324,424,114,277 M,0,103367,103428,114,277,108.4818,234.4312 M,0,103429,103491,108.4818,234.4312,102.9636,191.8623 M,17,103491,103616,102.9636,191.8623,288,60 M,0,103617,103678,288,60,282.4818,102.5688 M,0,103679,103741,282.4818,102.5688,276.9636,145.1377 M,17,103741,103866,276.9636,145.1377,247,347 M,17,103866,103991,247,347,231,292 M,17,103991,104116,231,292,217,234 M,17,104116,104241,217,234,114,277 M,0,104242,104303,114,277,108.4818,234.4312 M,0,104304,104366,108.4818,234.4312,102.9636,191.8623 M,17,104366,104491,102.9636,191.8623,288,60 M,0,104492,104553,288,60,282.4818,102.5688 M,0,104554,104616,282.4818,102.5688,276.9636,145.1377 M,17,104616,104741,276.9636,145.1377,114,277 M,0,104742,104803,114,277,108.4818,234.4312 M,0,104804,104866,108.4818,234.4312,102.9636,191.8623 M,17,104866,104991,102.9636,191.8623,217,234 M,17,104991,105116,217,234,231,292 M,17,105116,105241,231,292,247,347 M,17,105241,105366,247,347,420,364 M,0,105367,105428,420,364,380.9169,380.6142 M,0,105429,105491,380.9169,380.6142,338.4786,379.1125 M,17,105491,105616,338.4786,379.1125,487,146 M,0,105617,105678,487,146,526.0039,129.0227 M,0,105679,105741,526.0039,129.0227,568,131 M,17,105741,105866,568,131,395,100 M,17,105866,105991,395,100,319,118 M,17,105991,106116,319,118,247,140 M,17,106116,106241,247,140,420,364 M,0,106242,106303,420,364,380.9169,380.6142 M,0,106304,106366,380.9169,380.6142,338.4786,379.1125 M,17,106366,106491,338.4786,379.1125,487,146 M,0,106492,106553,487,146,526.0039,129.0227 M,0,106554,106616,526.0039,129.0227,568,131 M,17,106616,106741,568,131,420,364 M,0,106742,106803,420,364,380.9169,380.6142 M,0,106804,106866,380.9169,380.6142,338.4786,379.1125 M,17,106866,106991,338.4786,379.1125,247,140 M,17,106991,107116,247,140,319,118 M,17,107116,107241,319,118,395,100 M,17,107241,107366,395,100,485,322 M,0,107367,107428,485,322,527.2104,314.2003 M,0,107429,107491,527.2104,314.2003,569.4208,306.4005 M,17,107491,107616,569.4208,306.4005,397,261 M,0,107617,107678,397,261,354.7896,268.7997 M,0,107679,107741,354.7896,268.7997,312.5792,276.5995 M,17,107741,107866,312.5792,276.5995,501,202 M,17,107866,107991,501,202,494,174 M,17,107991,108116,494,174,487,146 M,17,108116,108241,487,146,485,322 M,0,108242,108303,485,322,527.2104,314.2003 M,0,108304,108366,527.2104,314.2003,569.4208,306.4005 M,17,108366,108491,569.4208,306.4005,397,261 M,0,108492,108553,397,261,354.7896,268.7997 M,0,108554,108616,354.7896,268.7997,312.5792,276.5995 M,17,108616,108741,312.5792,276.5995,485,322 M,0,108742,108803,485,322,527.2104,314.2003 M,0,108804,108866,527.2104,314.2003,569.4208,306.4005 M,17,108866,108991,569.4208,306.4005,487,146 M,17,108991,109116,487,146,494,174 M,17,109116,109241,494,174,501,202 M,17,109241,109366,501,202,393,116 M,0,109367,109428,393,116,350.4955,116.1283 M,0,109429,109491,350.4955,116.1283,313,136 M,17,109491,109616,313,136,133,237 M,0,109617,109678,133,237,175.5045,236.8717 M,0,109679,109741,175.5045,236.8717,213,217 M,17,109741,109866,213,217,236,60 M,17,109866,109991,236,60,197,71 M,17,109991,110116,197,71,155,81 M,17,110116,110241,155,81,393,116 M,0,110242,110303,393,116,350.4955,116.1283 M,0,110304,110366,350.4955,116.1283,313,136 M,17,110366,110491,313,136,133,237 M,0,110492,110553,133,237,175.5045,236.8717 M,0,110554,110616,175.5045,236.8717,213,217 M,17,110616,110741,213,217,393,116 M,0,110742,110803,393,116,350.4955,116.1283 M,0,110804,110866,350.4955,116.1283,313,136 M,17,110866,110991,313,136,155,81 M,17,110991,111116,155,81,197,71 M,17,111116,111241,197,71,236,60 M,17,111241,111366,236,60,526,186 M,0,111367,111428,526,186,531.5182,228.5688 M,0,111429,111491,531.5182,228.5688,537.0364,271.1377 M,17,111491,111616,537.0364,271.1377,352,403 M,0,111617,111678,352,403,357.5182,360.4312 M,0,111679,111741,357.5182,360.4312,363.0364,317.8623 M,17,111741,111866,363.0364,317.8623,393,116 M,17,111866,111991,393,116,409,171 M,17,111991,112116,409,171,423,229 M,17,112116,112241,423,229,526,186 M,0,112242,112303,526,186,531.5182,228.5688 M,0,112304,112366,531.5182,228.5688,537.0364,271.1377 M,17,112366,112491,537.0364,271.1377,352,403 M,0,112492,112553,352,403,357.5182,360.4312 M,0,112554,112616,357.5182,360.4312,363.0364,317.8623 M,17,112616,112741,363.0364,317.8623,526,186 M,0,112742,112803,526,186,531.5182,228.5688 M,0,112804,112866,531.5182,228.5688,537.0364,271.1377 M,17,112866,112991,537.0364,271.1377,423,229 M,17,112991,113116,423,229,409,171 M,17,113116,113241,409,171,393,116 M,17,113241,113366,393,116,212,114 M,0,113367,113428,212,114,250.5382,96.32009 M,0,113429,113491,250.5382,96.32009,292.9053,97.97632 M,17,113491,113616,292.9053,97.97632,146,259 M,0,113617,113678,146,259,106.4938,274.8737 M,0,113679,113741,106.4938,274.8737,65,273 M,17,113741,113866,65,273,214,374 M,17,113866,113991,214,374,290,356 M,17,113991,114116,290,356,362,334 M,17,114116,114241,362,334,212,114 M,0,114242,114303,212,114,250.5382,96.32009 M,0,114304,114366,250.5382,96.32009,292.9053,97.97632 M,17,114366,114491,292.9053,97.97632,146,259 M,0,114492,114553,146,259,106.4938,274.8737 M,0,114554,114616,106.4938,274.8737,65,273 M,17,114616,114741,65,273,212,114 M,0,114742,114803,212,114,250.5382,96.32009 M,0,114804,114866,250.5382,96.32009,292.9053,97.97632 M,17,114866,114991,292.9053,97.97632,362,334 M,17,114991,115116,362,334,290,356 M,17,115116,115241,290,356,214,374 F,0,115215,115365,1,0
Sprite,Background,Centre,"sb\ring.png",531,188 S,4,35366,35866,0.25,1 F,1,35566,35966,0.4,0
Sprite,Background,Centre,"sb\ring.png",421,388 S,4,37366,37866,0.25,1 F,1,37566,37966,0.4,0
Sprite,Background,Centre,"sb\ring.png",503,378 S,4,39366,39866,0.25,1 F,1,39566,39966,0.4,0
Sprite,Background,Centre,"sb\ring.png",515,203 S,4,41366,41866,0.25,1 F,1,41566,41966,0.4,0
Sprite,Background,Centre,"sb\ring.png",362,121 S,4,43366,43866,0.25,1 F,1,43566,43966,0.4,0
Sprite,Background,Centre,"sb\ring.png",509,128 S,4,45366,45866,0.25,1 F,1,45566,45966,0.4,0
Sprite,Background,Centre,"sb\ring.png",73,98 S,4,47366,47866,0.25,1 F,1,47566,47966,0.4,0
Sprite,Background,Centre,"sb\ring.png",408,82 S,4,49366,49866,0.25,1 F,1,49566,49966,0.4,0
Sprite,Background,Centre,"sb\ring.png",429,291 S,4,67366,67866,0.25,1 F,1,67566,67966,0.4,0
Sprite,Background,Centre,"sb\ring.png",236,206 S,4,69366,69866,0.25,1 F,1,69566,69966,0.4,0
Sprite,Background,Centre,"sb\ring.png",384,410 S,4,71366,71866,0.25,1 F,1,71566,71966,0.4,0
Sprite,Background,Centre,"sb\ring.png",246,287 S,4,73366,73866,0.25,1 F,1,73566,73966,0.4,0
Sprite,Background,Centre,"sb\ring.png",156,99 S,4,75366,75866,0.25,1 F,1,75566,75966,0.4,0
Sprite,Background,Centre,"sb\ring.png",570,308 S,4,77366,77866,0.25,1 F,1,77566,77966,0.4,0
Sprite,Background,Centre,"sb\ring.png",334,404 S,4,79366,79866,0.25,1 F,1,79566,79966,0.4,0
Sprite,Background,Centre,"sb\ring.png",278,279 S,4,81366,81866,0.25,1 F,1,81566,81966,0.4,0
Sprite,Background,Centre,"sb\ring.png",192,272 S,4,83366,83866,0.25,1 F,1,83566,83966,0.4,0
Sprite,Background,Centre,"sb\ring.png",203,219 S,4,85366,85866,0.25,1 F,1,85566,85966,0.4,0
Sprite,Background,Centre,"sb\ring.png",293,221 S,4,87366,87866,0.25,1 F,1,87566,87966,0.4,0
Sprite,Background,Centre,"sb\ring.png",295,150 S,4,89366,89866,0.25,1 F,1,89566,89966,0.4,0
Sprite,Background,Centre,"sb\ring.png",229,268 S,4,91366,91866,0.25,1 F,1,91566,91966,0.4,0
Sprite,Background,Centre,"sb\ring.png",270,430 S,4,93366,93866,0.25,1 F,1,93566,93966,0.4,0
Sprite,Background,Centre,"sb\ring.png",289,169 S,4,95366,95866,0.25,1 F,1,95566,95966,0.4,0
Sprite,Background,Centre,"sb\ring.png",434,366 S,4,97366,97866,0.25,1 F,1,97566,97966,0.4,0
Sprite,Background,Centre,"sb\ring.png",364,330 S,4,131366,131866,0.25,1 F,1,131566,131966,0.4,0
Sprite,Background,Centre,"sb\ring.png",395,222 S,4,133366,133866,0.25,1 F,1,133566,133966,0.4,0
Sprite,Background,Centre,"sb\ring.png",320,384 S,4,135366,135866,0.25,1 F,1,135566,135966,0.4,0
Sprite,Background,Centre,"sb\ring.png",304,395 S,4,137366,137866,0.25,1 F,1,137566,137966,0.4,0
Sprite,Background,Centre,"sb\ring.png",299,203 S,4,139366,139866,0.25,1 F,1,139566,139966,0.4,0
Sprite,Background,Centre,"sb\ring.png",281,96 S,4,141366,141866,0.25,1 F,1,141566,141966,0.4,0
Sprite,Background,Centre,"sb\ring.png",302,391 S,4,143366,143866,0.25,1 F,1,143566,143966,0.4,0
Sprite,Background,Centre,"sb\ring.png",442,410 S,4,145366,145866,0.25,1 F,1,145566,145966,0.4,0
Sprite,Background,Centre,"sb\ring.png",300,215 S,4,147366,147866,0.25,1 F,1,147566,147966,0.4,0
Sprite,Background,Centre,"sb\ring.png",379,264 S,4,149366,149866,0.25,1 F,1,149566,149966,0.4,0
Sprite,Background,Centre,"sb\ring.png",219,157 S,4,151366,151866,0.25,1 F,1,151566,151966,0.4,0
Sprite,Background,Centre,"sb\ring.png",367,212 S,4,153366,153866,0.25,1 F,1,153566,153966,0.4,0
Sprite,Background,Centre,"sb\ring.png",64,372 S,4,155366,155866,0.25,1 F,1,155566,155966,0.4,0
Sprite,Background,Centre,"sb\ring.png",224,368 S,4,157366,157866,0.25,1 F,1,157566,157966,0.4,0
Sprite,Background,Centre,"sb\ring.png",328,312 S,4,159366,159866,0.25,1 F,1,159566,159966,0.4,0
Sprite,Background,Centre,"sb\ring.png",158,66 S,4,161366,161866,0.25,1 F,1,161566,161966,0.4,0
Sprite,Background,Centre,"sb\ring.png",311,83 S,4,42366,42866,0.25,1 F,1,42566,42966,0.4,0
Sprite,Background,Centre,"sb\ring.png",389,376 S,4,42741,43241,0.25,1 F,1,42941,43341,0.4,0
Sprite,Background,Centre,"sb\ring.png",120,106 S,4,43116,43616,0.25,1 F,1,43316,43716,0.4,0
Sprite,Background,Centre,"sb\ring.png",139,420 S,4,50366,50866,0.25,1 F,1,50566,50966,0.4,0
Sprite,Background,Centre,"sb\ring.png",75,314 S,4,50741,51241,0.25,1 F,1,50941,51341,0.4,0
Sprite,Background,Centre,"sb\ring.png",118,93 S,4,51116,51616,0.25,1 F,1,51316,51716,0.4,0
Sprite,Background,Centre,"sb\ring.png",105,222 S,4,74366,74866,0.25,1 F,1,74566,74966,0.4,0
Sprite,Background,Centre,"sb\ring.png",350,357 S,4,74741,75241,0.25,1 F,1,74941,75341,0.4,0
Sprite,Background,Centre,"sb\ring.png",481,188 S,4,75116,75616,0.25,1 F,1,75316,75716,0.4,0
Sprite,Background,Centre,"sb\ring.png",74,390 S,4,90366,90866,0.25,1 F,1,90566,90966,0.4,0
Sprite,Background,Centre,"sb\ring.png",557,291 S,4,90741,91241,0.25,1 F,1,90941,91341,0.4,0
Sprite,Background,Centre,"sb\ring.png",74,154 S,4,91116,91616,0.25,1 F,1,91316,91716,0.4,0
Sprite,Background,Centre,"sb\ring.png",210,234 S,4,138366,138866,0.25,1 F,1,138566,138966,0.4,0
Sprite,Background,Centre,"sb\ring.png",567,114 S,4,138741,139241,0.25,1 F,1,138941,139341,0.4,0
Sprite,Background,Centre,"sb\ring.png",227,57 S,4,139116,139616,0.25,1 F,1,139316,139716,0.4,0
Sprite,Background,Centre,"sb\ring.png",224,304 S,4,154366,154866,0.25,1 F,1,154566,154966,0.4,0
Sprite,Background,Centre,"sb\ring.png",209,211 S,4,154741,155241,0.25,1 F,1,154941,155341,0.4,0
Sprite,Background,Centre,"sb\ring.png",137,334 S,4,155116,155616,0.25,1 F,1,155316,155716,0.4,0
Sprite,Background,Centre,"sb\ring.png",92,314 S,4,146366,146866,0.25,1 F,1,146566,146966,0.4,0
Sprite,Background,Centre,"sb\ring.png",334,139 S,4,146741,147241,0.25,1 F,1,146941,147341,0.4,0
Sprite,Background,Centre,"sb\ring.png",175,290 S,4,147116,147616,0.25,1 F,1,147316,147716,0.4,0
Sprite,Background,Centre,"sb\ring.png",169,182 S,4,171366,171866,0.25,1 F,1,171566,171966,0.4,0
Sprite,Background,Centre,"sb\ring.png",219,388 S,4,173366,173866,0.25,1 F,1,173566,173966,0.4,0
Sprite,Background,Centre,"sb\ring.png",370,86 S,4,175366,175866,0.25,1 F,1,175566,175966,0.4,0
Sprite,Background,Centre,"sb\ring.png",85,206 S,4,177366,177866,0.25,1 F,1,177566,177966,0.4,0
Sprite,Background,Centre,"sb\ring.png",350,103 S,4,179366,179866,0.25,1 F,1,179566,179966,0.4,0
Sprite,Background,Centre,"sb\ring.png",328,260 S,4,181366,181866,0.25,1 F,1,181566,181966,0.4,0
Sprite,Background,Centre,"sb\ring.png",229,191 S,4,183366,183866,0.25,1 F,1,183566,183966,0.4,0
Sprite,Background,Centre,"sb\ring.png",428,202 S,4,185366,185866,0.25,1 F,1,185566,185966,0.4,0
Sprite,Background,Centre,"sb\ring.png",170,243 S,4,178366,178866,0.25,1 F,1,178566,178966,0.4,0
Sprite,Background,Centre,"sb\ring.png",433,353 S,4,178741,179241,0.25,1 F,1,178941,179341,0.4,0
Sprite,Background,Centre,"sb\ring.png",520,106 S,4,179116,179616,0.25,1 F,1,179316,179716,0.4,0
Sprite,Background,Centre,"sb\ring.png",111,418 S,4,186366,186866,0.25,1 F,1,186566,186966,0.4,0
Sprite,Background,Centre,"sb\ring.png",101,428 S,4,186741,187241,0.25,1 F,1,186941,187341,0.4,0
Sprite,Background,Centre,"sb\ring.png",64,310 S,4,187116,187616,0.25,1 F,1,187316,187716,0.4,0
//Storyboard Layer 1 (Fail)
//Storyboard Layer 2 (Pass)
//Storyboard Layer 3 (Foreground)
Sprite,Foreground,Centre,"sb\rs\bone.png",0,0 R,0,115365,,1.570796 M,0,115365,115765,580,420,-270,420
Sprite,Foreground,Centre,"sb\rs\bone.png",0,0 R,0,115465,,1.658063 M,0,115465,115865,580,420,-266.7655,345.9176
Sprite,Foreground,Centre,"sb\rs\bone.png",0,0 R,0,115565,,1.745329 M,0,115565,115965,580,420,-257.0866,272.399
Sprite,Foreground,Centre,"sb\rs\bone.png",0,0 R,0,115665,,1.832596 M,0,115665,116065,580,420,-241.0369,200.0038
Sprite,Foreground,Centre,"sb\rs\bone.png",0,0 R,0,115765,,1.919862 M,0,115765,116165,580,420,-218.7387,129.2829
Sprite,Foreground,Centre,"sb\rs\bone.png",0,0 R,0,115865,,2.007129 M,0,115865,116265,580,420,-190.3616,60.77447
Sprite,Foreground,Centre,"sb\rs\bone.png",0,0 R,0,115965,,2.094395 M,0,115965,116365,580,420,-156.1216,-5
Sprite,Foreground,Centre,"sb\rs\bone.png",0,0 R,0,116065,,2.181662 M,0,116065,116465,580,420,-116.2793,-67.53999
Sprite,Foreground,Centre,"sb\rs\bone.png",0,0 R,0,116165,,2.268928 M,0,116165,116565,580,420,-71.13777,-126.3695
Sprite,Foreground,Centre,"sb\rs\bone.png",0,0 R,0,116265,,2.356194 M,0,116265,116665,580,420,-21.04075,-181.0408
Sprite,Foreground,Centre,"sb\rs\bone.png",0,0 R,0,116365,,2.443461 M,0,116365,116765,580,420,33.63051,-231.1378
Sprite,Foreground,Centre,"sb\rs\bone.png",0,0 R,0,116465,,2.530727 M,0,116465,116865,580,420,92.46001,-276.2792
Sprite,Foreground,Centre,"sb\rs\bone.png",0,0 R,0,116565,,2.617994 M,0,116565,116965,580,420,155,-316.1216
Sprite,Foreground,Centre,"sb\rs\bone.png",0,0 R,0,116665,,2.70526 M,0,116665,117065,580,420,220.7745,-350.3616
Sprite,Foreground,Centre,"sb\rs\bone.png",0,0 R,0,116765,,2.792527 M,0,116765,117165,580,420,289.2829,-378.7387
Sprite,Foreground,Centre,"sb\rs\bone.png",0,0 R,0,116865,,2.879793 M,0,116865,117265,580,420,360.0038,-401.0369
Sprite,Foreground,Centre,"sb\rs\bone.png",0,0 R,0,116965,,2.96706 M,0,116965,117365,580,420,432.399,-417.0866
Sprite,Foreground,Centre,"sb\rs\bone.png",0,0 R,0,117065,,3.054326 M,0,117065,117465,580,420,505.9176,-426.7655
Sprite,Foreground,Centre,"sb\rs\bl\bl0.png",0,0 F,0,114365,,1 S,0,114365,,1.4 M,1,114365,115065,1380,420,580,420 R,0,114465,,-4.712389 F,0,115265,,0
Animation,Foreground,Centre,"sb\rs\bl\bl.png",580,420,6,30,LoopOnce S,0,115265,,1.4 R,0,115265,,-4.712389 R,0,115365,117165,7.853981,9.424778 M,2,117365,118065,580,420,580,1220
Sprite,Foreground,Centre,"sb\rs\bone.png",0,0 R,0,115365,,-1.570796 M,0,115365,115765,60,60,910,60
Sprite,Foreground,Centre,"sb\rs\bone.png",0,0 R,0,115465,,-1.48353 M,0,115465,115865,60,60,906.7655,134.0824
Sprite,Foreground,Centre,"sb\rs\bone.png",0,0 R,0,115565,,-1.396263 M,0,115565,115965,60,60,897.0865,207.601
Sprite,Foreground,Centre,"sb\rs\bone.png",0,0 R,0,115665,,-1.308997 M,0,115665,116065,60,60,881.0369,279.9962
Sprite,Foreground,Centre,"sb\rs\bone.png",0,0 R,0,115765,,-1.22173 M,0,115765,116165,60,60,858.7387,350.7171
Sprite,Foreground,Centre,"sb\rs\bone.png",0,0 R,0,115865,,-1.134464 M,0,115865,116265,60,60,830.3616,419.2255
Sprite,Foreground,Centre,"sb\rs\bone.png",0,0 R,0,115965,,-1.047198 M,0,115965,116365,60,60,796.1216,485
Sprite,Foreground,Centre,"sb\rs\bone.png",0,0 R,0,116065,,-0.9599311 M,0,116065,116465,60,60,756.2792,547.54
Sprite,Foreground,Centre,"sb\rs\bone.png",0,0 R,0,116165,,-0.8726646 M,0,116165,116565,60,60,711.1378,606.3695
Sprite,Foreground,Centre,"sb\rs\bone.png",0,0 R,0,116265,,-0.7853982 M,0,116265,116665,60,60,661.0408,661.0408
Sprite,Foreground,Centre,"sb\rs\bone.png",0,0 R,0,116365,,-0.6981317 M,0,116365,116765,60,60,606.3695,711.1378
Sprite,Foreground,Centre,"sb\rs\bone.png",0,0 R,0,116465,,-0.6108652 M,0,116465,116865,60,60,547.54,756.2792
Sprite,Foreground,Centre,"sb\rs\bone.png",0,0 R,0,116565,,-0.5235988 M,0,116565,116965,60,60,485,796.1216
Sprite,Foreground,Centre,"sb\rs\bone.png",0,0 R,0,116665,,-0.4363323 M,0,116665,117065,60,60,419.2255,830.3616
Sprite,Foreground,Centre,"sb\rs\bone.png",0,0 R,0,116765,,-0.3490658 M,0,116765,117165,60,60,350.7171,858.7387
Sprite,Foreground,Centre,"sb\rs\bone.png",0,0 R,0,116865,,-0.2617994 M,0,116865,117265,60,60,279.9962,881.0369
Sprite,Foreground,Centre,"sb\rs\bone.png",0,0 R,0,116965,,-0.1745329 M,0,116965,117365,60,60,207.601,897.0865
Sprite,Foreground,Centre,"sb\rs\bone.png",0,0 R,0,117065,,-0.08726646 M,0,117065,117465,60,60,134.0824,906.7655
Sprite,Foreground,Centre,"sb\rs\bl\bl0.png",0,0 F,0,114365,,1 S,0,114365,,1.4 M,1,114365,115065,-740,60,60,60 R,0,114465,,-1.570796 F,0,115265,,0
Animation,Foreground,Centre,"sb\rs\bl\bl.png",60,60,6,30,LoopOnce S,0,115265,,1.4 R,0,115265,,-1.570796 R,0,115365,117165,4.712389,6.283185 M,2,117365,118065,60,60,60,-740
Sprite,Foreground,Centre,"sb\rs\bone.png",0,0 R,0,117365,,-1.570796 M,0,117365,117765,370,240,1220,240
Sprite,Foreground,Centre,"sb\rs\bone.png",0,0 R,0,117465,,-1.48353 M,0,117465,117865,370,240,1216.766,314.0824
Sprite,Foreground,Centre,"sb\rs\bone.png",0,0 R,0,117565,,-1.396263 M,0,117565,117965,370,240,1207.087,387.601
Sprite,Foreground,Centre,"sb\rs\bone.png",0,0 R,0,117665,,-1.308997 M,0,117665,118065,370,240,1191.037,459.9962
Sprite,Foreground,Centre,"sb\rs\bone.png",0,0 R,0,117765,,-1.22173 M,0,117765,118165,370,240,1168.739,530.7171
Sprite,Foreground,Centre,"sb\rs\bone.png",0,0 R,0,117865,,-1.134464 M,0,117865,118265,370,240,1140.362,599.2255
Sprite,Foreground,Centre,"sb\rs\bone.png",0,0 R,0,117965,,-1.047198 M,0,117965,118365,370,240,1106.122,665
Sprite,Foreground,Centre,"sb\rs\bone.png",0,0 R,0,118065,,-0.9599311 M,0,118065,118465,370,240,1066.279,727.54
Sprite,Foreground,Centre,"sb\rs\bone.png",0,0 R,0,118165,,-0.8726646 M,0,118165,118565,370,240,1021.138,786.3695
Sprite,Foreground,Centre,"sb\rs\bone.png",0,0 R,0,118265,,-0.7853982 M,0,118265,118665,370,240,971.0408,841.0408
Sprite,Foreground,Centre,"sb\rs\bone.png",0,0 R,0,118365,,-0.6981317 M,0,118365,118765,370,240,916.3695,891.1378
Sprite,Foreground,Centre,"sb\rs\bone.png",0,0 R,0,118465,,-0.6108652 M,0,118465,118865,370,240,857.54,936.2792
Sprite,Foreground,Centre,"sb\rs\bone.png",0,0 R,0,118565,,-0.5235988 M,0,118565,118965,370,240,795,976.1216
Sprite,Foreground,Centre,"sb\rs\bone.png",0,0 R,0,118665,,-0.4363323 M,0,118665,119065,370,240,729.2255,1010.362
Sprite,Foreground,Centre,"sb\rs\bone.png",0,0 R,0,118765,,-0.3490658 M,0,118765,119165,370,240,660.7171,1038.739
Sprite,Foreground,Centre,"sb\rs\bone.png",0,0 R,0,118865,,-0.2617994 M,0,118865,119265,370,240,589.9962,1061.037
Sprite,Foreground,Centre,"sb\rs\bone.png",0,0 R,0,118965,,-0.1745329 M,0,118965,119365,370,240,517.601,1077.087
Sprite,Foreground,Centre,"sb\rs\bone.png",0,0 R,0,119065,,-0.08726646 M,0,119065,119465,370,240,444.0824,1086.766
Sprite,Foreground,Centre,"sb\rs\bl\bl0.png",0,0 F,0,116365,,1 S,0,116365,,1.4 M,1,116365,117065,-430,240,370,240 R,0,116465,,-1.570796 F,0,117265,,0
Animation,Foreground,Centre,"sb\rs\bl\bl.png",370,240,6,30,LoopOnce S,0,117265,,1.4 R,0,117265,,-1.570796 R,0,117365,119165,4.712389,6.283185 M,2,119365,120065,370,240,370,-560
Sprite,Foreground,Centre,"sb\rs\bone.png",0,0 R,0,117365,,1.570796 M,0,117365,117765,270,240,-580,240
Sprite,Foreground,Centre,"sb\rs\bone.png",0,0 R,0,117465,,1.658063 M,0,117465,117865,270,240,-576.7655,165.9176
Sprite,Foreground,Centre,"sb\rs\bone.png",0,0 R,0,117565,,1.745329 M,0,117565,117965,270,240,-567.0865,92.39905
Sprite,Foreground,Centre,"sb\rs\bone.png",0,0 R,0,117665,,1.832596 M,0,117665,118065,270,240,-551.0369,20.00381
Sprite,Foreground,Centre,"sb\rs\bone.png",0,0 R,0,117765,,1.919862 M,0,117765,118165,270,240,-528.7387,-50.71713
Sprite,Foreground,Centre,"sb\rs\bone.png",0,0 R,0,117865,,2.007129 M,0,117865,118265,270,240,-500.3616,-119.2255
Sprite,Foreground,Centre,"sb\rs\bone.png",0,0 R,0,117965,,2.094395 M,0,117965,118365,270,240,-466.1216,-185
Sprite,Foreground,Centre,"sb\rs\bone.png",0,0 R,0,118065,,2.181662 M,0,118065,118465,270,240,-426.2792,-247.54
Sprite,Foreground,Centre,"sb\rs\bone.png",0,0 R,0,118165,,2.268928 M,0,118165,118565,270,240,-381.1378,-306.3695
Sprite,Foreground,Centre,"sb\rs\bone.png",0,0 R,0,118265,,2.356194 M,0,118265,118665,270,240,-331.0407,-361.0407
Sprite,Foreground,Centre,"sb\rs\bone.png",0,0 R,0,118365,,2.443461 M,0,118365,118765,270,240,-276.3695,-411.1378
Sprite,Foreground,Centre,"sb\rs\bone.png",0,0 R,0,118465,,2.530727 M,0,118465,118865,270,240,-217.54,-456.2792
Sprite,Foreground,Centre,"sb\rs\bone.png",0,0 R,0,118565,,2.617994 M,0,118565,118965,270,240,-155,-496.1216
Sprite,Foreground,Centre,"sb\rs\bone.png",0,0 R,0,118665,,2.70526 M,0,118665,119065,270,240,-89.22553,-530.3616
Sprite,Foreground,Centre,"sb\rs\bone.png",0,0 R,0,118765,,2.792527 M,0,118765,119165,270,240,-20.71713,-558.7387
Sprite,Foreground,Centre,"sb\rs\bone.png",0,0 R,0,118865,,2.879793 M,0,118865,119265,270,240,50.00381,-581.0369
Sprite,Foreground,Centre,"sb\rs\bone.png",0,0 R,0,118965,,2.96706 M,0,118965,119365,270,240,122.399,-597.0865
Sprite,Foreground,Centre,"sb\rs\bone.png",0,0 R,0,119065,,3.054326 M,0,119065,119465,270,240,195.9176,-606.7655
Sprite,Foreground,Centre,"sb\rs\bl\bl0.png",0,0 F,0,116365,,1 S,0,116365,,1.4 M,1,116365,117065,1070,240,270,240 R,0,116465,,-4.712389 F,0,117265,,0
Animation,Foreground,Centre,"sb\rs\bl\bl.png",270,240,6,30,LoopOnce S,0,117265,,1.4 R,0,117265,,-4.712389 R,0,117365,119165,7.853981,9.424778 M,2,119365,120065,270,240,270,1040
Sprite,Foreground,Centre,"sb\rs\bone.png",0,0 R,0,119365,,0.7853982 M,0,119365,119765,580,240,-21.04075,841.0408
Sprite,Foreground,Centre,"sb\rs\bone.png",0,0 R,0,119465,,0.8726646 M,0,119465,119865,580,240,-71.13777,786.3695
Sprite,Foreground,Centre,"sb\rs\bone.png",0,0 R,0,119565,,0.9599311 M,0,119565,119965,580,240,-116.2793,727.54
Sprite,Foreground,Centre,"sb\rs\bone.png",0,0 R,0,119665,,1.047198 M,0,119665,120065,580,240,-156.1216,665
Sprite,Foreground,Centre,"sb\rs\bone.png",0,0 R,0,119765,,1.134464 M,0,119765,120165,580,240,-190.3616,599.2255
Sprite,Foreground,Centre,"sb\rs\bone.png",0,0 R,0,119865,,1.22173 M,0,119865,120265,580,240,-218.7387,530.7171
Sprite,Foreground,Centre,"sb\rs\bone.png",0,0 R,0,119965,,1.308997 M,0,119965,120365,580,240,-241.0369,459.9962
Sprite,Foreground,Centre,"sb\rs\bone.png",0,0 R,0,120065,,1.396263 M,0,120065,120465,580,240,-257.0866,387.601
Sprite,Foreground,Centre,"sb\rs\bone.png",0,0 R,0,120165,,1.48353 M,0,120165,120565,580,240,-266.7655,314.0824
Sprite,Foreground,Centre,"sb\rs\bone.png",0,0 R,0,120265,,1.570796 M,0,120265,120665,580,240,-270,240
Sprite,Foreground,Centre,"sb\rs\bone.png",0,0 R,0,120365,,1.658063 M,0,120365,120765,580,240,-266.7655,165.9176
Sprite,Foreground,Centre,"sb\rs\bone.png",0,0 R,0,120465,,1.745329 M,0,120465,120865,580,240,-257.0866,92.39905
Sprite,Foreground,Centre,"sb\rs\bone.png",0,0 R,0,120565,,1.832596 M,0,120565,120965,580,240,-241.0369,20.00381
Sprite,Foreground,Centre,"sb\rs\bone.png",0,0 R,0,120665,,1.919862 M,0,120665,121065,580,240,-218.7387,-50.71713
Sprite,Foreground,Centre,"sb\rs\bone.png",0,0 R,0,120765,,2.007129 M,0,120765,121165,580,240,-190.3616,-119.2255
Sprite,Foreground,Centre,"sb\rs\bone.png",0,0 R,0,120865,,2.094395 M,0,120865,121265,580,240,-156.1216,-185
Sprite,Foreground,Centre,"sb\rs\bone.png",0,0 R,0,120965,,2.181662 M,0,120965,121365,580,240,-116.2793,-247.54
Sprite,Foreground,Centre,"sb\rs\bone.png",0,0 R,0,121065,,2.268928 M,0,121065,121465,580,240,-71.13777,-306.3695
Sprite,Foreground,Centre,"sb\rs\bl\bl0.png",0,0 F,0,118365,,1 S,0,118365,,1.4 M,1,118365,119065,1145.685,-325.6854,580,240 R,0,118465,,-5.497787 F,0,119265,,0
Animation,Foreground,Centre,"sb\rs\bl\bl.png",580,240,6,30,LoopOnce S,0,119265,,1.4 R,0,119265,,-5.497787 R,0,119365,121165,7.068583,8.63938 M,2,121365,122065,580,240,1145.685,805.6854
Sprite,Foreground,Centre,"sb\rs\bone.png",0,0 R,0,119365,,-0.7853982 M,0,119365,119765,60,240,661.0408,841.0408
Sprite,Foreground,Centre,"sb\rs\bone.png",0,0 R,0,119465,,-0.8726646 M,0,119465,119865,60,240,711.1378,786.3695
Sprite,Foreground,Centre,"sb\rs\bone.png",0,0 R,0,119565,,-0.9599311 M,0,119565,119965,60,240,756.2792,727.54
Sprite,Foreground,Centre,"sb\rs\bone.png",0,0 R,0,119665,,-1.047198 M,0,119665,120065,60,240,796.1216,665
Sprite,Foreground,Centre,"sb\rs\bone.png",0,0 R,0,119765,,-1.134464 M,0,119765,120165,60,240,830.3616,599.2255
Sprite,Foreground,Centre,"sb\rs\bone.png",0,0 R,0,119865,,-1.22173 M,0,119865,120265,60,240,858.7387,530.7171
Sprite,Foreground,Centre,"sb\rs\bone.png",0,0 R,0,119965,,-1.308997 M,0,119965,120365,60,240,881.0369,459.9962
Sprite,Foreground,Centre,"sb\rs\bone.png",0,0 R,0,120065,,-1.396263 M,0,120065,120465,60,240,897.0865,387.601
Sprite,Foreground,Centre,"sb\rs\bone.png",0,0 R,0,120165,,-1.48353 M,0,120165,120565,60,240,906.7655,314.0824
Sprite,Foreground,Centre,"sb\rs\bone.png",0,0 R,0,120265,,-1.570796 M,0,120265,120665,60,240,910,240
Sprite,Foreground,Centre,"sb\rs\bone.png",0,0 R,0,120365,,-1.658063 M,0,120365,120765,60,240,906.7655,165.9176
Sprite,Foreground,Centre,"sb\rs\bone.png",0,0 R,0,120465,,-1.745329 M,0,120465,120865,60,240,897.0865,92.39905
Sprite,Foreground,Centre,"sb\rs\bone.png",0,0 R,0,120565,,-1.832596 M,0,120565,120965,60,240,881.0369,20.00381
Sprite,Foreground,Centre,"sb\rs\bone.png",0,0 R,0,120665,,-1.919862 M,0,120665,121065,60,240,858.7387,-50.71713
Sprite,Foreground,Centre,"sb\rs\bone.png",0,0 R,0,120765,,-2.007129 M,0,120765,121165,60,240,830.3616,-119.2255
Sprite,Foreground,Centre,"sb\rs\bone.png",0,0 R,0,120865,,-2.094395 M,0,120865,121265,60,240,796.1216,-185
Sprite,Foreground,Centre,"sb\rs\bone.png",0,0 R,0,120965,,-2.181662 M,0,120965,121365,60,240,756.2792,-247.54
Sprite,Foreground,Centre,"sb\rs\bone.png",0,0 R,0,121065,,-2.268928 M,0,121065,121465,60,240,711.1378,-306.3695
Sprite,Foreground,Centre,"sb\rs\bl\bl0.png",0,0 F,0,118365,,1 S,0,118365,,1.4 M,1,118365,119065,-505.6854,-325.6854,60,240 R,0,118465,,-0.7853982 F,0,119265,,0
Animation,Foreground,Centre,"sb\rs\bl\bl.png",60,240,6,30,LoopOnce S,0,119265,,1.4 R,0,119265,,-0.7853982 R,0,119365,121165,5.497787,3.926991 M,2,121365,122065,60,240,-505.6854,805.6854
Sprite,Foreground,Centre,"sb\rs\bone.png",0,0 R,0,121365,,3.926991 M,0,121365,121765,370,420,971.0408,-181.0408
Sprite,Foreground,Centre,"sb\rs\bone.png",0,0 R,0,121465,,3.839724 M,0,121465,121865,370,420,916.3695,-231.1378
Sprite,Foreground,Centre,"sb\rs\bone.png",0,0 R,0,121565,,3.752458 M,0,121565,121965,370,420,857.54,-276.2792
Sprite,Foreground,Centre,"sb\rs\bone.png",0,0 R,0,121665,,3.665191 M,0,121665,122065,370,420,795,-316.1216
Sprite,Foreground,Centre,"sb\rs\bone.png",0,0 R,0,121765,,3.577925 M,0,121765,122165,370,420,729.2255,-350.3616
Sprite,Foreground,Centre,"sb\rs\bone.png",0,0 R,0,121865,,3.490659 M,0,121865,122265,370,420,660.7171,-378.7387
Sprite,Foreground,Centre,"sb\rs\bone.png",0,0 R,0,121965,,3.403392 M,0,121965,122365,370,420,589.9962,-401.0369
Sprite,Foreground,Centre,"sb\rs\bone.png",0,0 R,0,122065,,3.316126 M,0,122065,122465,370,420,517.601,-417.0866
Sprite,Foreground,Centre,"sb\rs\bone.png",0,0 R,0,122165,,3.228859 M,0,122165,122565,370,420,444.0824,-426.7655
Sprite,Foreground,Centre,"sb\rs\bone.png",0,0 R,0,122265,,3.141593 M,0,122265,122665,370,420,370,-430
Sprite,Foreground,Centre,"sb\rs\bone.png",0,0 R,0,122365,,3.054326 M,0,122365,122765,370,420,295.9176,-426.7655
Sprite,Foreground,Centre,"sb\rs\bone.png",0,0 R,0,122465,,2.96706 M,0,122465,122865,370,420,222.399,-417.0866
Sprite,Foreground,Centre,"sb\rs\bone.png",0,0 R,0,122565,,2.879793 M,0,122565,122965,370,420,150.0038,-401.0369
Sprite,Foreground,Centre,"sb\rs\bone.png",0,0 R,0,122665,,2.792527 M,0,122665,123065,370,420,79.28287,-378.7387
Sprite,Foreground,Centre,"sb\rs\bone.png",0,0 R,0,122765,,2.70526 M,0,122765,123165,370,420,10.77447,-350.3616
Sprite,Foreground,Centre,"sb\rs\bone.png",0,0 R,0,122865,,2.617994 M,0,122865,123265,370,420,-55,-316.1216
Sprite,Foreground,Centre,"sb\rs\bone.png",0,0 R,0,122965,,2.530727 M,0,122965,123365,370,420,-117.54,-276.2792
Sprite,Foreground,Centre,"sb\rs\bone.png",0,0 R,0,123065,,2.443461 M,0,123065,123465,370,420,-176.3695,-231.1378
Sprite,Foreground,Centre,"sb\rs\bl\bl0.png",0,0 F,0,120365,,1 S,0,120365,,1.4 M,1,120365,121065,-195.6854,985.6854,370,420 R,0,120465,,-8.63938 F,0,121265,,0
Animation,Foreground,Centre,"sb\rs\bl\bl.png",370,420,6,30,LoopOnce S,0,121265,,1.4 R,0,121265,,-8.63938 R,0,121365,123165,10.21018,8.63938 M,2,123365,124065,370,420,935.6854,985.6854
Sprite,Foreground,Centre,"sb\rs\bone.png",0,0 R,0,121365,,2.356194 M,0,121365,121765,270,420,-331.0407,-181.0408
Sprite,Foreground,Centre,"sb\rs\bone.png",0,0 R,0,121465,,2.443461 M,0,121465,121865,270,420,-276.3695,-231.1378
Sprite,Foreground,Centre,"sb\rs\bone.png",0,0 R,0,121565,,2.530727 M,0,121565,121965,270,420,-217.54,-276.2792
Sprite,Foreground,Centre,"sb\rs\bone.png",0,0 R,0,121665,,2.617994 M,0,121665,122065,270,420,-155,-316.1216
Sprite,Foreground,Centre,"sb\rs\bone.png",0,0 R,0,121765,,2.70526 M,0,121765,122165,270,420,-89.22553,-350.3616
Sprite,Foreground,Centre,"sb\rs\bone.png",0,0 R,0,121865,,2.792527 M,0,121865,122265,270,420,-20.71713,-378.7387
Sprite,Foreground,Centre,"sb\rs\bone.png",0,0 R,0,121965,,2.879793 M,0,121965,122365,270,420,50.00381,-401.0369
Sprite,Foreground,Centre,"sb\rs\bone.png",0,0 R,0,122065,,2.96706 M,0,122065,122465,270,420,122.399,-417.0866
Sprite,Foreground,Centre,"sb\rs\bone.png",0,0 R,0,122165,,3.054326 M,0,122165,122565,270,420,195.9176,-426.7655
Sprite,Foreground,Centre,"sb\rs\bone.png",0,0 R,0,122265,,3.141593 M,0,122265,122665,270,420,270,-430
Sprite,Foreground,Centre,"sb\rs\bone.png",0,0 R,0,122365,,3.228859 M,0,122365,122765,270,420,344.0824,-426.7655
Sprite,Foreground,Centre,"sb\rs\bone.png",0,0 R,0,122465,,3.316126 M,0,122465,122865,270,420,417.601,-417.0866
Sprite,Foreground,Centre,"sb\rs\bone.png",0,0 R,0,122565,,3.403392 M,0,122565,122965,270,420,489.9962,-401.0369
Sprite,Foreground,Centre,"sb\rs\bone.png",0,0 R,0,122665,,3.490659 M,0,122665,123065,270,420,560.7171,-378.7387
Sprite,Foreground,Centre,"sb\rs\bone.png",0,0 R,0,122765,,3.577925 M,0,122765,123165,270,420,629.2255,-350.3616
Sprite,Foreground,Centre,"sb\rs\bone.png",0,0 R,0,122865,,3.665191 M,0,122865,123265,270,420,695,-316.1216
Sprite,Foreground,Centre,"sb\rs\bone.png",0,0 R,0,122965,,3.752458 M,0,122965,123365,270,420,757.54,-276.2792
Sprite,Foreground,Centre,"sb\rs\bone.png",0,0 R,0,123065,,3.839724 M,0,123065,123465,270,420,816.3695,-231.1378
Sprite,Foreground,Centre,"sb\rs\bl\bl0.png",0,0 F,0,120365,,1 S,0,120365,,1.4 M,1,120365,121065,835.6854,985.6854,270,420 R,0,120465,,-3.926991 F,0,121265,,0
Animation,Foreground,Centre,"sb\rs\bl\bl.png",270,420,6,30,LoopOnce S,0,121265,,1.4 R,0,121265,,-3.926991 R,0,121365,123165,8.63938,10.21018 M,2,123365,124065,270,420,-295.6854,985.6854
Sprite,Foreground,Centre,"sb\rs\bone.png",0,0 R,0,123365,,-0.7853982 M,0,123365,123765,370,60,971.0408,661.0408
Sprite,Foreground,Centre,"sb\rs\bone.png",0,0 R,0,123465,,-0.6981317 M,0,123465,123865,370,60,916.3695,711.1378
Sprite,Foreground,Centre,"sb\rs\bone.png",0,0 R,0,123565,,-0.6108652 M,0,123565,123965,370,60,857.54,756.2792
Sprite,Foreground,Centre,"sb\rs\bone.png",0,0 R,0,123665,,-0.5235988 M,0,123665,124065,370,60,795,796.1216
Sprite,Foreground,Centre,"sb\rs\bone.png",0,0 R,0,123765,,-0.4363323 M,0,123765,124165,370,60,729.2255,830.3616
Sprite,Foreground,Centre,"sb\rs\bone.png",0,0 R,0,123865,,-0.3490658 M,0,123865,124265,370,60,660.7171,858.7387
Sprite,Foreground,Centre,"sb\rs\bone.png",0,0 R,0,123965,,-0.2617994 M,0,123965,124365,370,60,589.9962,881.0369
Sprite,Foreground,Centre,"sb\rs\bone.png",0,0 R,0,124065,,-0.1745329 M,0,124065,124465,370,60,517.601,897.0865
Sprite,Foreground,Centre,"sb\rs\bone.png",0,0 R,0,124165,,-0.08726646 M,0,124165,124565,370,60,444.0824,906.7655
Sprite,Foreground,Centre,"sb\rs\bone.png",0,0 R,0,124265,,0 M,0,124265,124665,370,60,370,910
Sprite,Foreground,Centre,"sb\rs\bone.png",0,0 R,0,124365,,0.08726646 M,0,124365,124765,370,60,295.9176,906.7655
Sprite,Foreground,Centre,"sb\rs\bone.png",0,0 R,0,124465,,0.1745329 M,0,124465,124865,370,60,222.399,897.0865
Sprite,Foreground,Centre,"sb\rs\bone.png",0,0 R,0,124565,,0.2617994 M,0,124565,124965,370,60,150.0038,881.0369
Sprite,Foreground,Centre,"sb\rs\bone.png",0,0 R,0,124665,,0.3490658 M,0,124665,125065,370,60,79.28287,858.7387
Sprite,Foreground,Centre,"sb\rs\bone.png",0,0 R,0,124765,,0.4363323 M,0,124765,125165,370,60,10.77447,830.3616
Sprite,Foreground,Centre,"sb\rs\bone.png",0,0 R,0,124865,,0.5235988 M,0,124865,125265,370,60,-55,796.1216
Sprite,Foreground,Centre,"sb\rs\bone.png",0,0 R,0,124965,,0.6108652 M,0,124965,125365,370,60,-117.54,756.2792
Sprite,Foreground,Centre,"sb\rs\bone.png",0,0 R,0,125065,,0.6981317 M,0,125065,125465,370,60,-176.3695,711.1378
Sprite,Foreground,Centre,"sb\rs\bl\bl0.png",0,0 F,0,122365,,1 S,0,122365,,1.4 M,1,122365,123065,-195.6854,-505.6854,370,60 R,0,122465,,-0.7853982 F,0,123265,,0
Animation,Foreground,Centre,"sb\rs\bl\bl.png",370,60,6,30,LoopOnce S,0,123265,,1.4 R,0,123265,,-0.7853982 R,0,123365,125165,5.497787,7.068583 M,2,125365,126065,370,60,935.6854,-505.6854
Sprite,Foreground,Centre,"sb\rs\bone.png",0,0 R,0,123365,,0.7853982 M,0,123365,123765,270,60,-331.0407,661.0408
Sprite,Foreground,Centre,"sb\rs\bone.png",0,0 R,0,123465,,0.6981317 M,0,123465,123865,270,60,-276.3695,711.1378
Sprite,Foreground,Centre,"sb\rs\bone.png",0,0 R,0,123565,,0.6108652 M,0,123565,123965,270,60,-217.54,756.2792
Sprite,Foreground,Centre,"sb\rs\bone.png",0,0 R,0,123665,,0.5235988 M,0,123665,124065,270,60,-155,796.1216
Sprite,Foreground,Centre,"sb\rs\bone.png",0,0 R,0,123765,,0.4363323 M,0,123765,124165,270,60,-89.22553,830.3616
Sprite,Foreground,Centre,"sb\rs\bone.png",0,0 R,0,123865,,0.3490658 M,0,123865,124265,270,60,-20.71713,858.7387
Sprite,Foreground,Centre,"sb\rs\bone.png",0,0 R,0,123965,,0.2617994 M,0,123965,124365,270,60,50.00381,881.0369
Sprite,Foreground,Centre,"sb\rs\bone.png",0,0 R,0,124065,,0.1745329 M,0,124065,124465,270,60,122.399,897.0865
Sprite,Foreground,Centre,"sb\rs\bone.png",0,0 R,0,124165,,0.08726646 M,0,124165,124565,270,60,195.9176,906.7655
Sprite,Foreground,Centre,"sb\rs\bone.png",0,0 R,0,124265,,0 M,0,124265,124665,270,60,270,910
Sprite,Foreground,Centre,"sb\rs\bone.png",0,0 R,0,124365,,-0.08726646 M,0,124365,124765,270,60,344.0824,906.7655
Sprite,Foreground,Centre,"sb\rs\bone.png",0,0 R,0,124465,,-0.1745329 M,0,124465,124865,270,60,417.601,897.0865
Sprite,Foreground,Centre,"sb\rs\bone.png",0,0 R,0,124565,,-0.2617994 M,0,124565,124965,270,60,489.9962,881.0369
Sprite,Foreground,Centre,"sb\rs\bone.png",0,0 R,0,124665,,-0.3490658 M,0,124665,125065,270,60,560.7171,858.7387
Sprite,Foreground,Centre,"sb\rs\bone.png",0,0 R,0,124765,,-0.4363323 M,0,124765,125165,270,60,629.2255,830.3616
Sprite,Foreground,Centre,"sb\rs\bone.png",0,0 R,0,124865,,-0.5235988 M,0,124865,125265,270,60,695,796.1216
Sprite,Foreground,Centre,"sb\rs\bone.png",0,0 R,0,124965,,-0.6108652 M,0,124965,125365,270,60,757.54,756.2792
Sprite,Foreground,Centre,"sb\rs\bone.png",0,0 R,0,125065,,-0.6981317 M,0,125065,125465,270,60,816.3695,711.1378
Sprite,Foreground,Centre,"sb\rs\bl\bl0.png",0,0 F,0,122365,,1 S,0,122365,,1.4 M,1,122365,123065,835.6854,-505.6854,270,60 R,0,122465,,-5.497787 F,0,123265,,0
Animation,Foreground,Centre,"sb\rs\bl\bl.png",270,60,6,30,LoopOnce S,0,123265,,1.4 R,0,123265,,-5.497787 R,0,123365,125165,7.068583,5.497787 M,2,125365,126065,270,60,-295.6854,-505.6854
Sprite,Foreground,Centre,"sb\rs\bone.png",0,0 R,0,125365,,-0.7853982 M,0,125365,125765,60,240,661.0408,841.0408
Sprite,Foreground,Centre,"sb\rs\bone.png",0,0 R,0,125465,,-0.8726646 M,0,125465,125865,60,240,711.1378,786.3695
Sprite,Foreground,Centre,"sb\rs\bone.png",0,0 R,0,125565,,-0.9599311 M,0,125565,125965,60,240,756.2792,727.54
Sprite,Foreground,Centre,"sb\rs\bone.png",0,0 R,0,125665,,-1.047198 M,0,125665,126065,60,240,796.1216,665
Sprite,Foreground,Centre,"sb\rs\bone.png",0,0 R,0,125765,,-1.134464 M,0,125765,126165,60,240,830.3616,599.2255
Sprite,Foreground,Centre,"sb\rs\bone.png",0,0 R,0,125865,,-1.22173 M,0,125865,126265,60,240,858.7387,530.7171
Sprite,Foreground,Centre,"sb\rs\bone.png",0,0 R,0,125965,,-1.308997 M,0,125965,126365,60,240,881.0369,459.9962
Sprite,Foreground,Centre,"sb\rs\bone.png",0,0 R,0,126065,,-1.396263 M,0,126065,126465,60,240,897.0865,387.601
Sprite,Foreground,Centre,"sb\rs\bone.png",0,0 R,0,126165,,-1.48353 M,0,126165,126565,60,240,906.7655,314.0824
Sprite,Foreground,Centre,"sb\rs\bone.png",0,0 R,0,126265,,-1.570796 M,0,126265,126665,60,240,910,240
Sprite,Foreground,Centre,"sb\rs\bone.png",0,0 R,0,126365,,-1.658063 M,0,126365,126765,60,240,906.7655,165.9176
Sprite,Foreground,Centre,"sb\rs\bone.png",0,0 R,0,126465,,-1.745329 M,0,126465,126865,60,240,897.0865,92.39905
Sprite,Foreground,Centre,"sb\rs\bone.png",0,0 R,0,126565,,-1.832596 M,0,126565,126965,60,240,881.0369,20.00381
Sprite,Foreground,Centre,"sb\rs\bone.png",0,0 R,0,126665,,-1.919862 M,0,126665,127065,60,240,858.7387,-50.71713
Sprite,Foreground,Centre,"sb\rs\bone.png",0,0 R,0,126765,,-2.007129 M,0,126765,127165,60,240,830.3616,-119.2255
Sprite,Foreground,Centre,"sb\rs\bone.png",0,0 R,0,126865,,-2.094395 M,0,126865,127265,60,240,796.1216,-185
Sprite,Foreground,Centre,"sb\rs\bone.png",0,0 R,0,126965,,-2.181662 M,0,126965,127365,60,240,756.2792,-247.54
Sprite,Foreground,Centre,"sb\rs\bone.png",0,0 R,0,127065,,-2.268928 M,0,127065,127465,60,240,711.1378,-306.3695
Sprite,Foreground,Centre,"sb\rs\bl\bl0.png",0,0 F,0,124365,,1 S,0,124365,,1.4 M,1,124365,125065,-505.6854,-325.6854,60,240 R,0,124465,,-0.7853982 F,0,125265,,0
Animation,Foreground,Centre,"sb\rs\bl\bl.png",60,240,6,30,LoopOnce S,0,125265,,1.4 R,0,125265,,-0.7853982 R,0,125365,127165,5.497787,3.926991 M,2,127365,128065,60,240,-505.6854,805.6854
Sprite,Foreground,Centre,"sb\rs\bone.png",0,0 R,0,125365,,0.7853982 M,0,125365,125765,580,240,-21.04075,841.0408
Sprite,Foreground,Centre,"sb\rs\bone.png",0,0 R,0,125465,,0.8726646 M,0,125465,125865,580,240,-71.13777,786.3695
Sprite,Foreground,Centre,"sb\rs\bone.png",0,0 R,0,125565,,0.9599311 M,0,125565,125965,580,240,-116.2793,727.54
Sprite,Foreground,Centre,"sb\rs\bone.png",0,0 R,0,125665,,1.047198 M,0,125665,126065,580,240,-156.1216,665
Sprite,Foreground,Centre,"sb\rs\bone.png",0,0 R,0,125765,,1.134464 M,0,125765,126165,580,240,-190.3616,599.2255
Sprite,Foreground,Centre,"sb\rs\bone.png",0,0 R,0,125865,,1.22173 M,0,125865,126265,580,240,-218.7387,530.7171
Sprite,Foreground,Centre,"sb\rs\bone.png",0,0 R,0,125965,,1.308997 M,0,125965,126365,580,240,-241.0369,459.9962
Sprite,Foreground,Centre,"sb\rs\bone.png",0,0 R,0,126065,,1.396263 M,0,126065,126465,580,240,-257.0866,387.601
Sprite,Foreground,Centre,"sb\rs\bone.png",0,0 R,0,126165,,1.48353 M,0,126165,126565,580,240,-266.7655,314.0824
Sprite,Foreground,Centre,"sb\rs\bone.png",0,0 R,0,126265,,1.570796 M,0,126265,126665,580,240,-270,240
Sprite,Foreground,Centre,"sb\rs\bone.png",0,0 R,0,126365,,1.658063 M,0,126365,126765,580,240,-266.7655,165.9176
Sprite,Foreground,Centre,"sb\rs\bone.png",0,0 R,0,126465,,1.745329 M,0,126465,126865,580,240,-257.0866,92.39905
Sprite,Foreground,Centre,"sb\rs\bone.png",0,0 R,0,126565,,1.832596 M,0,126565,126965,580,240,-241.0369,20.00381
Sprite,Foreground,Centre,"sb\rs\bone.png",0,0 R,0,126665,,1.919862 M,0,126665,127065,580,240,-218.7387,-50.71713
Sprite,Foreground,Centre,"sb\rs\bone.png",0,0 R,0,126765,,2.007129 M,0,126765,127165,580,240,-190.3616,-119.2255
Sprite,Foreground,Centre,"sb\rs\bone.png",0,0 R,0,126865,,2.094395 M,0,126865,127265,580,240,-156.1216,-185
Sprite,Foreground,Centre,"sb\rs\bone.png",0,0 R,0,126965,,2.181662 M,0,126965,127365,580,240,-116.2793,-247.54
Sprite,Foreground,Centre,"sb\rs\bone.png",0,0 R,0,127065,,2.268928 M,0,127065,127465,580,240,-71.13777,-306.3695
Sprite,Foreground,Centre,"sb\rs\bl\bl0.png",0,0 F,0,124365,,1 S,0,124365,,1.4 M,1,124365,125065,1145.685,-325.6854,580,240 R,0,124465,,-5.497787 F,0,125265,,0
Animation,Foreground,Centre,"sb\rs\bl\bl.png",580,240,6,30,LoopOnce S,0,125265,,1.4 R,0,125265,,-5.497787 R,0,125365,127165,7.068583,8.63938 M,2,127365,128065,580,240,1145.685,805.6854
Sprite,Foreground,TopCentre,"sb\pixel.png",0,0 R,0,59366,,4.712389 V,1,59366,59566,0,800,42,800 V,2,59566,59766,42,800,0,800 M,2,59566,60266,91,316,-709,315
Sprite,Foreground,Centre,"sb\rs\bl\bl0.png",0,0 F,0,58366,,1 S,0,58366,,1.4 M,1,58366,59066,-709,315,91,316 R,0,58466,,4.712389 F,0,59266,,0
Animation,Foreground,Centre,"sb\rs\bl\bl.png",91,316,6,30,LoopOnce S,0,59266,,1.4 R,0,59266,,4.712389 M,2,59566,60266,91,316,-709,315
Sprite,Foreground,TopCentre,"sb\pixel.png",0,0 R,0,61366,,4.712389 V,1,61366,61566,0,800,42,800 V,2,61566,61766,42,800,0,800 M,2,61566,62266,131,109,-669,108
Sprite,Foreground,Centre,"sb\rs\bl\bl0.png",0,0 F,0,60366,,1 S,0,60366,,1.4 M,1,60366,61066,-669,108,131,109 R,0,60466,,4.712389 F,0,61266,,0
Animation,Foreground,Centre,"sb\rs\bl\bl.png",131,109,6,30,LoopOnce S,0,61266,,1.4 R,0,61266,,4.712389 M,2,61566,62266,131,109,-669,108
Sprite,Foreground,TopCentre,"sb\pixel.png",0,0 R,0,63366,,1.570796 V,1,63366,63566,0,800,42,800 V,2,63566,63766,42,800,0,800 M,2,63566,64266,432,374,1232,374
Sprite,Foreground,Centre,"sb\rs\bl\bl0.png",0,0 F,0,62366,,1 S,0,62366,,1.4 M,1,62366,63066,1232,374,432,374 R,0,62466,,1.570796 F,0,63266,,0
Animation,Foreground,Centre,"sb\rs\bl\bl.png",432,374,6,30,LoopOnce S,0,63266,,1.4 R,0,63266,,1.570796 M,2,63566,64266,432,374,1232,374
Sprite,Foreground,TopCentre,"sb\pixel.png",0,0 R,0,65366,,4.712389 V,1,65366,65566,0,800,42,800 V,2,65566,65766,42,800,0,800 M,2,65566,66266,91,111,-709,110
Sprite,Foreground,Centre,"sb\rs\bl\bl0.png",0,0 F,0,64366,,1 S,0,64366,,1.4 M,1,64366,65066,-709,110,91,111 R,0,64466,,4.712389 F,0,65266,,0
Animation,Foreground,Centre,"sb\rs\bl\bl.png",91,111,6,30,LoopOnce S,0,65266,,1.4 R,0,65266,,4.712389 M,2,65566,66266,91,111,-709,110
Sprite,Foreground,TopCentre,"sb\pixel.png",0,0 R,0,67366,,4.712389 V,1,67366,67566,0,800,42,800 V,2,67566,67766,42,800,0,800 M,2,67566,68266,129,291,-671,290
Sprite,Foreground,Centre,"sb\rs\bl\bl0.png",0,0 F,0,66366,,1 S,0,66366,,1.4 M,1,66366,67066,-671,290,129,291 R,0,66466,,4.712389 F,0,67266,,0
Animation,Foreground,Centre,"sb\rs\bl\bl.png",129,291,6,30,LoopOnce S,0,67266,,1.4 R,0,67266,,4.712389 M,2,67566,68266,129,291,-671,290
Sprite,Foreground,TopCentre,"sb\pixel.png",0,0 R,0,59366,,-0.7853982 V,1,59366,59566,0,800,42,800 V,2,59566,59766,42,800,0,800 M,2,59566,60266,179,104,-386,-461
Sprite,Foreground,Centre,"sb\rs\bl\bl0.png",0,0 F,0,58366,,1 S,0,58366,,1.4 M,1,58366,59066,-386,-461,179,104 R,0,58466,,-0.7853982 F,0,59266,,0
Animation,Foreground,Centre,"sb\rs\bl\bl.png",179,104,6,30,LoopOnce S,0,59266,,1.4 R,0,59266,,-0.7853982 M,2,59566,60266,179,104,-386,-461
Sprite,Foreground,TopCentre,"sb\pixel.png",0,0 R,0,61366,,3.926991 V,1,61366,61566,0,800,42,800 V,2,61566,61766,42,800,0,800 M,2,61566,62266,219,321,-346,886
Sprite,Foreground,Centre,"sb\rs\bl\bl0.png",0,0 F,0,60366,,1 S,0,60366,,1.4 M,1,60366,61066,-346,886,219,321 R,0,60466,,3.926991 F,0,61266,,0
Animation,Foreground,Centre,"sb\rs\bl\bl.png",219,321,6,30,LoopOnce S,0,61266,,1.4 R,0,61266,,3.926991 M,2,61566,62266,219,321,-346,886
Sprite,Foreground,TopCentre,"sb\pixel.png",0,0 R,0,63366,,0.7853982 V,1,63366,63566,0,800,42,800 V,2,63566,63766,42,800,0,800 M,2,63566,64266,344,162,909,-403
Sprite,Foreground,Centre,"sb\rs\bl\bl0.png",0,0 F,0,62366,,1 S,0,62366,,1.4 M,1,62366,63066,909,-403,344,162 R,0,62466,,0.7853982 F,0,63266,,0
Animation,Foreground,Centre,"sb\rs\bl\bl.png",344,162,6,30,LoopOnce S,0,63266,,1.4 R,0,63266,,0.7853982 M,2,63566,64266,344,162,909,-403
Sprite,Foreground,TopCentre,"sb\pixel.png",0,0 R,0,65366,,3.926991 V,1,65366,65566,0,800,42,800 V,2,65566,65766,42,800,0,800 M,2,65566,66266,179,323,-386,888
Sprite,Foreground,Centre,"sb\rs\bl\bl0.png",0,0 F,0,64366,,1 S,0,64366,,1.4 M,1,64366,65066,-386,888,179,323 R,0,64466,,3.926991 F,0,65266,,0
Animation,Foreground,Centre,"sb\rs\bl\bl.png",179,323,6,30,LoopOnce S,0,65266,,1.4 R,0,65266,,3.926991 M,2,65566,66266,179,323,-386,888
Sprite,Foreground,TopCentre,"sb\pixel.png",0,0 R,0,67366,,-0.7853982 V,1,67366,67566,0,800,42,800 V,2,67566,67766,42,800,0,800 M,2,67566,68266,217,79,-348,-486
Sprite,Foreground,Centre,"sb\rs\bl\bl0.png",0,0 F,0,66366,,1 S,0,66366,,1.4 M,1,66366,67066,-348,-486,217,79 R,0,66466,,-0.7853982 F,0,67266,,0
Animation,Foreground,Centre,"sb\rs\bl\bl.png",217,79,6,30,LoopOnce S,0,67266,,1.4 R,0,67266,,-0.7853982 M,2,67566,68266,217,79,-348,-486
Sprite,Foreground,TopCentre,"sb\pixel.png",0,0 R,0,51366,,0 V,1,51366,51566,0,800,42,800 V,2,51566,51766,42,800,0,800 M,2,51566,52266,196,94,196,-706
Sprite,Foreground,Centre,"sb\rs\bl\bl0.png",0,0 F,0,50366,,1 S,0,50366,,1.4 M,1,50366,51066,196,-706,196,94 R,0,50466,,0 F,0,51266,,0
Animation,Foreground,Centre,"sb\rs\bl\bl.png",196,94,6,30,LoopOnce S,0,51266,,1.4 R,0,51266,,0 M,2,51566,52266,196,94,196,-706
Sprite,Foreground,TopCentre,"sb\pixel.png",0,0 R,0,53366,,3.141593 V,1,53366,53566,0,800,42,800 V,2,53566,53766,42,800,0,800 M,2,53566,54266,128,396,127,1196
Sprite,Foreground,Centre,"sb\rs\bl\bl0.png",0,0 F,0,52366,,1 S,0,52366,,1.4 M,1,52366,53066,127,1196,128,396 R,0,52466,,3.141593 F,0,53266,,0
Animation,Foreground,Centre,"sb\rs\bl\bl.png",128,396,6,30,LoopOnce S,0,53266,,1.4 R,0,53266,,3.141593 M,2,53566,54266,128,396,127,1196
Sprite,Foreground,TopCentre,"sb\pixel.png",0,0 R,0,55366,,3.141593 V,1,55366,55566,0,800,42,800 V,2,55566,55766,42,800,0,800 M,2,55566,56266,389,407,388,1207
Sprite,Foreground,Centre,"sb\rs\bl\bl0.png",0,0 F,0,54366,,1 S,0,54366,,1.4 M,1,54366,55066,388,1207,389,407 R,0,54466,,3.141593 F,0,55266,,0
Animation,Foreground,Centre,"sb\rs\bl\bl.png",389,407,6,30,LoopOnce S,0,55266,,1.4 R,0,55266,,3.141593 M,2,55566,56266,389,407,388,1207
Sprite,Foreground,TopCentre,"sb\pixel.png",0,0 R,0,57366,,0 V,1,57366,57566,0,800,42,800 V,2,57566,57766,42,800,0,800 M,2,57566,58266,539,113,539,-687
Sprite,Foreground,Centre,"sb\rs\bl\bl0.png",0,0 F,0,56366,,1 S,0,56366,,1.4 M,1,56366,57066,539,-687,539,113 R,0,56466,,0 F,0,57266,,0
Animation,Foreground,Centre,"sb\rs\bl\bl.png",539,113,6,30,LoopOnce S,0,57266,,1.4 R,0,57266,,0 M,2,57566,58266,539,113,539,-687
Sprite,Foreground,TopCentre,"sb\pixel.png",0,0 R,0,51366,,0.7853982 V,1,51366,51566,0,800,42,800 V,2,51566,51766,42,800,0,800 M,2,51566,52266,355,160,920,-405
Sprite,Foreground,Centre,"sb\rs\bl\bl0.png",0,0 F,0,50366,,1 S,0,50366,,1.4 M,1,50366,51066,920,-405,355,160 R,0,50466,,0.7853982 F,0,51266,,0
Animation,Foreground,Centre,"sb\rs\bl\bl.png",355,160,6,30,LoopOnce S,0,51266,,1.4 R,0,51266,,0.7853982 M,2,51566,52266,355,160,920,-405
Sprite,Foreground,TopCentre,"sb\pixel.png",0,0 R,0,53366,,2.356194 V,1,53366,53566,0,800,42,800 V,2,53566,53766,42,800,0,800 M,2,53566,54266,287,330,852,895
Sprite,Foreground,Centre,"sb\rs\bl\bl0.png",0,0 F,0,52366,,1 S,0,52366,,1.4 M,1,52366,53066,852,895,287,330 R,0,52466,,2.356194 F,0,53266,,0
Animation,Foreground,Centre,"sb\rs\bl\bl.png",287,330,6,30,LoopOnce S,0,53266,,1.4 R,0,53266,,2.356194 M,2,53566,54266,287,330,852,895
Sprite,Foreground,TopCentre,"sb\pixel.png",0,0 R,0,55366,,3.926991 V,1,55366,55566,0,800,42,800 V,2,55566,55766,42,800,0,800 M,2,55566,56266,230,341,-335,906
Sprite,Foreground,Centre,"sb\rs\bl\bl0.png",0,0 F,0,54366,,1 S,0,54366,,1.4 M,1,54366,55066,-335,906,230,341 R,0,54466,,3.926991 F,0,55266,,0
Animation,Foreground,Centre,"sb\rs\bl\bl.png",230,341,6,30,LoopOnce S,0,55266,,1.4 R,0,55266,,3.926991 M,2,55566,56266,230,341,-335,906
Sprite,Foreground,TopCentre,"sb\pixel.png",0,0 R,0,57366,,-0.7853982 V,1,57366,57566,0,800,42,800 V,2,57566,57766,42,800,0,800 M,2,57566,58266,380,179,-185,-386
Sprite,Foreground,Centre,"sb\rs\bl\bl0.png",0,0 F,0,56366,,1 S,0,56366,,1.4 M,1,56366,57066,-185,-386,380,179 R,0,56466,,-0.7853982 F,0,57266,,0
Animation,Foreground,Centre,"sb\rs\bl\bl.png",380,179,6,30,LoopOnce S,0,57266,,1.4 R,0,57266,,-0.7853982 M,2,57566,58266,380,179,-185,-386
Sprite,Foreground,TopLeft,"sb\pixel.png",40,340 F,0,865,,1 C,0,865,,255,255,255 V,0,865,,560,120 F,0,12553,,0 F,0,12803,,1 F,0,19365,,0
Sprite,Foreground,TopLeft,"sb\pixel.png",45,345 F,0,865,,1 C,0,865,,0,0,0 V,0,865,,550,110 F,0,12553,,0 F,0,12803,,1 F,0,19365,,0
Sprite,Foreground,Centre,"sb\rs\asterisk.jpg",210,375 F,0,865,,1 S,0,865,,0.3 F,0,12553,,0 F,0,12803,,1 F,0,19365,,0
Sprite,Foreground,Centre,"sb\rs\sans\closed.png",130,400 F,0,865,,1 S,0,865,,0.6 F,0,12553,,0
Sprite,Foreground,Centre,"sb\rs\sans\noeyes.png",130,400 F,0,12803,,1 S,0,12803,,0.6 F,0,19365,,0
Sprite,Foreground,Centre,"sb\f\006d.png",248,386.25 F,0,1177,,0 F,0,1178,,1 S,0,1178,,0.5 F,0,5240,,0
Sprite,Foreground,Centre,"sb\f\0065.png",265.5,386.25 F,0,1177,,0 S,0,1178,,0.5 F,0,1234,,1 F,0,5240,,0
Sprite,Foreground,Centre,"sb\f\0067.png",281,390 F,0,1177,,0 S,0,1178,,0.5 F,0,1290,,1 F,0,5240,,0
Sprite,Foreground,Centre,"sb\f\0061.png",296.5,386.25 F,0,1177,,0 S,0,1178,,0.5 F,0,1346,,1 F,0,5240,,0
Sprite,Foreground,Centre,"sb\f\006c.png",308.25,383.25 F,0,1177,,0 S,0,1178,,0.5 F,0,1402,,1 F,0,5240,,0
Sprite,Foreground,Centre,"sb\f\006f.png",320,386.25 F,0,1177,,0 S,0,1178,,0.5 F,0,1458,,1 F,0,5240,,0
Sprite,Foreground,Centre,"sb\f\0076.png",335.5,386.25 F,0,1177,,0 S,0,1178,,0.5 F,0,1514,,1 F,0,5240,,0
Sprite,Foreground,Centre,"sb\f\0061.png",351,386.25 F,0,1177,,0 S,0,1178,,0.5 F,0,1570,,1 F,0,5240,,0
Sprite,Foreground,Centre,"sb\f\006e.png",366.5,386.25 F,0,1177,,0 S,0,1178,,0.5 F,0,1626,,1 F,0,5240,,0
Sprite,Foreground,Centre,"sb\f\0069.png",378.25,383.25 F,0,1177,,0 S,0,1178,,0.5 F,0,1682,,1 F,0,5240,,0
Sprite,Foreground,Centre,"sb\f\0061.png",390,386.25 F,0,1177,,0 S,0,1178,,0.5 F,0,1738,,1 F,0,5240,,0
Sprite,Foreground,Centre,"sb\f\0074.png",246,415.25 F,0,1177,,0 S,0,1178,,0.5 F,0,1850,,1 F,0,5240,,0
Sprite,Foreground,Centre,"sb\f\006f.png",261.5,417.25 F,0,1177,,0 S,0,1178,,0.5 F,0,1906,,1 F,0,5240,,0
Sprite,Foreground,Centre,"sb\f\0062.png",277,414.25 F,0,1177,,0 S,0,1178,,0.5 F,0,1962,,1 F,0,5240,,0
Sprite,Foreground,Centre,"sb\f\0079.png",293.5,421 F,0,1177,,0 S,0,1178,,0.5 F,0,2018,,1 F,0,5240,,0
Sprite,Foreground,Centre,"sb\f\0066.png",320,415.25 F,0,1177,,0 S,0,1178,,0.5 F,0,2130,,1 F,0,5240,,0
Sprite,Foreground,Centre,"sb\f\006f.png",335.5,417.25 F,0,1177,,0 S,0,1178,,0.5 F,0,2186,,1 F,0,5240,,0
Sprite,Foreground,Centre,"sb\f\0078.png",352,417.25 F,0,1177,,0 S,0,1178,,0.5 F,0,2242,,1 F,0,5240,,0
Sprite,Foreground,Centre,"sb\f\0026.png",381.5,414.25 F,0,1177,,0 S,0,1178,,0.5 F,0,2354,,1 F,0,5240,,0
Sprite,Foreground,Centre,"sb\f\0072.png",408,417.25 F,0,1177,,0 S,0,1178,,0.5 F,0,2466,,1 F,0,5240,,0
Sprite,Foreground,Centre,"sb\f\0069.png",419.75,414.25 F,0,1177,,0 S,0,1178,,0.5 F,0,2522,,1 F,0,5240,,0
Sprite,Foreground,Centre,"sb\f\0063.png",431.5,417.25 F,0,1177,,0 S,0,1178,,0.5 F,0,2578,,1 F,0,5240,,0
Sprite,Foreground,Centre,"sb\f\0068.png",447,414.25 F,0,1177,,0 S,0,1178,,0.5 F,0,2634,,1 F,0,5240,,0
Sprite,Foreground,Centre,"sb\f\0061.png",462.5,417.25 F,0,1177,,0 S,0,1178,,0.5 F,0,2690,,1 F,0,5240,,0
Sprite,Foreground,Centre,"sb\f\0061.png",478,417.25 F,0,1177,,0 S,0,1178,,0.5 F,0,2746,,1 F,0,5240,,0
Sprite,Foreground,Centre,"sb\f\0064.png",494.5,414.25 F,0,1177,,0 S,0,1178,,0.5 F,0,2802,,1 F,0,5240,,0
Sprite,Foreground,Centre,"sb\f\0065.png",511,417.25 F,0,1177,,0 S,0,1178,,0.5 F,0,2858,,1 F,0,5240,,0
Sprite,Foreground,Centre,"sb\f\0062.png",526.5,414.25 F,0,1177,,0 S,0,1178,,0.5 F,0,2914,,1 F,0,5240,,0
Sprite,Foreground,Centre,"sb\f\006d.png",248,386.25 F,0,5489,,0 F,0,5490,,1 S,0,5490,,0.5 F,0,6740,,0
Sprite,Foreground,Centre,"sb\f\0061.png",265.5,386.25 F,0,5489,,0 S,0,5490,,0.5 F,0,5541,,1 F,0,6740,,0
Sprite,Foreground,Centre,"sb\f\0070.png",281,390 F,0,5489,,0 S,0,5490,,0.5 F,0,5592,,1 F,0,6740,,0
Sprite,Foreground,Centre,"sb\f\0073.png",295.5,386.25 F,0,5489,,0 S,0,5490,,0.5 F,0,5643,,1 F,0,6740,,0
Sprite,Foreground,Centre,"sb\f\0065.png",310,386.25 F,0,5489,,0 S,0,5490,,0.5 F,0,5694,,1 F,0,6740,,0
Sprite,Foreground,Centre,"sb\f\0074.png",325.5,384.25 F,0,5489,,0 S,0,5490,,0.5 F,0,5745,,1 F,0,6740,,0
Sprite,Foreground,Centre,"sb\f\0062.png",351,383.25 F,0,5489,,0 S,0,5490,,0.5 F,0,5847,,1 F,0,6740,,0
Sprite,Foreground,Centre,"sb\f\0079.png",367.5,390 F,0,5489,,0 S,0,5490,,0.5 F,0,5898,,1 F,0,6740,,0
Sprite,Foreground,Centre,"sb\f\0066.png",246,415.25 F,0,5489,,0 S,0,5490,,0.5 F,0,6000,,1 F,0,6740,,0
Sprite,Foreground,Centre,"sb\f\0061.png",261.5,417.25 F,0,5489,,0 S,0,5490,,0.5 F,0,6051,,1 F,0,6740,,0
Sprite,Foreground,Centre,"sb\f\0074.png",277,415.25 F,0,5489,,0 S,0,5490,,0.5 F,0,6102,,1 F,0,6740,,0
Sprite,Foreground,Centre,"sb\f\0066.png",292.5,415.25 F,0,5489,,0 S,0,5490,,0.5 F,0,6153,,1 F,0,6740,,0
Sprite,Foreground,Centre,"sb\f\0061.png",308,417.25 F,0,5489,,0 S,0,5490,,0.5 F,0,6204,,1 F,0,6740,,0
Sprite,Foreground,Centre,"sb\f\006e.png",323.5,417.25 F,0,5489,,0 S,0,5490,,0.5 F,0,6255,,1 F,0,6740,,0
Sprite,Foreground,Centre,"sb\f\006b.png",349,414.25 F,0,5489,,0 S,0,5490,,0.5 F,0,6357,,1 F,0,6740,,0
Sprite,Foreground,Centre,"sb\f\006f.png",364.5,417.25 F,0,5489,,0 S,0,5490,,0.5 F,0,6408,,1 F,0,6740,,0
Sprite,Foreground,Centre,"sb\f\006c.png",376.25,414.25 F,0,5489,,0 S,0,5490,,0.5 F,0,6459,,1 F,0,6740,,0
Sprite,Foreground,Centre,"sb\f\0065.png",388,417.25 F,0,5489,,0 S,0,5490,,0.5 F,0,6510,,1 F,0,6740,,0
Sprite,Foreground,Centre,"sb\f\006b.png",403.5,414.25 F,0,5489,,0 S,0,5490,,0.5 F,0,6561,,1 F,0,6740,,0
Sprite,Foreground,Centre,"sb\f\0064.png",247,383.25 F,0,6989,,0 F,0,6990,,1 S,0,6990,,0.5 F,0,8990,,0
Sprite,Foreground,Centre,"sb\f\0069.png",259.75,383.25 F,0,6989,,0 S,0,6990,,0.5 F,0,7031,,1 F,0,8990,,0
Sprite,Foreground,Centre,"sb\f\0066.png",271.5,384.25 F,0,6989,,0 S,0,6990,,0.5 F,0,7072,,1 F,0,8990,,0
Sprite,Foreground,Centre,"sb\f\0066.png",287,384.25 F,0,6989,,0 S,0,6990,,0.5 F,0,7113,,1 F,0,8990,,0
Sprite,Foreground,Centre,"sb\f\0069.png",298.75,383.25 F,0,6989,,0 S,0,6990,,0.5 F,0,7154,,1 F,0,8990,,0
Sprite,Foreground,Centre,"sb\f\0063.png",310.5,386.25 F,0,6989,,0 S,0,6990,,0.5 F,0,7195,,1 F,0,8990,,0
Sprite,Foreground,Centre,"sb\f\0075.png",326,386.25 F,0,6989,,0 S,0,6990,,0.5 F,0,7236,,1 F,0,8990,,0
Sprite,Foreground,Centre,"sb\f\006c.png",337.75,383.25 F,0,6989,,0 S,0,6990,,0.5 F,0,7277,,1 F,0,8990,,0
Sprite,Foreground,Centre,"sb\f\0074.png",349.5,384.25 F,0,6989,,0 S,0,6990,,0.5 F,0,7318,,1 F,0,8990,,0
Sprite,Foreground,Centre,"sb\f\0079.png",366,390 F,0,6989,,0 S,0,6990,,0.5 F,0,7359,,1 F,0,8990,,0
Sprite,Foreground,Centre,"sb\f\0062.png",392.5,383.25 F,0,6989,,0 S,0,6990,,0.5 F,0,7441,,1 F,0,8990,,0
Sprite,Foreground,Centre,"sb\f\0079.png",409,390 F,0,6989,,0 S,0,6990,,0.5 F,0,7482,,1 F,0,8990,,0
Sprite,Foreground,Centre,"sb\f\0066.png",246,415.25 F,0,6989,,0 S,0,6990,,0.5 F,0,7564,,1 F,0,8990,,0
Sprite,Foreground,Centre,"sb\f\0061.png",261.5,417.25 F,0,6989,,0 S,0,6990,,0.5 F,0,7605,,1 F,0,8990,,0
Sprite,Foreground,Centre,"sb\f\0074.png",277,415.25 F,0,6989,,0 S,0,6990,,0.5 F,0,7646,,1 F,0,8990,,0
Sprite,Foreground,Centre,"sb\f\0066.png",292.5,415.25 F,0,6989,,0 S,0,6990,,0.5 F,0,7687,,1 F,0,8990,,0
Sprite,Foreground,Centre,"sb\f\0061.png",308,417.25 F,0,6989,,0 S,0,6990,,0.5 F,0,7728,,1 F,0,8990,,0
Sprite,Foreground,Centre,"sb\f\006e.png",323.5,417.25 F,0,6989,,0 S,0,6990,,0.5 F,0,7769,,1 F,0,8990,,0
Sprite,Foreground,Centre,"sb\f\006b.png",349,414.25 F,0,6989,,0 S,0,6990,,0.5 F,0,7851,,1 F,0,8990,,0
Sprite,Foreground,Centre,"sb\f\006f.png",364.5,417.25 F,0,6989,,0 S,0,6990,,0.5 F,0,7892,,1 F,0,8990,,0
Sprite,Foreground,Centre,"sb\f\006c.png",376.25,414.25 F,0,6989,,0 S,0,6990,,0.5 F,0,7933,,1 F,0,8990,,0
Sprite,Foreground,Centre,"sb\f\0065.png",388,417.25 F,0,6989,,0 S,0,6990,,0.5 F,0,7974,,1 F,0,8990,,0
Sprite,Foreground,Centre,"sb\f\006b.png",403.5,414.25 F,0,6989,,0 S,0,6990,,0.5 F,0,8015,,1 F,0,8990,,0
Sprite,Foreground,Centre,"sb\f\002f.png",429,415.25 F,0,6989,,0 S,0,6990,,0.5 F,0,8097,,1 F,0,8990,,0
Sprite,Foreground,Centre,"sb\f\006b.png",452.5,414.25 F,0,6989,,0 S,0,6990,,0.5 F,0,8179,,1 F,0,8990,,0
Sprite,Foreground,Centre,"sb\f\0079.png",469,421 F,0,6989,,0 S,0,6990,,0.5 F,0,8220,,1 F,0,8990,,0
Sprite,Foreground,Centre,"sb\f\0073.png",484.5,417.25 F,0,6989,,0 S,0,6990,,0.5 F,0,8261,,1 F,0,8990,,0
Sprite,Foreground,Centre,"sb\f\0068.png",499,414.25 F,0,6989,,0 S,0,6990,,0.5 F,0,8302,,1 F,0,8990,,0
Sprite,Foreground,Centre,"sb\f\0069.png",510.75,414.25 F,0,6989,,0 S,0,6990,,0.5 F,0,8343,,1 F,0,8990,,0
Sprite,Foreground,Centre,"sb\f\0072.png",522.5,417.25 F,0,6989,,0 S,0,6990,,0.5 F,0,8384,,1 F,0,8990,,0
Sprite,Foreground,Centre,"sb\f\006f.png",538,417.25 F,0,6989,,0 S,0,6990,,0.5 F,0,8425,,1 F,0,8990,,0
Sprite,Foreground,Centre,"sb\f\0073.png",245,386.25 F,0,9239,,0 F,0,9240,,1 S,0,9240,,0.5 F,0,10490,,0
Sprite,Foreground,Centre,"sb\f\0074.png",259.5,384.25 F,0,9239,,0 S,0,9240,,0.5 F,0,9299,,1 F,0,10490,,0
Sprite,Foreground,Centre,"sb\f\006f.png",275,386.25 F,0,9239,,0 S,0,9240,,0.5 F,0,9358,,1 F,0,10490,,0
Sprite,Foreground,Centre,"sb\f\0072.png",290.5,386.25 F,0,9239,,0 S,0,9240,,0.5 F,0,9417,,1 F,0,10490,,0
Sprite,Foreground,Centre,"sb\f\0079.png",307,390 F,0,9239,,0 S,0,9240,,0.5 F,0,9476,,1 F,0,10490,,0
Sprite,Foreground,Centre,"sb\f\0062.png",323.5,383.25 F,0,9239,,0 S,0,9240,,0.5 F,0,9535,,1 F,0,10490,,0
Sprite,Foreground,Centre,"sb\f\006f.png",339,386.25 F,0,9239,,0 S,0,9240,,0.5 F,0,9594,,1 F,0,10490,,0
Sprite,Foreground,Centre,"sb\f\0061.png",354.5,386.25 F,0,9239,,0 S,0,9240,,0.5 F,0,9653,,1 F,0,10490,,0
Sprite,Foreground,Centre,"sb\f\0072.png",370,386.25 F,0,9239,,0 S,0,9240,,0.5 F,0,9712,,1 F,0,10490,,0
Sprite,Foreground,Centre,"sb\f\0064.png",386.5,383.25 F,0,9239,,0 S,0,9240,,0.5 F,0,9771,,1 F,0,10490,,0
Sprite,Foreground,Centre,"sb\f\0062.png",413,383.25 F,0,9239,,0 S,0,9240,,0.5 F,0,9889,,1 F,0,10490,,0
Sprite,Foreground,Centre,"sb\f\0079.png",429.5,390 F,0,9239,,0 S,0,9240,,0.5 F,0,9948,,1 F,0,10490,,0
Sprite,Foreground,Centre,"sb\f\0062.png",246,414.25 F,0,9239,,0 S,0,9240,,0.5 F,0,10066,,1 F,0,10490,,0
Sprite,Foreground,Centre,"sb\f\0065.png",261.5,417.25 F,0,9239,,0 S,0,9240,,0.5 F,0,10125,,1 F,0,10490,,0
Sprite,Foreground,Centre,"sb\f\0072.png",277,417.25 F,0,9239,,0 S,0,9240,,0.5 F,0,10184,,1 F,0,10490,,0
Sprite,Foreground,Centre,"sb\f\0067.png",292.5,421 F,0,9239,,0 S,0,9240,,0.5 F,0,10243,,1 F,0,10490,,0
Sprite,Foreground,Centre,"sb\f\0079.png",309,421 F,0,9239,,0 S,0,9240,,0.5 F,0,10302,,1 F,0,10490,,0
Sprite,Foreground,Centre,"sb\f\006f.png",246,386.25 F,0,10739,,0 F,0,10740,,1 S,0,10740,,0.5 F,0,12553,,0
Sprite,Foreground,Centre,"sb\f\006e.png",261.5,386.25 F,0,10739,,0 S,0,10740,,0.5 F,0,10771,,1 F,0,12553,,0
Sprite,Foreground,Centre,"sb\f\0064.png",288,383.25 F,0,10739,,0 S,0,10740,,0.5 F,0,10833,,1 F,0,12553,,0
Sprite,Foreground,Centre,"sb\f\0061.png",304.5,386.25 F,0,10739,,0 S,0,10740,,0.5 F,0,10864,,1 F,0,12553,,0
Sprite,Foreground,Centre,"sb\f\0079.png",321,390 F,0,10739,,0 S,0,10740,,0.5 F,0,10895,,1 F,0,12553,,0
Sprite,Foreground,Centre,"sb\f\0073.png",336.5,386.25 F,0,10739,,0 S,0,10740,,0.5 F,0,10926,,1 F,0,12553,,0
Sprite,Foreground,Centre,"sb\f\006c.png",357.25,383.25 F,0,10739,,0 S,0,10740,,0.5 F,0,10988,,1 F,0,12553,,0
Sprite,Foreground,Centre,"sb\f\0069.png",365.25,383.25 F,0,10739,,0 S,0,10740,,0.5 F,0,11019,,1 F,0,12553,,0
Sprite,Foreground,Centre,"sb\f\006b.png",377,383.25 F,0,10739,,0 S,0,10740,,0.5 F,0,11050,,1 F,0,12553,,0
Sprite,Foreground,Centre,"sb\f\0065.png",392.5,386.25 F,0,10739,,0 S,0,10740,,0.5 F,0,11081,,1 F,0,12553,,0
Sprite,Foreground,Centre,"sb\f\0074.png",418,384.25 F,0,10739,,0 S,0,10740,,0.5 F,0,11143,,1 F,0,12553,,0
Sprite,Foreground,Centre,"sb\f\0068.png",433.5,383.25 F,0,10739,,0 S,0,10740,,0.5 F,0,11174,,1 F,0,12553,,0
Sprite,Foreground,Centre,"sb\f\0065.png",449,386.25 F,0,10739,,0 S,0,10740,,0.5 F,0,11205,,1 F,0,12553,,0
Sprite,Foreground,Centre,"sb\f\0073.png",463.5,386.25 F,0,10739,,0 S,0,10740,,0.5 F,0,11236,,1 F,0,12553,,0
Sprite,Foreground,Centre,"sb\f\0065.png",478,386.25 F,0,10739,,0 S,0,10740,,0.5 F,0,11267,,1 F,0,12553,,0
Sprite,Foreground,Centre,"sb\f\002c.png",489.75,394 F,0,10739,,0 S,0,10740,,0.5 F,0,11298,,1 F,0,12553,,0
Sprite,Foreground,Centre,"sb\f\006b.png",246,414.25 F,0,10739,,0 S,0,10740,,0.5 F,0,11360,,1 F,0,12553,,0
Sprite,Foreground,Centre,"sb\f\0069.png",257.75,414.25 F,0,10739,,0 S,0,10740,,0.5 F,0,11391,,1 F,0,12553,,0
Sprite,Foreground,Centre,"sb\f\0064.png",270.5,414.25 F,0,10739,,0 S,0,10740,,0.5 F,0,11422,,1 F,0,12553,,0
Sprite,Foreground,Centre,"sb\f\0073.png",286,417.25 F,0,10739,,0 S,0,10740,,0.5 F,0,11453,,1 F,0,12553,,0
Sprite,Foreground,Centre,"sb\f\006c.png",306.75,414.25 F,0,10739,,0 S,0,10740,,0.5 F,0,11515,,1 F,0,12553,,0
Sprite,Foreground,Centre,"sb\f\0069.png",314.75,414.25 F,0,10739,,0 S,0,10740,,0.5 F,0,11546,,1 F,0,12553,,0
Sprite,Foreground,Centre,"sb\f\006b.png",326.5,414.25 F,0,10739,,0 S,0,10740,,0.5 F,0,11577,,1 F,0,12553,,0
Sprite,Foreground,Centre,"sb\f\0065.png",342,417.25 F,0,10739,,0 S,0,10740,,0.5 F,0,11608,,1 F,0,12553,,0
Sprite,Foreground,Centre,"sb\f\0079.png",368.5,421 F,0,10739,,0 S,0,10740,,0.5 F,0,11670,,1 F,0,12553,,0
Sprite,Foreground,Centre,"sb\f\006f.png",385,417.25 F,0,10739,,0 S,0,10740,,0.5 F,0,11701,,1 F,0,12553,,0
Sprite,Foreground,Centre,"sb\f\0075.png",400.5,417.25 F,0,10739,,0 S,0,10740,,0.5 F,0,11732,,1 F,0,12553,,0
Sprite,Foreground,Centre,"sb\f\002e.png",412.25,422 F,0,10739,,0 S,0,10740,,0.5 F,0,11763,,1 F,0,12553,,0
Sprite,Foreground,Centre,"sb\f\002e.png",423.75,422 F,0,10739,,0 S,0,10740,,0.5 F,0,11794,,1 F,0,12553,,0
Sprite,Foreground,Centre,"sb\f\002e.png",435.25,422 F,0,10739,,0 S,0,10740,,0.5 F,0,11825,,1 F,0,12553,,0
Sprite,Foreground,Centre,"sb\f\0073.png",245,386.25 F,0,13364,,0 F,0,13365,,1 S,0,13365,,0.5 F,0,19365,,0
Sprite,Foreground,Centre,"sb\f\0068.png",259.5,383.25 F,0,13364,,0 S,0,13365,,0.5 F,0,13480,,1 F,0,19365,,0
Sprite,Foreground,Centre,"sb\f\006f.png",275,386.25 F,0,13364,,0 S,0,13365,,0.5 F,0,13595,,1 F,0,19365,,0
Sprite,Foreground,Centre,"sb\f\0075.png",290.5,386.25 F,0,13364,,0 S,0,13365,,0.5 F,0,13710,,1 F,0,19365,,0
Sprite,Foreground,Centre,"sb\f\006c.png",302.25,383.25 F,0,13364,,0 S,0,13365,,0.5 F,0,13825,,1 F,0,19365,,0
Sprite,Foreground,Centre,"sb\f\0064.png",315,383.25 F,0,13364,,0 S,0,13365,,0.5 F,0,13940,,1 F,0,19365,,0
Sprite,Foreground,Centre,"sb\f\0062.png",341.5,383.25 F,0,13364,,0 S,0,13365,,0.5 F,0,14170,,1 F,0,19365,,0
Sprite,Foreground,Centre,"sb\f\0065.png",357,386.25 F,0,13364,,0 S,0,13365,,0.5 F,0,14285,,1 F,0,19365,,0
Sprite,Foreground,Centre,"sb\f\0062.png",382.5,383.25 F,0,13364,,0 S,0,13365,,0.5 F,0,14515,,1 F,0,19365,,0
Sprite,Foreground,Centre,"sb\f\0075.png",398,386.25 F,0,13364,,0 S,0,13365,,0.5 F,0,14630,,1 F,0,19365,,0
Sprite,Foreground,Centre,"sb\f\0072.png",413.5,386.25 F,0,13364,,0 S,0,13365,,0.5 F,0,14745,,1 F,0,19365,,0
Sprite,Foreground,Centre,"sb\f\006e.png",429,386.25 F,0,13364,,0 S,0,13365,,0.5 F,0,14860,,1 F,0,19365,,0
Sprite,Foreground,Centre,"sb\f\0069.png",440.75,383.25 F,0,13364,,0 S,0,13365,,0.5 F,0,14975,,1 F,0,19365,,0
Sprite,Foreground,Centre,"sb\f\006e.png",452.5,386.25 F,0,13364,,0 S,0,13365,,0.5 F,0,15090,,1 F,0,19365,,0
Sprite,Foreground,Centre,"sb\f\0067.png",468,390 F,0,13364,,0 S,0,13365,,0.5 F,0,15205,,1 F,0,19365,,0
Sprite,Foreground,Centre,"sb\f\0069.png",242.25,414.25 F,0,13364,,0 S,0,13365,,0.5 F,0,15435,,1 F,0,19365,,0
Sprite,Foreground,Centre,"sb\f\006e.png",254,417.25 F,0,13364,,0 S,0,13365,,0.5 F,0,15550,,1 F,0,19365,,0
Sprite,Foreground,Centre,"sb\f\0068.png",279.5,414.25 F,0,13364,,0 S,0,13365,,0.5 F,0,15780,,1 F,0,19365,,0
Sprite,Foreground,Centre,"sb\f\0065.png",295,417.25 F,0,13364,,0 S,0,13365,,0.5 F,0,15895,,1 F,0,19365,,0
Sprite,Foreground,Centre,"sb\f\006c.png",306.75,414.25 F,0,13364,,0 S,0,13365,,0.5 F,0,16010,,1 F,0,19365,,0
Sprite,Foreground,Centre,"sb\f\006c.png",314.75,414.25 F,0,13364,,0 S,0,13365,,0.5 F,0,16125,,1 F,0,19365,,0
Sprite,Foreground,Centre,"sb\f\002e.png",322.75,422 F,0,13364,,0 S,0,13365,,0.5 F,0,16240,,1 F,0,19365,,0
Sprite,Foreground,Centre,"sb\pixel.png",320,240 F,0,179365,,0.5 C,0,179365,,0,0,0 V,0,179365,,854,480 F,0,179678,,0 F,0,181365,,0.5 F,0,181678,,0 F,0,183365,,0.5 F,0,183678,,0 F,0,185365,,0.5 F,0,185678,,0
Sprite,Foreground,Centre,"sb\bg\bw.jpg",320,240 F,0,179365,,0.5 F,0,179365,,0.5 S,0,179365,,0.4444444 C,0,179365,,255,0,0 F,0,179397,,0 F,0,179428,,0.5 F,0,179460,,0 F,0,179491,,0.5 F,0,179523,,0 F,0,179554,,0.5 F,0,179586,,0 F,0,179617,,0.5 F,0,179649,,0 F,0,181365,,0.5 F,0,181397,,0 F,0,181428,,0.5 F,0,181460,,0 F,0,181491,,0.5 F,0,181523,,0 F,0,181554,,0.5 F,0,181586,,0 F,0,181617,,0.5 F,0,181649,,0 F,0,183365,,0.5 F,0,183397,,0 F,0,183428,,0.5 F,0,183460,,0 F,0,183491,,0.5 F,0,183523,,0 F,0,183554,,0.5 F,0,183586,,0 F,0,183617,,0.5 F,0,183649,,0 F,0,185365,,0.5 F,0,185397,,0 F,0,185428,,0.5 F,0,185460,,0 F,0,185491,,0.5 F,0,185523,,0 F,0,185554,,0.5 F,0,185586,,0 F,0,185617,,0.5 F,0,185649,,0
Sprite,Foreground,Centre,"sb\pl.png",350,103 C,0,179266,,178,17,17 F,0,179266,179366,0,1 S,2,179366,179966,0.5,0 F,2,179866,179966,1,0
Sprite,Foreground,Centre,"sb\pl.png",333,80 C,0,179329,,178,17,17 F,0,179329,179429,0,1 S,2,179429,180029,0.5,0 F,2,179929,180029,1,0
Sprite,Foreground,Centre,"sb\pl.png",306,89 C,0,179391,,178,17,17 F,0,179391,179491,0,1 S,2,179491,180091,0.5,0 F,2,179991,180091,1,0
Sprite,Foreground,Centre,"sb\pl.png",306,117 C,0,179454,,178,17,17 F,0,179454,179554,0,1 S,2,179554,180154,0.5,0 F,2,180054,180154,1,0
Sprite,Foreground,Centre,"sb\pl.png",333,126 C,0,179516,,178,17,17 F,0,179516,179616,0,1 S,2,179616,180216,0.5,0 F,2,180116,180216,1,0
Sprite,Foreground,Centre,"sb\pl.png",328,260 C,0,181266,,178,17,17 F,0,181266,181366,0,1 S,2,181366,181966,0.5,0 F,2,181866,181966,1,0
Sprite,Foreground,Centre,"sb\pl.png",345,283 C,0,181329,,178,17,17 F,0,181329,181429,0,1 S,2,181429,182029,0.5,0 F,2,181929,182029,1,0
Sprite,Foreground,Centre,"sb\pl.png",372,274 C,0,181391,,178,17,17 F,0,181391,181491,0,1 S,2,181491,182091,0.5,0 F,2,181991,182091,1,0
Sprite,Foreground,Centre,"sb\pl.png",372,246 C,0,181454,,178,17,17 F,0,181454,181554,0,1 S,2,181554,182154,0.5,0 F,2,182054,182154,1,0
Sprite,Foreground,Centre,"sb\pl.png",345,237 C,0,181516,,178,17,17 F,0,181516,181616,0,1 S,2,181616,182216,0.5,0 F,2,182116,182216,1,0
Sprite,Foreground,Centre,"sb\pl.png",229,191 C,0,183266,,178,17,17 F,0,183266,183366,0,1 S,2,183366,183966,0.5,0 F,2,183866,183966,1,0
Sprite,Foreground,Centre,"sb\pl.png",182,176 C,0,183328,,178,17,17 F,0,183328,183428,0,1 S,2,183428,184028,0.5,0 F,2,183928,184028,1,0
Sprite,Foreground,Centre,"sb\pl.png",182,127 C,0,183391,,178,17,17 F,0,183391,183491,0,1 S,2,183491,184091,0.5,0 F,2,183991,184091,1,0
Sprite,Foreground,Centre,"sb\pl.png",229,112 C,0,183453,,178,17,17 F,0,183453,183553,0,1 S,2,183553,184153,0.5,0 F,2,184053,184153,1,0
Sprite,Foreground,Centre,"sb\pl.png",257,151 C,0,183516,,178,17,17 F,0,183516,183616,0,1 S,2,183616,184216,0.5,0 F,2,184116,184216,1,0
Sprite,Foreground,Centre,"sb\pl.png",428,202 C,0,185266,,178,17,17 F,0,185266,185366,0,1 S,2,185366,185966,0.5,0 F,2,185866,185966,1,0
Sprite,Foreground,Centre,"sb\pl.png",475,217 C,0,185328,,178,17,17 F,0,185328,185428,0,1 S,2,185428,186028,0.5,0 F,2,185928,186028,1,0
Sprite,Foreground,Centre,"sb\pl.png",475,266 C,0,185391,,178,17,17 F,0,185391,185491,0,1 S,2,185491,186091,0.5,0 F,2,185991,186091,1,0
Sprite,Foreground,Centre,"sb\pl.png",428,281 C,0,185453,,178,17,17 F,0,185453,185553,0,1 S,2,185553,186153,0.5,0 F,2,186053,186153,1,0
Sprite,Foreground,Centre,"sb\pl.png",400,242 C,0,185516,,178,17,17 F,0,185516,185616,0,1 S,2,185616,186216,0.5,0 F,2,186116,186216,1,0
//Storyboard Sound Samples

[TimingPoints]
366,250,4,2,1,50,1,0
12553,-666.666666666667,4,3,98,70,0,0
13366,-666.666666666667,4,3,98,10,0,0
13866,-666.666666666667,4,3,98,15,0,0
14366,-666.666666666667,4,3,98,20,0,0
14866,-666.666666666667,4,3,98,25,0,0
15366,-666.666666666667,4,3,98,30,0,0
15866,-666.666666666667,4,3,98,35,0,0
16366,-666.666666666667,4,3,98,40,0,0
16866,-666.666666666667,4,3,98,45,0,0
17366,-666.666666666667,4,3,98,50,0,0
17866,-666.666666666667,4,3,98,55,0,0
18366,-666.666666666667,4,3,98,60,0,0
18866,-666.666666666667,4,3,98,65,0,0
19241,-100,4,2,1,5,0,0
19366,-133.333333333333,4,2,97,50,0,0
20366,-133.333333333333,4,2,97,5,0,0
20491,-133.333333333333,4,2,97,50,0,0
20616,-133.333333333333,4,2,97,5,0,0
20741,-133.333333333333,4,2,97,50,0,0
22366,-133.333333333333,4,2,97,5,0,0
22491,-133.333333333333,4,2,97,50,0,0
22616,-133.333333333333,4,2,97,5,0,0
22741,-133.333333333333,4,2,97,50,0,0
22866,-133.333333333333,4,2,97,5,0,0
22991,-133.333333333333,4,2,97,50,0,0
24366,-133.333333333333,4,2,97,5,0,0
24491,-133.333333333333,4,2,97,50,0,0
24616,-133.333333333333,4,2,97,5,0,0
24741,-133.333333333333,4,2,97,50,0,0
26366,-133.333333333333,4,2,97,5,0,0
26491,-133.333333333333,4,2,97,50,0,0
26616,-133.333333333333,4,2,97,5,0,0
26741,-133.333333333333,4,2,97,50,0,0
27366,-133.333333333333,4,2,98,65,0,0
35366,-90.9090909090909,4,2,1,85,0,1
42366,-90.9090909090909,4,2,98,85,0,1
43366,-90.9090909090909,4,2,1,85,0,1
50366,-90.9090909090909,4,2,98,85,0,1
51366,-117.647058823529,4,2,1,85,0,0
57366,-100,4,2,1,85,0,0
58366,-83.3333333333333,4,2,98,85,0,0
59366,-100,4,2,1,85,0,0
65366,-90.9090909090909,4,2,1,85,0,0
66366,-80,4,2,98,85,0,0
67366,-90.9090909090909,4,2,98,85,0,0
70366,-90.9090909090909,4,2,1,85,0,0
74366,-80,4,2,98,85,0,0
75366,-90.9090909090909,4,2,98,85,0,0
80366,-90.9090909090909,4,2,1,85,0,0
81366,-90.9090909090909,4,2,1,85,0,0
82366,-80,4,2,98,85,0,0
83366,-90.9090909090909,4,2,98,85,0,0
86366,-90.9090909090909,4,2,1,85,0,0
89366,-90.9090909090909,4,2,1,85,0,0
90366,-80,4,2,98,85,0,0
91366,-90.9090909090909,4,2,98,85,0,0
96366,-90.9090909090909,4,2,1,85,0,0
97366,-90.9090909090909,4,2,98,85,0,0
98366,-80,4,2,98,85,0,0
99366,-117.647058823529,4,2,98,70,0,0
127616,-117.647058823529,4,2,1,70,0,0
130116,-117.647058823529,4,2,98,70,0,0
130303,-117.647058823529,4,2,98,70,0,0
130366,-117.647058823529,4,2,98,70,0,0
130553,-117.647058823529,4,2,98,70,0,0
130616,-117.647058823529,4,2,98,70,0,0
130803,-117.647058823529,4,2,98,70,0,0
130866,-117.647058823529,4,2,98,70,0,0
131366,-100,4,2,1,85,0,0
138366,-100,4,2,98,85,0,0
139366,-100,4,2,1,85,0,1
139866,-100,4,2,99,85,0,1
141366,-100,4,2,1,85,0,0
146366,-100,4,2,98,85,0,0
147366,-100,4,2,99,85,0,1
154366,-90.9090909090909,4,2,98,85,0,1
155366,-100,4,2,1,85,0,0
158366,-100,4,2,98,85,0,0
159366,-95.2380952380952,4,2,1,85,0,0
161366,-95.2380952380952,4,2,98,85,0,0
162741,-80,4,2,98,85,0,0
163366,-153.846153846153,4,2,1,70,0,0
167366,-153.846153846153,4,2,1,70,0,0
168241,-95.2380952380949,4,2,1,70,0,0
169366,-86.9565217391304,4,2,1,70,0,0
171366,-83.3333333333333,4,2,1,85,0,1
178366,-83.3333333333333,4,2,98,85,0,1
179366,-83.3333333333333,4,2,98,85,0,1
179616,-83.3333333333333,4,2,1,85,0,1
181366,-83.3333333333333,4,2,98,85,0,1
181616,-83.3333333333333,4,2,1,85,0,1
183241,-83.3333333333333,4,2,98,85,0,1
183616,-83.3333333333333,4,2,1,85,0,1
185241,-83.3333333333333,4,2,98,85,0,1
185616,-83.3333333333333,4,2,1,85,0,1
186366,-83.3333333333333,4,2,98,85,0,1
187241,-1000,4,2,1,85,0,0
187803,-1000,4,2,1,5,0,0

[Colours]
Combo1 : 151,0,0
Combo2 : 243,109,46
Combo3 : 184,52,14
Combo4 : 215,215,215
Combo5 : 126,126,126
Combo6 : 255,201,174
Combo7 : 255,156,108
Combo8 : 230,0,0
SliderBorder : 255,204,153

[HitObjects]
101,117,12553,118,0,L|105:153,1,30.299997644806,0|0,0:0|0:0,0:0:0:0:
256,192,13616,12,0,19241,0:0:0:0:
107,81,19366,38,0,L|99:177,1,75.7499993133545,2|0,0:2|0:0,0:0:0:0:
44,239,19616,1,2,0:2:0:0:
51,267,19866,1,2,0:2:0:0:
51,267,20241,6,0,P|109:255|138:257,1,75.7499993133545,2|0,0:2|0:0,0:0:0:0:
226,151,20491,2,0,P|284:163|313:161,1,75.7499993133545,2|0,0:2|0:0,0:0:0:0:
502,246,20741,2,0,B|465:231|428:227|428:227|391:245|361:286,1,151.499998626709,2|0,0:2|0:0,0:0:0:0:
450,332,21116,1,2,0:2:0:0:
401,134,21241,1,0,0:0:0:0:
262,263,21366,102,0,L|259:343,1,75.7499993133545,2|0,0:2|0:0,0:0:0:0:
171,184,21616,1,2,0:2:0:0:
167,163,21866,1,2,0:2:0:0:
167,163,22241,6,0,L|158:266,1,75.7499993133545,2|0,0:2|0:0,0:0:0:0:
47,121,22491,2,0,L|40:45,1,75.7499993133545,2|0,0:2|0:0,0:0:0:0:
54,242,22741,2,0,B|63:357|63:357|82:321,1,151.499998626709,2|0,0:2|0:0,0:0:0:0:
195,80,23116,1,2,0:2:0:0:
258,289,23241,1,0,0:0:0:0:
136,182,23366,102,0,L|212:191,1,75.7499993133545,2|0,0:2|0:0,0:0:0:0:
440,217,23616,1,2,0:2:0:0:
418,224,23866,1,2,0:2:0:0:
418,224,24241,6,0,P|459:248|498:257,1,75.7499993133545,2|0,0:2|0:0,0:0:0:0:
294,193,24491,2,0,P|301:239|320:275,1,75.7499993133545,2|0,0:2|0:0,0:0:0:0:
223,53,24741,2,0,P|188:107|173:201,1,151.499998626709,2|0,0:2|0:0,0:0:0:0:
225,308,25116,1,2,0:2:0:0:
70,81,25241,1,0,0:0:0:0:
65,260,25366,102,0,L|78:352,1,75.7499993133545,2|0,0:2|0:0,0:0:0:0:
172,191,25616,1,2,0:2:0:0:
176,170,25866,1,2,0:2:0:0:
176,170,26241,6,0,P|181:115|177:83,1,75.7499993133545,2|0,0:2|0:0,0:0:0:0:
41,228,26491,2,0,P|36:283|40:315,1,75.7499993133545,2|0,0:2|0:0,0:0:0:0:
305,305,26741,2,0,B|236:271|236:271|154:293,1,151.499998626709,2|0,0:2|0:0,0:0:0:0:
228,378,27116,1,2,0:2:0:0:
416,277,27241,1,2,0:2:0:0:
200,194,27366,102,0,L|281:185,1,75.7499993133545,6|0,0:2|0:0,0:0:0:0:
424,72,27616,2,0,L|343:63,1,75.7499993133545,2|0,0:2|0:0,0:0:0:0:
235,9,27866,2,0,P|221:53|225:90,1,75.7499993133545,2|0,0:2|0:0,0:0:0:0:
393,181,28116,1,0,0:0:0:0:
267,265,28241,6,0,P|208:237|108:251,1,151.499998626709,2|2,0:2|0:2,0:0:0:0:
50,322,28616,1,0,0:0:0:0:
239,377,28741,2,0,P|216:340|187:314,1,75.7499993133545,2|0,0:2|0:0,0:0:0:0:
24,228,28991,1,0,0:0:0:0:
331,349,29116,2,0,P|383:361|416:362,1,75.7499993133545,2|0,0:2|0:0,0:0:0:0:
480,123,29366,101,6,0:2:0:0:
360,230,29491,1,0,0:0:0:0:
490,312,29616,2,0,L|482:230,1,75.7499993133545,2|0,0:2|0:0,0:0:0:0:
359,39,29866,2,0,L|351:114,1,75.7499993133545,2|0,0:2|0:0,0:0:0:0:
139,172,30116,1,0,0:0:0:0:
89,73,30241,6,0,P|138:61|233:109,1,151.499998626709,2|2,0:2|0:2,0:0:0:0:
253,223,30616,1,0,0:0:0:0:
70,201,30741,2,0,P|114:176|152:171,1,75.7499993133545,2|0,0:2|0:0,0:0:0:0:
360,183,30991,1,0,0:0:0:0:
258,323,31116,2,0,L|243:241,1,75.7499993133545,2|0,0:2|0:0,0:0:0:0:
480,134,31366,102,0,L|495:52,1,75.7499993133545,6|0,0:2|0:0,0:0:0:0:
284,60,31616,2,0,P|321:76|361:84,1,75.7499993133545,2|0,0:2|0:0,0:0:0:0:
203,151,31866,2,0,P|138:153|55:207,1,151.499998626709,2|0,0:2|0:0,0:0:0:0:
309,246,32241,6,0,L|399:253,1,75.7499993133545,2|0,0:2|0:0,0:0:0:0:
194,331,32491,2,0,L|104:338,1,75.7499993133545,2|0,0:2|0:0,0:0:0:0:
161,81,32741,2,0,B|197:122|197:122|189:223,1,151.499998626709,2|0,0:2|0:0,0:0:0:0:
84,161,33116,1,2,0:2:0:0:
251,31,33241,1,0,0:0:0:0:
361,165,33366,101,6,0:2:0:0:
278,153,33491,1,0,0:0:0:0:
195,141,33616,1,2,0:2:0:0:
462,100,33866,1,2,0:2:0:0:
55,191,34241,6,0,L|44:102,1,75.7499993133545,2|0,0:2|0:0,0:0:0:0:
140,86,34491,2,0,L|129:-3,1,75.7499993133545,2|0,0:2|0:0,0:0:0:0:
261,192,34741,2,0,P|284:128|267:27,1,151.499998626709,2|0,0:2|3:0,0:0:0:0:
149,205,35116,2,0,L|160:292,1,75.7499993133545,10|0,1:2|0:0,0:0:0:0:
467,132,35366,70,0,B|421:100|421:100|361:107,1,111.099998145294,6|2,3:2|3:2,0:0:0:0:
323,304,35616,2,0,B|369:336|369:336|429:329,1,111.099998145294,10|0,1:2|0:0,0:0:0:0:
260,179,35866,2,0,B|145:151|168:254|53:226,1,222.199996290588,2|8,3:2|1:2,0:0:0:0:
80,124,36241,5,2,0:2:0:0:
227,263,36366,1,0,3:0:0:0:
85,350,36491,2,0,L|99:235,1,111.099998145294,2|8,3:2|1:2,0:0:0:0:
346,235,36741,2,0,L|239:280,1,111.099998145294,2|0,3:2|0:0,0:0:0:0:
0,162,36991,1,2,3:2:0:0:
121,53,37116,2,0,L|213:122,1,111.099998145294,10|2,1:2|0:2,0:0:0:0:
357,332,37366,101,6,3:2:0:0:
313,115,37491,1,0,3:2:0:0:
506,232,37616,2,0,P|441:227|397:202,1,111.099998145294,10|0,1:2|0:0,0:0:0:0:
161,207,37866,2,0,P|226:212|270:237,1,111.099998145294,2|0,3:2|0:0,0:0:0:0:
190,334,38116,1,8,1:2:0:0:
43,277,38241,6,0,B|19:197|19:197|36:148|36:148|3:59,1,222.199996290588,2|2,3:2|3:2,0:0:0:0:
206,30,38616,1,8,1:2:0:0:
231,133,38741,2,0,P|170:133|127:105,1,111.099998145294,2|0,3:2|0:0,0:0:0:0:
350,69,38991,1,2,3:2:0:0:
273,236,39116,2,0,P|320:208|375:210,1,111.099998145294,10|0,1:2|0:2,0:0:0:0:
439,322,39366,101,6,3:2:0:0:
181,235,39491,1,0,3:0:0:0:
193,361,39616,2,0,L|312:339,1,111.099998145294,10|0,1:2|0:0,0:0:0:0:
243,135,39866,2,0,B|176:109|176:109|34:176,1,222.199996290588,2|8,3:2|1:2,0:0:0:0:
357,210,40241,6,0,B|385:160|385:160|371:104,1,111.099998145294,2|0,3:2|0:0,0:0:0:0:
227,303,40491,2,0,B|256:352|256:352|311:368,1,111.099998145294,2|8,3:2|1:2,0:0:0:0:
216,151,40741,2,0,B|158:151|158:151|117:191,1,111.099998145294,2|0,3:2|0:0,0:0:0:0:
396,304,40991,1,2,3:2:0:0:
284,82,41116,1,10,1:2:0:0:
273,228,41241,1,2,3:2:0:0:
451,147,41366,102,0,L|466:33,1,111.099998145294,6|0,3:2|3:0,0:0:0:0:
260,237,41616,2,0,L|274:347,1,111.099998145294,10|0,1:2|0:0,0:0:0:0:
96,89,41866,2,0,B|159:96|185:147|185:147|230:110|296:126,1,222.199996290588,2|8,3:2|1:2,0:0:0:0:
82,196,42241,1,2,3:2:0:0:
247,27,42366,5,4,1:2:0:0:
359,205,42491,1,2,3:2:0:0:
393,87,42616,1,8,1:2:0:0:
325,320,42741,1,6,1:2:0:0:
176,145,42866,1,0,0:0:0:0:
199,263,42991,1,2,1:2:0:0:
56,50,43116,1,14,1:2:0:0:
22,152,43241,1,2,0:2:0:0:
298,65,43366,102,0,B|249:36|249:36|195:41,1,111.099998145294,6|0,3:2|3:0,0:0:0:0:
387,253,43616,2,0,B|441:258|441:258|490:229,1,111.099998145294,10|0,1:2|0:0,0:0:0:0:
245,196,43866,2,0,P|232:261|247:307,1,111.099998145294,2|0,3:2|0:0,0:0:0:0:
411,123,44116,1,8,1:2:0:0:
160,121,44241,6,0,L|41:103,1,111.099998145294,2|0,3:2|0:0,0:0:0:0:
75,345,44491,2,0,L|93:226,1,111.099998145294,2|8,3:2|1:2,0:0:0:0:
318,29,44741,2,0,B|346:144|243:121|271:236,1,222.199996290588,2|2,3:2|3:2,0:0:0:0:
389,210,45116,1,10,1:2:0:0:
205,55,45241,1,2,1:2:0:0:
445,72,45366,102,0,P|381:99|338:99,1,111.099998145294,6|0,3:2|3:0,0:0:0:0:
52,141,45616,2,0,P|107:144|156:168,1,111.099998145294,10|0,1:2|0:0,0:0:0:0:
276,329,45866,2,0,L|289:206,1,111.099998145294,2|0,3:2|0:0,0:0:0:0:
423,299,46116,1,8,1:2:0:0:
164,349,46241,6,0,L|49:327,1,111.099998145294,2|0,3:2|0:0,0:0:0:0:
305,215,46491,2,0,L|420:193,1,111.099998145294,2|8,3:2|1:2,0:0:0:0:
203,70,46741,2,0,P|102:64|29:169,1,222.199996290588,2|2,3:2|3:2,0:0:0:0:
146,175,47116,1,10,1:2:0:0:
297,22,47241,1,2,0:2:0:0:
9,42,47366,102,0,L|32:159,1,111.099998145294,6|0,3:2|3:0,0:0:0:0:
245,252,47616,2,0,L|266:142,1,111.099998145294,10|0,1:2|3:0,0:0:0:0:
482,256,47866,2,0,L|505:373,1,111.099998145294,2|0,3:2|3:0,0:0:0:0:
410,129,48116,1,8,1:2:0:0:
281,349,48241,5,2,3:2:0:0:
170,192,48366,1,0,0:0:0:0:
392,218,48491,2,0,P|333:234|280:228,1,111.099998145294,2|8,3:2|1:2,0:0:0:0:
62,316,48741,2,0,P|115:300|170:304,1,111.099998145294,2|0,3:2|0:0,0:0:0:0:
292,366,48991,1,2,3:2:0:0:
170,192,49116,2,0,P|141:119|141:74,1,111.099998145294,10|2,1:2|3:2,0:0:0:0:
344,26,49366,102,0,L|332:152,1,111.099998145294,6|0,3:2|3:0,0:0:0:0:
471,320,49616,2,0,L|460:209,1,111.099998145294,10|0,1:2|3:0,0:0:0:0:
133,269,49866,2,0,B|199:318|199:318|341:272,1,222.199996290588,2|8,3:2|1:2,0:0:0:0:
220,192,50241,1,2,3:2:0:0:
75,364,50366,5,4,1:2:0:0:
65,151,50491,1,2,3:2:0:0:
241,194,50616,1,8,3:0:0:0:
11,258,50741,1,6,1:2:0:0:
158,97,50866,1,0,3:0:0:0:
138,249,50991,1,2,1:2:0:0:
54,37,51116,1,14,1:2:0:0:
333,110,51241,1,2,1:2:0:0:
132,263,51366,38,0,B|110:173|190:191|168:102,1,171.699995168686,6|10,3:2|1:2,0:0:0:0:
0,96,51741,2,0,P|45:123|83:127,1,85.849997584343,2|0,0:2|3:0,0:0:0:0:
300,206,51991,2,0,P|258:213|222:237,1,85.849997584343,2|8,3:2|1:2,0:0:0:0:
314,336,52241,6,0,L|493:314,1,171.699995168686,2|2,3:2|3:2,0:0:0:0:
426,192,52616,1,8,1:2:0:0:
192,345,52741,2,0,P|116:326|43:248,1,171.699995168686,2|0,3:2|3:0,0:0:0:0:
204,40,53116,1,8,1:2:0:0:
197,223,53241,1,0,0:0:0:0:
64,115,53366,102,0,L|161:130,1,85.849997584343,6|0,3:2|0:0,0:0:0:0:
388,156,53616,1,10,1:2:0:0:
326,20,53741,2,0,P|287:68|278:91,1,85.849997584343,2|2,0:2|3:2,0:0:0:0:
363,315,53991,2,0,P|344:276|315:245,1,85.849997584343,0|8,0:0|1:2,0:0:0:0:
95,259,54241,2,0,L|199:242,1,85.849997584343,2|0,3:2|0:0,0:0:0:0:
78,79,54491,6,0,L|40:68,2,28.6166658614477,2|0|0,3:2|0:0|0:0,0:0:0:0:
107,58,54616,2,0,P|148:122|151:154,1,85.849997584343,10|2,1:2|3:2,0:0:0:0:
253,331,54866,2,0,P|267:290|295:258,1,85.849997584343,2|2,0:2|3:2,0:0:0:0:
454,158,55116,1,8,1:2:0:0:
454,304,55241,1,0,0:3:0:0:
325,126,55366,102,0,L|317:26,1,85.849997584343,6|0,3:2|3:0,0:0:0:0:
454,44,55616,1,10,1:2:0:0:
196,104,55741,2,0,L|189:189,1,85.849997584343,2|0,0:2|3:0,0:0:0:0:
56,121,55991,2,0,L|48:21,1,85.849997584343,2|8,3:2|1:2,0:0:0:0:
286,215,56241,6,0,P|340:235|381:238,1,85.849997584343,2|0,0:2|3:0,0:0:0:0:
81,224,56491,2,0,P|38:230|0:247,1,85.849997584343,2|8,3:2|1:2,0:0:0:0:
184,355,56741,2,0,L|188:244,1,85.849997584343,2|0,3:2|0:0,0:0:0:0:
109,86,56991,2,0,B|156:86|188:116|188:116|226:85|272:93,1,171.699995168686,2|0,3:2|0:3,0:0:0:0:
475,282,57366,102,0,B|437:316|437:316|386:312,1,100.999995231629,6|0,3:2|0:0,0:0:0:0:
336,165,57616,2,0,B|374:131|374:131|425:135,1,100.999995231629,10|0,1:2|0:0,0:0:0:0:
272,266,57866,1,2,3:2:0:0:
219,125,57991,1,2,3:2:0:0:
406,222,58116,1,10,1:2:0:0:
138,341,58241,1,2,3:2:0:0:
144,49,58366,6,0,P|279:39|323:123,1,242.399981158448,4|8,1:2|1:2,0:0:0:0:
138,341,58741,2,0,B|125:213|232:253|219:125,1,242.399981158448,4|0,1:2|1:2,0:0:0:0:
5,106,59116,2,0,P|64:141|130:141,1,121.199990579224,12|0,1:2|0:0,0:0:0:0:
327,260,59366,38,0,P|287:266|232:299,1,100.999995231629,6|0,3:2|0:0,0:0:0:0:
443,200,59616,2,0,P|457:162|456:98,1,100.999995231629,10|2,1:2|3:2,0:0:0:0:
339,144,59866,1,0,3:0:0:0:
430,315,59991,2,0,P|455:346|511:377,1,100.999995231629,2|8,3:2|1:2,0:0:0:0:
331,133,60241,6,0,B|271:84|271:84|127:112,1,201.999990463257,2|2,3:2|3:2,0:0:0:0:
238,198,60616,1,8,1:2:0:0:
64,180,60741,2,0,P|35:124|40:73,1,100.999995231629,2|0,3:2|0:0,0:0:0:0:
146,248,60991,1,0,3:0:0:0:
248,229,61116,2,0,P|245:278|219:321,1,100.999995231629,8|0,1:2|0:0,0:0:0:0:
367,53,61366,102,0,L|482:45,1,100.999995231629,6|0,3:2|3:0,0:0:0:0:
254,59,61616,1,10,1:2:0:0:
421,153,61741,2,0,L|306:145,1,100.999995231629,2|0,3:2|3:2,0:0:0:0:
230,253,61991,2,0,L|345:245,1,100.999995231629,2|8,3:2|1:0,0:0:0:0:
94,187,62241,6,0,P|59:137|57:87,1,100.999995231629,2|0,3:2|0:0,0:0:0:0:
230,253,62491,2,0,P|204:308|161:335,1,100.999995231629,2|8,3:2|1:0,0:0:0:0:
213,118,62741,2,0,P|273:112|318:135,1,100.999995231629,2|0,3:2|0:0,0:0:0:0:
146,32,62991,1,2,3:2:0:0:
411,81,63116,2,0,L|406:189,1,100.999995231629,10|0,1:2|3:0,0:0:0:0:
68,318,63366,102,0,P|26:268|15:223,1,100.999995231629,6|0,3:2|3:0,0:0:0:0:
151,216,63616,2,0,P|139:151|152:107,1,100.999995231629,10|0,1:2|0:0,0:0:0:0:
277,161,63866,2,0,P|299:99|332:67,1,100.999995231629,2|0,3:2|3:0,0:0:0:0:
406,181,64116,2,0,P|456:139|501:128,1,100.999995231629,10|0,1:2|0:0,0:0:0:0:
485,285,64366,6,0,P|479:350|455:389,1,100.999995231629,2|0,3:2|3:0,0:0:0:0:
354,298,64616,2,0,P|316:351|275:373,1,100.999995231629,10|0,1:2|3:0,0:0:0:0:
226,248,64866,2,0,P|166:275|120:274,1,100.999995231629,2|0,3:2|3:0,0:0:0:0:
149,142,65116,2,0,P|83:136|44:112,1,100.999995231629,10|0,1:2|3:0,0:0:0:0:
327,55,65366,101,6,1:2:0:0:
343,57,65428,1,0,1:0:0:0:
359,60,65491,1,0,1:0:0:0:
375,63,65553,1,0,1:0:0:0:
391,66,65616,1,10,1:2:0:0:
324,217,65741,1,2,3:2:0:0:
203,121,65866,1,2,0:2:0:0:
431,180,65991,1,2,0:2:0:0:
332,312,66116,1,10,1:2:0:0:
316,129,66241,1,2,3:2:0:0:
466,293,66366,6,0,B|431:287|405:273|405:273|333:311|333:311|297:290|227:296,1,252.499988079071,4|8,1:2|1:0,0:0:0:0:
20,171,66741,2,0,B|53:175|80:190|80:190|152:152|152:152|189:173|258:167,1,252.499988079071,4|0,1:2|3:0,0:0:0:0:
77,84,67116,1,12,1:2:0:0:
155,287,67241,1,0,1:2:0:0:
365,235,67366,38,0,P|380:193|369:122,1,111.099998145294,4|0,3:2|0:0,0:0:0:0:
141,278,67616,2,0,P|126:320|137:391,1,111.099998145294,8|0,1:0|3:0,0:0:0:0:
276,311,67866,1,0,3:0:0:0:
56,213,67991,1,0,0:0:0:0:
195,193,68116,2,0,L|186:77,1,111.099998145294,8|0,1:0|3:0,0:0:0:0:
56,213,68366,21,2,3:2:0:0:
348,72,68491,1,0,3:0:0:0:
57,90,68616,1,10,1:2:0:0:
327,188,68741,1,0,3:0:0:0:
39,212,68866,2,0,L|29:324,1,111.099998145294,2|0,3:2|3:0,0:0:0:0:
333,175,69116,2,0,L|343:51,1,111.099998145294,10|0,1:2|3:0,0:0:0:0:
172,150,69366,5,6,3:2:0:0:
175,172,69428,1,2,0:2:0:0:
178,194,69491,1,2,3:2:0:0:
181,216,69553,1,2,0:0:0:0:
184,238,69616,2,0,P|236:271|293:274,1,111.099998145294,10|0,1:2|3:0,0:0:0:0:
474,129,69866,2,0,B|412:134|370:99|370:99|353:154|295:176,1,222.199996290588,2|8,3:2|1:0,0:0:0:0:
75,28,70241,2,0,B|133:50|150:105|150:105|192:70|254:75,1,222.199996290588,0|0,3:0|3:0,0:0:0:0:
34,144,70616,102,0,L|49:259,1,111.099998145294,8|0,1:0|3:3,0:0:0:0:
162,354,70866,1,0,3:0:0:0:
366,247,70991,2,0,B|282:228|282:228|234:254|234:254|145:229,1,222.199996290588,2|2,3:2|3:2,0:0:0:0:
320,354,71366,22,0,L|448:340,1,111.099998145294,6|0,3:2|3:0,0:0:0:0:
470,83,71616,1,10,1:2:0:0:
271,176,71741,1,2,3:2:0:0:
411,185,71866,1,2,3:2:0:0:
228,32,71991,1,2,3:2:0:0:
155,231,72116,1,10,1:2:0:0:
355,88,72241,1,2,3:2:0:0:
63,148,72366,6,0,P|30:205|25:250,1,111.099998145294,2|0,3:2|3:0,0:0:0:0:
231,52,72616,2,0,P|166:63|128:88,1,111.099998145294,10|0,1:2|3:0,0:0:0:0:
417,134,72866,2,0,P|366:91|323:78,1,111.099998145294,2|0,3:2|3:0,0:0:0:0:
468,321,73116,2,0,P|468:255|449:213,1,111.099998145294,10|0,1:2|3:0,0:0:0:0:
182,231,73366,102,0,B|223:273|228:331|228:331|261:279|319:257,1,222.199996290588,6|10,3:2|1:2,0:0:0:0:
270,140,73741,1,0,3:0:0:0:
116,328,73866,2,0,P|59:314|18:281,1,111.099998145294,2|6,3:2|3:2,0:0:0:0:
286,128,74116,2,0,P|343:142|384:175,1,111.099998145294,10|6,1:2|3:2,0:0:0:0:
41,166,74366,6,0,P|23:81|147:100,1,252.499988079071,4|8,1:2|1:2,0:0:0:0:
286,301,74741,2,0,P|184:338|181:230,1,252.499988079071,4|0,1:2|1:2,0:0:0:0:
417,132,75116,2,0,P|371:169|293:175,1,126.249994039536,12|0,1:2|3:2,0:0:0:0:
92,43,75366,70,0,L|230:60,1,111.099998145294,6|0,3:2|3:0,0:0:0:0:
512,234,75616,2,0,L|401:247,1,111.099998145294,10|0,1:2|0:0,0:0:0:0:
191,323,75866,2,0,L|174:185,1,111.099998145294,2|0,3:2|3:0,0:0:0:0:
336,11,76116,2,0,L|353:149,1,111.099998145294,10|0,1:2|3:0,0:0:0:0:
298,355,76366,6,0,P|220:310|72:327,1,222.199996290588,2|8,0:2|1:0,0:0:0:0:
303,214,76741,1,0,3:0:0:0:
159,77,76866,2,0,L|173:195,1,111.099998145294,2|0,0:2|0:0,0:0:0:0:
0,326,77116,2,0,P|49:302|104:293,1,111.099998145294,8|0,1:0|3:0,0:0:0:0:
506,252,77366,102,0,P|449:269|296:206,1,222.199996290588,6|8,3:2|1:0,0:0:0:0:
255,76,77741,1,0,0:0:0:0:
421,41,77866,2,0,B|441:95|441:95|424:152,1,111.099998145294,2|0,3:2|3:0,0:0:0:0:
176,292,78116,2,0,B|156:238|156:238|173:181,1,111.099998145294,8|0,1:0|0:0,0:0:0:0:
24,45,78366,6,0,B|65:119|65:119|23:258,1,222.199996290588,2|8,3:2|1:0,0:0:0:0:
195,86,78741,1,0,3:0:0:0:
275,249,78866,2,0,P|224:282|163:291,1,111.099998145294,2|0,0:2|3:0,0:0:0:0:
369,104,79116,2,0,P|423:115|468:146,1,111.099998145294,8|0,1:0|0:3,0:0:0:0:
270,348,79366,102,0,L|20:318,1,222.199996290588,6|8,3:2|1:0,0:0:0:0:
285,173,79741,2,0,L|535:143,1,222.199996290588,0|0,0:0|3:0,0:0:0:0:
146,84,80116,2,0,L|132:203,1,111.099998145294,8|0,1:0|0:0,0:0:0:0:
266,37,80366,21,2,3:2:0:0:
32,213,80491,1,2,3:2:0:0:
231,256,80616,1,10,1:2:0:0:
116,5,80741,1,2,3:2:0:0:
251,49,80866,5,2,0:2:0:0:
49,201,80991,1,2,3:2:0:0:
221,238,81116,1,10,1:2:0:0:
122,21,81241,1,2,3:2:0:0:
214,223,81366,102,0,L|330:205,1,111.099998145294,6|0,3:2|0:0,0:0:0:0:
501,109,81616,2,0,L|385:91,1,111.099998145294,8|0,1:0|0:0,0:0:0:0:
173,128,81866,1,0,3:0:0:0:
425,189,81991,1,0,3:0:0:0:
202,240,82116,2,0,P|187:306|194:360,1,111.099998145294,8|0,1:0|3:0,0:0:0:0:
73,113,82366,6,0,B|137:102|137:102|178:54|178:54|206:112|206:112|262:139,1,252.499988079071,6|8,1:2|1:0,0:0:0:0:
475,256,82741,2,0,B|420:282|420:282|392:340|392:340|351:292|351:292|287:281,1,252.499988079071,4|0,1:2|1:0,0:0:0:0:
273,42,83116,1,12,1:2:0:0:
371,199,83241,1,0,1:2:0:0:
128,216,83366,38,0,L|14:199,1,111.099998145294,4|0,3:2|0:0,0:0:0:0:
337,112,83616,2,0,L|451:95,1,111.099998145294,8|0,1:0|3:0,0:0:0:0:
193,63,83866,1,0,3:0:0:0:
288,270,83991,1,0,0:0:0:0:
475,139,84116,2,0,L|361:122,1,111.099998145294,8|0,1:0|3:0,0:0:0:0:
63,239,84366,21,2,3:2:0:0:
270,173,84491,1,0,3:0:0:0:
63,105,84616,1,10,1:2:0:0:
193,284,84741,1,2,3:2:0:0:
193,63,84866,2,0,P|146:31|87:11,1,111.099998145294,2|2,3:2|3:2,0:0:0:0:
306,286,85116,2,0,P|358:267|403:235,1,111.099998145294,10|2,1:2|3:2,0:0:0:0:
139,163,85366,5,6,3:2:0:0:
127,188,85428,1,2,0:2:0:0:
115,213,85491,1,2,3:2:0:0:
103,238,85553,1,2,0:0:0:0:
92,263,85616,2,0,L|110:375,1,111.099998145294,10|0,1:2|3:0,0:0:0:0:
488,150,85866,2,0,B|443:117|443:117|334:138|334:138|306:188,1,222.199996290588,2|8,3:2|1:0,0:0:0:0:
28,138,86241,2,0,B|73:171|73:171|182:150|182:150|210:102,1,222.199996290588,0|0,3:0|3:0,0:0:0:0:
105,49,86616,101,8,1:0:0:0:
159,243,86741,1,0,3:3:0:0:
298,94,86866,1,0,3:0:0:0:
13,159,86991,2,0,B|0:220|0:220|30:300|30:300|9:373,1,222.199996290588,2|2,3:2|3:2,0:0:0:0:
229,165,87366,22,0,P|152:144|114:155,1,111.099998145294,6|0,3:2|3:0,0:0:0:0:
303,318,87616,1,10,1:2:0:0:
383,150,87741,1,2,3:2:0:0:
185,286,87866,1,2,3:2:0:0:
414,344,87991,1,2,3:2:0:0:
290,219,88116,1,10,1:2:0:0:
225,383,88241,1,2,3:2:0:0:
460,216,88366,6,0,L|481:103,1,111.099998145294,2|0,3:2|3:0,0:0:0:0:
162,196,88616,2,0,L|183:309,1,111.099998145294,10|0,1:2|3:0,0:0:0:0:
315,180,88866,2,0,L|336:67,1,111.099998145294,2|0,3:2|3:0,0:0:0:0:
17,160,89116,2,0,L|38:273,1,111.099998145294,10|0,1:2|3:0,0:0:0:0:
231,94,89366,102,0,P|183:43|47:79,1,222.199996290588,6|10,3:2|1:2,0:0:0:0:
266,250,89741,1,0,3:0:0:0:
57,179,89866,2,0,B|113:170|113:170|163:196,1,111.099998145294,2|6,3:2|3:2,0:0:0:0:
439,166,90116,2,0,B|383:176|383:176|335:150,1,111.099998145294,10|6,1:2|3:2,0:0:0:0:
10,334,90366,6,0,B|95:288|95:288|248:335,1,252.499988079071,4|8,1:2|1:2,0:0:0:0:
493,235,90741,2,0,B|408:281|408:281|255:234,1,252.499988079071,4|0,1:2|1:2,0:0:0:0:
10,98,91116,1,12,1:2:0:0:
270,51,91241,1,0,0:0:0:0:
165,212,91366,70,0,P|147:148|151:103,1,111.099998145294,6|0,3:2|3:0,0:0:0:0:
405,245,91616,2,0,P|407:300|390:352,1,111.099998145294,10|0,1:2|0:0,0:0:0:0:
97,290,91866,2,0,B|144:316|144:316|200:307,1,111.099998145294,2|0,3:2|3:0,0:0:0:0:
437,120,92116,2,0,B|381:111|381:111|333:137,1,111.099998145294,10|0,1:2|3:0,0:0:0:0:
47,159,92366,6,0,B|162:131|139:234|254:206,1,222.199996290588,2|8,0:2|1:0,0:0:0:0:
222,101,92741,1,0,0:0:0:0:
75,255,92866,1,2,0:2:0:0:
270,286,92991,1,0,0:0:0:0:
104,129,93116,2,0,P|51:104|-4:96,1,111.099998145294,8|0,1:0|0:0,0:0:0:0:
206,374,93366,102,0,B|217:323|269:285|269:285|330:284|378:315,1,222.199996290588,6|8,3:2|1:0,0:0:0:0:
101,280,93741,1,0,0:0:0:0:
318,177,93866,2,0,P|254:195|191:190,1,111.099998145294,2|0,3:2|3:0,0:0:0:0:
6,61,94116,2,0,P|61:61|114:77,1,111.099998145294,8|0,1:0|0:0,0:0:0:0:
330,292,94366,6,0,L|366:59,1,222.199996290588,2|8,3:2|1:0,0:0:0:0:
238,125,94741,1,0,3:0:0:0:
440,266,94866,1,2,0:2:0:0:
451,135,94991,1,0,3:0:0:0:
225,262,95116,1,8,1:0:0:0:
452,278,95241,1,0,0:3:0:0:
225,113,95366,102,0,B|189:84|178:50|178:50|124:104|41:82,1,222.199996290588,6|8,3:2|1:0,0:0:0:0:
141,203,95741,1,0,0:0:0:0:
331,184,95866,2,0,P|349:111|336:58,1,111.099998145294,0|0,3:0|3:0,0:0:0:0:
126,221,96116,2,0,P|120:275|138:328,1,111.099998145294,8|0,1:0|0:0,0:0:0:0:
302,310,96366,21,2,3:2:0:0:
15,231,96491,1,2,3:2:0:0:
271,211,96616,1,10,1:2:0:0:
41,322,96741,1,2,3:2:0:0:
216,343,96866,1,2,0:2:0:0:
94,183,96991,1,2,3:2:0:0:
201,247,97116,1,10,1:2:0:0:
120,289,97241,1,2,3:2:0:0:
370,310,97366,6,0,P|409:244|361:111,1,222.199996290588,6|8,3:2|1:0,0:0:0:0:
225,59,97741,1,0,0:0:0:0:
189,194,97866,2,0,B|239:223|239:223|301:214,1,111.099998145294,0|0,3:0|3:0,0:0:0:0:
113,99,98116,2,0,B|60:91|60:91|11:120,1,111.099998145294,8|0,1:0|0:0,0:0:0:0:
90,347,98366,102,0,B|145:379|214:363|214:363|268:323|281:259,1,252.499988079071,6|8,1:2|1:0,0:0:0:0:
202,35,98741,2,0,B|147:3|78:19|78:19|23:58|10:122,1,252.499988079071,4|0,1:2|1:0,0:0:0:0:
369,291,99116,2,0,B|376:266|402:237|402:237|366:218|344:187,1,126.249994039536,12|0,1:2|1:3,0:0:0:0:
202,35,99366,22,0,L|110:52,1,85.849997584343,0|0,3:3|0:0,0:0:0:0:
290,96,99616,2,0,L|382:79,1,85.849997584343,0|0,3:3|0:0,0:0:0:0:
186,155,99866,5,8,1:0:0:0:
193,183,99991,1,0,3:3:0:0:
200,211,100116,1,0,0:0:0:0:
202,35,100241,102,0,L|110:52,1,85.849997584343,0|0,3:3|0:0,0:0:0:0:
290,96,100491,2,0,L|382:79,1,85.849997584343,8|0,1:3|0:0,0:0:0:0:
202,35,100741,2,0,L|110:52,1,85.849997584343,0|0,3:3|0:0,0:0:0:0:
200,211,100991,5,0,3:3:0:0:
193,183,101116,1,8,1:3:0:0:
186,155,101241,1,0,3:3:0:0:
103,312,101366,102,0,P|145:312|183:292,1,85.849997584343,0|0,3:3|0:0,0:0:0:0:
363,191,101616,2,0,P|321:191|283:211,1,85.849997584343,0|0,3:3|0:0,0:0:0:0:
260,368,101866,5,8,1:0:0:0:
299,357,101991,1,0,3:3:0:0:
341,347,102116,1,0,0:0:0:0:
103,312,102241,102,0,P|145:312|183:292,1,85.849997584343,0|0,3:3|0:0,0:0:0:0:
363,191,102491,2,0,P|321:191|283:211,1,85.849997584343,8|0,1:3|0:0,0:0:0:0:
103,312,102741,2,0,P|145:312|183:292,1,85.849997584343,0|0,3:3|0:0,0:0:0:0:
341,347,102991,5,0,3:3:0:0:
299,357,103116,1,8,1:3:0:0:
260,368,103241,1,8,1:3:0:0:
50,221,103366,102,0,L|36:113,1,85.849997584343,0|0,3:3|0:0,0:0:0:0:
224,4,103616,2,0,L|210:112,1,85.849997584343,0|0,3:3|0:0,0:0:0:0:
183,291,103866,5,8,1:0:0:0:
167,236,103991,1,0,3:3:0:0:
153,178,104116,1,0,0:0:0:0:
50,221,104241,102,0,L|36:113,1,85.849997584343,0|0,3:3|0:0,0:0:0:0:
224,4,104491,2,0,L|210:112,1,85.849997584343,8|0,1:3|0:0,0:0:0:0:
50,221,104741,2,0,L|36:113,1,85.849997584343,0|0,3:3|0:0,0:0:0:0:
153,178,104991,5,0,3:3:0:0:
167,236,105116,1,8,1:3:0:0:
183,291,105241,1,0,0:3:0:0:
356,308,105366,102,0,P|317:325|274:323,1,85.849997584343,0|0,3:3|0:0,0:0:0:0:
423,90,105616,2,0,P|462:73|504:75,1,85.849997584343,0|0,3:3|0:0,0:0:0:0:
331,44,105866,5,8,1:0:0:0:
255,62,105991,1,0,3:3:0:0:
183,84,106116,1,0,0:0:0:0:
356,308,106241,102,0,P|317:325|274:323,1,85.849997584343,0|0,3:3|0:0,0:0:0:0:
423,90,106491,2,0,P|462:73|504:75,1,85.849997584343,8|0,1:3|0:0,0:0:0:0:
356,308,106741,2,0,P|317:325|274:323,1,85.849997584343,0|0,3:3|0:0,0:0:0:0:
183,84,106991,5,0,3:3:0:0:
255,62,107116,1,8,1:3:0:0:
331,44,107241,1,0,3:3:0:0:
421,266,107366,102,0,L|513:249,1,85.849997584343,0|0,3:3|0:0,0:0:0:0:
333,205,107616,2,0,L|241:222,1,85.849997584343,0|0,3:3|0:0,0:0:0:0:
437,146,107866,5,8,1:0:0:0:
430,118,107991,1,0,3:3:0:0:
423,90,108116,1,0,0:0:0:0:
421,266,108241,102,0,L|513:249,1,85.849997584343,0|0,3:3|0:0,0:0:0:0:
333,205,108491,2,0,L|241:222,1,85.849997584343,8|0,1:3|0:0,0:0:0:0:
421,266,108741,6,0,L|513:249,1,85.849997584343,0|0,3:3|0:0,0:0:0:0:
423,90,108991,1,0,3:3:0:0:
430,118,109116,1,8,1:3:0:0:
437,146,109241,1,0,3:3:0:0:
329,60,109366,102,0,P|287:60|249:80,1,85.849997584343,0|0,3:3|0:0,0:0:0:0:
69,181,109616,2,0,P|111:181|149:161,1,85.849997584343,0|0,3:3|0:0,0:0:0:0:
172,4,109866,5,8,1:0:0:0:
133,15,109991,1,0,3:3:0:0:
91,25,110116,1,0,0:0:0:0:
329,60,110241,102,0,P|287:60|249:80,1,85.849997584343,0|0,3:3|0:0,0:0:0:0:
69,181,110491,2,0,P|111:181|149:161,1,85.849997584343,8|0,1:3|0:0,0:0:0:0:
329,60,110741,2,0,P|287:60|249:80,1,85.849997584343,0|0,3:3|0:0,0:0:0:0:
91,25,110991,5,0,3:3:0:0:
133,15,111116,1,8,1:3:0:0:
172,4,111241,1,8,3:3:0:0:
462,130,111366,102,0,L|476:238,1,85.849997584343,0|0,3:3|0:0,0:0:0:0:
288,347,111616,2,0,L|302:239,1,85.849997584343,0|0,3:3|0:0,0:0:0:0:
329,60,111866,5,8,1:0:0:0:
345,115,111991,1,0,3:3:0:0:
359,173,112116,1,0,0:0:0:0:
462,130,112241,102,0,L|476:238,1,85.849997584343,0|0,3:3|0:0,0:0:0:0:
288,347,112491,2,0,L|302:239,1,85.849997584343,8|0,1:3|0:0,0:0:0:0:
462,130,112741,2,0,L|476:238,1,85.849997584343,0|0,3:3|0:0,0:0:0:0:
359,173,112991,5,0,3:3:0:0:
345,115,113116,1,8,1:3:0:0:
329,60,113241,1,0,3:3:0:0:
148,58,113366,102,0,P|186:40|229:42,1,85.849997584343,0|0,3:3|0:0,0:0:0:0:
82,203,113616,2,0,P|42:219|1:217,1,85.849997584343,0|0,3:3|0:0,0:0:0:0:
150,318,113866,5,8,1:0:0:0:
226,300,113991,1,0,3:3:0:0:
298,278,114116,1,0,0:0:0:0:
148,58,114241,102,0,P|186:40|229:42,1,85.849997584343,0|0,3:3|0:0,0:0:0:0:
82,203,114491,2,0,P|42:219|1:217,1,85.849997584343,8|0,1:3|0:0,0:0:0:0:
148,58,114741,2,0,P|186:40|229:42,1,85.849997584343,0|8,3:3|1:3,0:0:0:0:
298,278,114991,5,0,3:3:0:0:
226,300,115116,1,8,1:3:0:0:
150,318,115241,1,0,3:3:0:0:
366,338,115366,102,0,P|384:299|385:244,1,85.849997584343,2|0,3:2|0:0,0:0:0:0:
481,247,115616,2,0,P|456:211|409:183,1,85.849997584343,2|0,3:2|0:0,0:0:0:0:
158,148,115866,2,0,L|349:192,1,171.699995168686,10|0,1:2|0:0,0:0:0:0:
493,91,116241,6,0,P|450:94|402:121,1,85.849997584343,2|0,3:2|0:0,0:0:0:0:
360,0,116491,2,0,P|342:39|340:94,1,85.849997584343,10|0,1:2|0:0,0:0:0:0:
198,25,116741,2,0,P|222:60|269:88,1,85.849997584343,2|0,3:2|0:0,0:0:0:0:
413,114,116991,101,2,3:2:0:0:
366,338,117116,1,10,1:2:0:0:
325,186,117241,1,2,3:2:0:0:
240,340,117366,6,0,L|153:355,1,85.849997584343,2|0,3:2|0:0,0:0:0:0:
401,256,117616,2,0,L|485:270,1,85.849997584343,2|0,3:2|0:0,0:0:0:0:
171,172,117866,2,0,B|109:184|109:184|78:212|78:212|10:225,1,171.699995168686,10|0,1:2|0:0,0:0:0:0:
29,71,118241,102,0,P|73:76|110:102,1,85.849997584343,2|0,3:2|0:0,0:0:0:0:
155,354,118491,2,0,L|141:270,1,85.849997584343,10|0,1:2|0:0,0:0:0:0:
169,44,118741,2,0,P|131:63|106:97,1,85.849997584343,2|8,3:2|1:3,0:0:0:0:
214,236,118991,5,2,3:2:0:0:
27,145,119116,1,10,1:2:0:0:
253,94,119241,1,2,3:2:0:0:
252,308,119366,102,0,P|286:331|332:337,1,85.849997584343,2|0,3:2|0:0,0:0:0:0:
469,162,119616,2,0,P|471:202|454:245,1,85.849997584343,2|0,3:2|0:0,0:0:0:0:
445,362,119866,2,0,B|338:217,1,171.699995168686,10|0,1:2|0:0,0:0:0:0:
379,110,120241,6,0,B|388:24,1,85.849997584343,2|0,3:2|0:0,0:0:0:0:
215,48,120491,2,0,B|265:117,1,85.849997584343,10|0,1:2|0:0,0:0:0:0:
227,231,120741,2,0,B|143:214,1,85.849997584343,2|0,3:2|0:0,0:0:0:0:
6,130,120991,101,2,3:2:0:0:
89,285,121116,1,10,1:2:0:0:
120,53,121241,1,2,3:2:0:0:
68,192,121366,6,0,P|28:211|3:244,1,85.849997584343,2|0,3:2|0:0,0:0:0:0:
243,318,121616,2,0,P|281:300|307:266,1,85.849997584343,2|0,3:2|0:0,0:0:0:0:
116,26,121866,2,0,B|125:87|125:87|158:117|158:117|170:190,1,171.699995168686,10|0,1:2|0:0,0:0:0:0:
237,37,122241,102,0,B|326:44,1,85.849997584343,2|0,3:2|0:0,0:0:0:0:
484,178,122491,2,0,B|395:185,1,85.849997584343,10|0,1:2|0:0,0:0:0:0:
226,21,122741,2,0,B|315:28,1,85.849997584343,2|0,3:2|0:0,0:0:0:0:
498,188,122991,5,2,3:2:0:0:
306,263,123116,1,10,1:2:0:0:
374,100,123241,1,2,3:2:0:0:
391,281,123366,102,0,B|379:322|379:322|338:348,1,85.849997584343,2|0,3:2|0:0,0:0:0:0:
223,247,123616,2,0,B|235:206|235:206|271:182,1,85.849997584343,2|0,3:2|0:0,0:0:0:0:
227,363,123866,2,0,P|144:337|107:253,1,171.699995168686,10|0,1:2|0:0,0:0:0:0:
27,208,124241,6,0,L|42:108,1,85.849997584343,2|0,3:2|0:0,0:0:0:0:
126,149,124491,2,0,L|141:49,1,85.849997584343,10|0,1:2|0:0,0:0:0:0:
225,90,124741,2,0,L|240:-10,1,85.849997584343,2|0,3:2|0:0,0:0:0:0:
466,169,124991,101,2,3:2:0:0:
274,189,125116,1,10,1:2:0:0:
340,12,125241,1,2,3:2:0:0:
367,124,125366,6,0,L|456:139,1,85.849997584343,2|0,3:2|0:0,0:0:0:0:
374,228,125616,2,0,L|289:213,1,85.849997584343,2|0,3:2|0:0,0:0:0:0:
136,310,125866,2,0,B|251:329|251:329|315:302,1,171.699995168686,10|0,1:2|0:0,0:0:0:0:
114,166,126241,102,0,P|73:202|63:245,1,85.849997584343,2|0,3:2|0:0,0:0:0:0:
223,296,126491,2,0,P|233:349|265:379,1,85.849997584343,10|0,1:2|0:0,0:0:0:0:
413,280,126741,2,0,P|464:297|506:284,1,85.849997584343,2|0,3:2|0:0,0:0:0:0:
490,102,126991,5,2,3:2:0:0:
284,9,127116,1,10,1:2:0:0:
306,226,127241,1,2,3:2:0:0:
362,119,127366,101,2,0:2:0:0:
300,274,131366,22,0,B|398:299|398:299|420:199,2,201.999990463257,4|8|0,3:2|1:0|3:0,0:0:0:0:
258,117,131991,1,0,3:0:0:0:
143,212,132116,2,0,P|209:216|244:202,1,100.999995231629,8|0,1:0|3:0,0:0:0:0:
88,82,132366,6,0,L|101:292,1,201.999990463257,2|8,0:2|1:0,0:0:0:0:
319,368,132741,2,0,L|331:166,1,201.999990463257,2|0,0:2|3:0,0:0:0:0:
423,22,133116,1,10,1:2:0:0:
479,294,133241,1,10,1:2:0:0:
331,166,133366,102,0,B|287:148|256:99|256:99|250:153|214:189,1,201.999990463257,6|8,3:2|1:0,0:0:0:0:
288,266,133741,1,0,3:0:0:0:
386,106,133866,2,0,L|493:91,1,100.999995231629,0|0,3:0|3:0,0:0:0:0:
316,27,134116,2,0,L|209:12,1,100.999995231629,8|0,1:0|3:0,0:0:0:0:
61,120,134366,6,0,P|66:201|166:248,1,201.999990463257,2|8,0:2|1:0,0:0:0:0:
345,247,134741,2,0,P|436:215|451:120,1,201.999990463257,2|0,3:2|3:0,0:0:0:0:
256,168,135116,1,10,1:2:0:0:
256,208,135178,1,0,0:0:0:0:
256,248,135241,1,0,1:0:0:0:
256,288,135303,1,2,0:0:0:0:
256,328,135366,2,0,L|365:339,1,100.999995231629,6|2,3:2|3:2,0:0:0:0:
502,133,135616,101,10,1:2:0:0:
434,68,135741,1,2,0:2:0:0:
415,159,135866,1,2,3:2:0:0:
336,133,135991,5,2,3:2:0:0:
447,238,136116,1,10,1:2:0:0:
477,89,136241,1,2,3:2:0:0:
278,28,136366,101,2,3:2:0:0:
310,260,136491,1,2,3:2:0:0:
415,159,136616,1,10,1:2:0:0:
183,127,136741,1,2,3:2:0:0:
435,161,136866,5,2,3:2:0:0:
163,124,136991,1,2,3:2:0:0:
312,279,137116,1,10,1:2:0:0:
274,8,137241,1,2,1:2:0:0:
240,339,137366,102,0,P|190:336|150:294,1,100.999995231629,6|2,3:2|3:2,0:0:0:0:
73,316,137553,1,2,0:0:0:0:
60,300,137616,2,0,P|37:255|53:199,1,100.999995231629,10|2,1:2|3:2,0:0:0:0:
5,137,137803,1,2,0:0:0:0:
11,119,137866,2,0,P|38:77|94:63,1,100.999995231629,2|2,3:2|3:2,0:0:0:0:
146,4,138053,1,2,0:0:0:0:
163,1,138116,2,0,P|213:4|252:46,1,100.999995231629,10|2,1:2|3:2,0:0:0:0:
146,178,138366,6,0,B|170:221|170:221|269:240|269:240|310:210,1,201.999990463257,2|10,1:2|1:2,0:0:0:0:
503,58,138741,2,0,B|478:101|478:101|379:120|379:120|338:90,1,201.999990463257,2|0,1:2|3:0,0:0:0:0:
163,1,139116,1,8,1:0:0:0:
411,18,139241,1,0,1:0:0:0:
235,147,139366,38,0,P|240:97|266:54,1,100.999995231629,6|0,3:2|0:0,0:0:0:0:
411,18,139616,1,8,1:0:0:0:
497,156,139741,1,0,1:0:0:0:
497,156,139803,1,0,0:0:0:0:
497,156,139866,6,0,L|485:243,2,67.333330154419,2|0|0,3:2|0:0|0:0,0:0:0:0:
401,84,140116,2,0,L|413:-3,2,67.333330154419,10|0|0,1:0|0:0|0:0,0:0:0:0:
316,158,140366,1,2,0:2:0:0:
306,210,140449,1,0,0:0:0:0:
296,262,140532,1,0,0:0:0:0:
287,315,140616,1,10,1:0:0:0:
28,356,140741,101,0,3:0:0:0:
35,323,140803,1,0,3:0:0:0:
40,289,140866,1,2,1:0:0:0:
120,239,140991,1,0,3:0:0:0:
127,206,141053,1,0,3:0:0:0:
132,172,141116,1,10,1:0:0:0:
205,107,141241,1,0,1:0:0:0:
212,74,141303,1,0,3:0:0:0:
217,40,141366,54,0,B|109:47|109:47|51:138,2,201.999990463257,6|8|0,3:2|1:0|3:0,0:0:0:0:
383,100,141991,1,0,3:0:0:0:
260,175,142116,2,0,P|209:175|163:155,1,100.999995231629,8|0,1:0|3:0,0:0:0:0:
416,16,142366,6,0,B|474:60|474:60|456:191,1,201.999990463257,2|8,0:2|1:0,0:0:0:0:
469,384,142741,2,0,B|411:340|411:340|428:212,1,201.999990463257,0|0,3:0|3:0,0:0:0:0:
383,100,143116,1,8,1:0:0:0:
238,335,143241,1,0,1:0:0:0:
238,335,143303,1,0,1:0:0:0:
238,335,143366,101,6,3:2:0:0:
301,172,143491,2,0,L|319:272,1,100.999995231629,2|10,3:2|1:2,0:0:0:0:
62,187,143741,5,2,0:2:0:0:
224,250,143866,2,0,L|124:267,1,100.999995231629,2|2,3:2|3:2,0:0:0:0:
207,12,144116,101,10,1:2:0:0:
144,174,144241,2,0,L|126:74,1,100.999995231629,2|2,3:2|3:2,0:0:0:0:
382,161,144491,5,2,3:2:0:0:
220,98,144616,2,0,L|319:80,1,100.999995231629,10|2,1:2|3:2,0:0:0:0:
238,335,144866,101,2,3:2:0:0:
291,166,144991,1,2,3:2:0:0:
243,318,145116,1,10,1:2:0:0:
288,182,145241,1,2,1:2:0:0:
378,354,145366,6,0,P|429:345|465:311,1,100.999995231629,6|2,3:2|3:2,0:0:0:0:
505,203,145616,1,10,1:2:0:0:
387,265,145741,102,0,P|404:216|393:168,1,100.999995231629,2|2,3:2|3:2,0:0:0:0:
319,79,145991,1,2,3:2:0:0:
314,213,146116,6,0,P|280:173|233:159,1,100.999995231629,10|2,1:2|3:2,0:0:0:0:
28,258,146366,102,0,B|61:293|57:353|57:353|96:309|144:312,1,201.999990463257,2|8,1:2|1:2,0:0:0:0:
270,83,146741,2,0,B|222:86|183:42|183:42|187:102|154:137,1,201.999990463257,2|0,1:2|3:2,0:0:0:0:
111,234,147116,1,10,1:2:0:0:
58,59,147241,1,0,1:2:0:0:
236,159,147366,54,0,L|248:227,2,67.333330154419,6|0|0,3:2|0:0|0:0,0:0:0:0:
270,83,147616,2,0,L|258:15,2,67.333330154419,8|0|0,1:0|0:0|0:0,0:0:0:0:
335,246,147866,6,0,P|366:259|405:257,1,67.333330154419,2|0,3:2|0:0,0:0:0:0:
468,211,148032,1,0,0:0:0:0:
480,185,148116,2,0,L|493:112,2,67.333330154419,8|0|0,1:0|0:0|0:0,0:0:0:0:
393,358,148366,101,2,0:2:0:0:
327,359,148449,1,0,0:0:0:0:
272,323,148532,1,0,0:0:0:0:
245,262,148616,1,8,1:0:0:0:
218,202,148699,1,0,0:0:0:0:
163,166,148782,1,0,0:0:0:0:
98,156,148866,6,0,P|66:163|34:189,1,67.333330154419,2|0,3:2|0:0,0:0:0:0:
65,315,149032,1,0,0:0:0:0:
95,328,149116,2,0,P|127:321|159:295,1,67.333330154419,10|0,1:0|0:0,0:0:0:0:
291,190,149282,1,0,0:0:0:0:
315,208,149366,102,0,L|385:203,2,67.333330154419,6|0|0,3:2|0:0|0:0,0:0:0:0:
194,85,149616,2,0,L|124:90,2,67.333330154419,8|0|0,1:0|0:0|0:0,0:0:0:0:
200,186,149866,2,0,L|205:256,2,67.333330154419,2|0|0,3:2|0:0|0:0,0:0:0:0:
289,108,150116,2,0,L|284:38,2,67.333330154419,8|0|0,1:0|0:0|0:0,0:0:0:0:
264,336,150366,5,2,0:2:0:0:
325,349,150449,1,0,0:0:0:0:
386,338,150532,1,0,0:0:0:0:
438,303,150616,1,8,1:0:0:0:
472,250,150699,1,0,0:0:0:0:
483,190,150782,1,0,0:0:0:0:
476,128,150866,102,0,P|447:109|413:102,1,67.333330154419,2|0,0:0|0:0,0:0:0:0:
339,33,151032,1,0,0:0:0:0:
317,40,151116,2,0,P|286:55|262:81,1,67.333330154419,10|0,1:0|0:0,0:0:0:0:
160,79,151282,1,0,0:0:0:0:
155,101,151366,6,0,P|153:135|163:168,2,67.333330154419,6|0|0,3:2|0:0|0:0,0:0:0:0:
101,257,151616,2,0,P|135:258|168:248,2,67.333330154419,8|0|0,1:0|0:0|0:0,0:0:0:0:
255,310,151866,2,0,P|256:275|246:242,2,67.333330154419,2|0|0,3:2|0:0|0:0,0:0:0:0:
306,155,152116,2,0,P|271:153|238:163,2,67.333330154419,8|0|0,1:0|0:0|0:0,0:0:0:0:
433,284,152366,101,6,3:2:0:0:
382,336,152449,1,0,0:0:0:0:
312,359,152532,1,0,0:0:0:0:
240,345,152616,1,8,1:0:0:0:
183,299,152699,1,0,0:0:0:0:
154,231,152782,1,0,0:0:0:0:
162,158,152866,6,0,L|185:81,1,67.333330154419,2|0,0:0|0:0,0:0:0:0:
355,90,153032,1,0,0:0:0:0:
365,64,153116,2,0,L|384:0,2,67.333330154419,10|0|0,1:0|0:0|0:0,0:0:0:0:
303,156,153366,101,6,3:2:0:0:
353,217,153449,1,0,0:0:0:0:
283,222,153532,1,0,0:0:0:0:
296,263,153615,1,10,1:0:0:0:
227,263,153699,1,0,0:0:0:0:
221,280,153782,1,0,0:0:0:0:
160,248,153866,5,2,0:0:0:0:
212,46,153991,1,0,0:0:0:0:
413,99,154116,1,10,1:0:0:0:
360,300,154241,1,0,0:0:0:0:
160,248,154366,102,0,P|156:316|282:319,1,222.199996290588,2|8,1:2|1:0,0:0:0:0:
145,155,154741,2,0,P|149:87|23:84,1,222.199996290588,2|0,1:2|3:0,0:0:0:0:
73,278,155116,1,10,1:2:0:0:
0,162,155241,1,0,1:0:0:0:
0,316,155366,54,0,B|20:358|74:368|74:368|169:314,2,201.999990463257,6|8|0,3:2|1:0|3:0,0:0:0:0:
68,109,155991,1,0,3:0:0:0:
260,166,156116,2,0,P|210:178|173:220,1,100.999995231629,8|0,1:0|3:0,0:0:0:0:
334,287,156366,6,0,B|387:250|387:250|406:108,1,201.999990463257,0|8,0:0|1:0,0:0:0:0:
208,35,156741,2,0,B|114:84|111:-10|16:38,1,201.999990463257,0|0,0:0|3:0,0:0:0:0:
31,275,157116,1,10,1:2:0:0:
68,109,157241,1,2,1:2:0:0:
160,312,157366,102,0,P|141:268|155:210,1,100.999995231629,6|0,3:2|0:0,0:0:0:0:
375,303,157616,2,0,P|349:345|304:367,1,100.999995231629,8|0,1:0|0:0,0:0:0:0:
319,114,157866,1,0,3:0:0:0:
264,256,157991,1,0,3:0:0:0:
362,213,158116,1,8,1:0:0:0:
220,158,158241,1,0,3:0:0:0:
472,61,158366,6,0,B|429:33|375:34|375:34|328:68|319:114,1,201.999990463257,6|8,1:2|1:0,0:0:0:0:
176,270,158741,2,0,B|185:315|232:349|232:349|286:350|329:322,1,201.999990463257,4|0,1:2|1:0,0:0:0:0:
154,43,159116,1,12,1:2:0:0:
83,237,159241,1,0,1:0:0:0:
264,256,159366,37,6,3:2:0:0:
46,87,159491,1,0,3:0:0:0:
292,11,159616,2,0,L|320:121,1,106.049991756821,10|0,1:2|0:0,0:0:0:0:
460,336,159866,2,0,L|432:226,1,106.049991756821,2|0,3:2|0:0,0:0:0:0:
470,115,160116,1,8,1:0:0:0:
210,42,160241,6,0,B|213:95|213:95|253:141,1,106.049991756821,2|0,3:2|3:0,0:0:0:0:
436,326,160491,2,0,B|388:302|388:302|328:313,1,106.049991756821,2|8,3:2|1:0,0:0:0:0:
66,363,160741,2,0,B|110:333|110:333|130:276,1,106.049991756821,2|0,3:2|3:0,0:0:0:0:
298,60,160991,101,2,3:2:0:0:
71,144,161116,1,10,1:2:0:0:
390,202,161241,1,2,1:2:0:0:
94,10,161366,86,0,L|104:66,1,53.0249958784105,6|0,3:2|3:0,0:0:0:0:
157,187,161491,2,0,L|148:134,1,53.0249958784105,2|0,3:2|0:0,0:0:0:0:
198,23,161616,6,0,L|207:78,1,53.0249958784105,10|0,1:2|3:0,0:0:0:0:
207,239,161741,2,0,L|198:186,1,53.0249958784105,2|0,3:2|0:0,0:0:0:0:
300,24,161866,102,0,L|309:79,1,53.0249958784105,2|0,3:2|0:0,0:0:0:0:
257,293,161991,2,0,L|248:240,1,53.0249958784105,2|0,3:2|0:0,0:0:0:0:
404,37,162116,6,0,L|413:92,1,53.0249958784105,10|0,1:2|0:0,0:0:0:0:
307,345,162241,2,0,L|298:292,1,53.0249958784105,2|0,3:2|0:0,0:0:0:0:
467,182,162366,101,6,0:0:0:0:
309,160,162491,1,2,3:2:0:0:
467,182,162616,1,10,1:2:0:0:
220,87,162741,6,0,B|283:106|283:106|312:165,1,126.249994039536,14|0,3:2|3:2,0:0:0:0:
298,292,162991,101,10,3:2:0:0:
412,89,163116,1,14,1:2:0:0:
491,366,163241,1,6,1:2:0:0:
206,48,167366,53,2,0:2:0:0:
201,73,167428,1,0,0:0:0:0:
196,99,167491,1,0,0:0:0:0:
191,125,167553,1,0,0:0:0:0:
186,151,167616,2,0,L|179:190,3,32.8249969476702,2|0|0|0,0:2|0:0|0:0|0:0,0:0:0:0:
102,254,167866,2,0,L|107:286,5,32.8249969476702,2|0|0|0|0|0,0:2|0:0|0:0|0:0|0:3|0:0,0:0:0:0:
262,353,168241,6,0,P|287:360|313:357,3,53.0249958784105,2|0|0|0,0:2|0:0|0:0|0:0,0:0:0:0:
360,285,168491,2,0,P|354:259|338:238,3,53.0249958784105,2|0|0|0,0:2|0:0|0:0|0:0,0:0:0:0:
255,234,168741,2,0,P|235:251|225:276,3,53.0249958784105,2|0|0|0,0:2|0:0|0:0|0:0,0:0:0:0:
80,352,168991,102,0,L|94:291,1,53.0249958784105,2|0,0:2|0:0,0:0:0:0:
77,224,169116,2,0,L|91:163,1,53.0249958784105,2|0,0:2|0:0,0:0:0:0:
60,99,169241,2,0,L|74:38,1,53.0249958784105,2|0,0:2|0:0,0:0:0:0:
198,12,169366,5,2,0:2:0:0:
238,11,169428,1,0,0:0:0:0:
278,20,169491,1,0,0:0:0:0:
314,38,169553,1,0,0:0:0:0:
344,65,169616,2,0,P|364:89|376:118,3,58.0749983658791,2|0|0|0,0:2|0:0|0:0|0:0,0:0:0:0:
469,137,169866,2,0,P|457:165|438:190,7,58.0749983658791,2|0|0|0|0|0|2|0,0:2|0:0|0:0|0:0|0:3|0:0|0:2|0:0,0:0:0:0:
474,333,170366,101,0,3:3:0:0:
422,327,170428,1,0,3:3:0:0:
370,322,170491,1,2,3:2:0:0:
318,316,170553,1,0,3:3:0:0:
266,311,170616,2,0,L|207:303,1,58.0749983658791,0|0,3:3|3:3,0:0:0:0:
60,355,170741,5,2,3:2:0:0:
84,335,170803,1,0,3:3:0:0:
69,309,170866,1,0,3:3:0:0:
93,289,170928,1,0,3:3:0:0:
78,263,170991,1,2,3:2:0:0:
102,244,171053,1,0,3:3:0:0:
87,218,171116,1,2,3:2:0:0:
111,198,171178,1,0,3:3:0:0:
96,172,171241,1,2,3:2:0:0:
120,152,171303,1,0,3:3:0:0:
105,126,171366,70,0,B|154:94|154:94|225:102,1,121.199990579224,6|0,3:2|3:0,0:0:0:0:
275,313,171616,2,0,B|226:345|226:345|155:337,1,121.199990579224,10|0,1:2|0:0,0:0:0:0:
282,156,171866,2,0,B|406:125|381:237|506:206,1,242.399981158448,2|8,3:2|1:2,0:0:0:0:
421,83,172241,5,2,0:2:0:0:
320,240,172366,1,0,3:0:0:0:
454,368,172491,2,0,L|436:234,1,121.199990579224,2|8,3:2|1:2,0:0:0:0:
186,208,172741,2,0,L|299:255,1,121.199990579224,2|0,3:2|0:0,0:0:0:0:
512,167,172991,1,2,3:2:0:0:
457,46,173116,2,0,L|356:121,1,121.199990579224,10|2,1:2|0:2,0:0:0:0:
155,332,173366,101,6,3:2:0:0:
73,94,173491,1,0,3:0:0:0:
267,77,173616,2,0,P|222:116|163:119,1,121.199990579224,10|0,1:2|0:0,0:0:0:0:
58,268,173866,2,0,P|116:249|155:196,1,121.199990579224,2|0,3:2|0:0,0:0:0:0:
189,39,174116,1,8,1:2:0:0:
362,231,174241,6,0,B|322:272|327:344|327:344|280:291|223:295,1,242.399981158448,2|2,3:2|3:2,0:0:0:0:
306,30,174616,1,8,1:2:0:0:
387,107,174741,2,0,B|339:145|339:145|279:143,1,121.199990579224,2|0,3:2|0:0,0:0:0:0:
102,44,174991,1,2,3:2:0:0:
80,290,175116,2,0,L|141:183,1,121.199990579224,10|2,1:2|0:2,0:0:0:0:
306,30,175366,101,6,3:2:0:0:
60,134,175491,1,0,3:0:0:0:
258,231,175616,2,0,P|316:226|359:173,1,121.199990579224,10|0,1:2|0:0,0:0:0:0:
475,28,175866,2,0,B|417:76|417:76|447:244,1,242.399981158448,2|8,3:2|1:2,0:0:0:0:
189,378,176241,6,0,B|245:361|245:361|277:307,1,121.199990579224,2|0,3:2|0:0,0:0:0:0:
118,94,176491,2,0,B|103:150|103:150|134:205,1,121.199990579224,2|8,3:2|1:2,0:0:0:0:
394,181,176741,2,0,B|352:140|352:140|289:140,1,121.199990579224,2|0,3:2|0:0,0:0:0:0:
115,309,176991,1,2,3:2:0:0:
212,63,177116,1,10,1:2:0:0:
225,226,177241,1,2,3:2:0:0:
21,150,177366,102,0,L|7:18,1,121.199990579224,6|0,3:2|3:0,0:0:0:0:
247,218,177616,2,0,L|231:339,1,121.199990579224,10|0,1:2|0:0,0:0:0:0:
434,46,177866,6,0,B|405:97|405:97|286:120|286:120|236:84,1,242.399981158448,2|8,3:2|1:2,0:0:0:0:
201,1,178241,1,2,3:2:0:0:
106,187,178366,101,4,1:2:0:0:
282,209,178491,1,2,3:2:0:0:
106,187,178616,1,8,1:2:0:0:
369,297,178741,5,6,1:2:0:0:
193,319,178866,1,0,0:0:0:0:
369,297,178991,1,2,1:2:0:0:
456,50,179116,101,14,1:2:0:0:
490,152,179241,1,2,1:2:0:0:
286,47,179366,5,6,3:2:0:0:
269,24,179429,1,0,0:0:0:0:
242,33,179491,1,0,3:0:0:0:
242,61,179554,1,0,0:0:0:0:
269,70,179616,102,0,P|220:31|152:22,1,121.199990579224,10|0,1:2|0:0,0:0:0:0:
0,196,179866,2,0,P|49:157|117:148,1,121.199990579224,2|0,3:2|3:0,0:0:0:0:
35,27,180116,1,8,1:2:0:0:
372,165,180241,6,0,L|500:146,1,121.199990579224,2|0,3:2|0:0,0:0:0:0:
320,365,180491,2,0,L|300:241,1,121.199990579224,2|8,3:2|1:2,0:0:0:0:
396,48,180741,2,0,B|271:17|296:129|171:98,1,242.399981158448,2|2,3:2|3:2,0:0:0:0:
35,27,181116,1,10,1:2:0:0:
209,7,181241,1,2,1:2:0:0:
264,204,181366,101,6,3:2:0:0:
281,227,181429,1,0,0:0:0:0:
308,218,181491,1,0,3:0:0:0:
308,190,181554,1,0,0:0:0:0:
281,181,181616,6,0,P|330:220|398:229,1,121.199990579224,10|0,1:2|0:0,0:0:0:0:
195,370,181866,2,0,L|178:240,1,121.199990579224,2|0,3:2|3:0,0:0:0:0:
163,124,182116,1,8,1:2:0:0:
314,349,182241,102,0,B|359:335|359:335|388:340|388:340|432:326,1,121.199990579224,2|0,3:2|0:0,0:0:0:0:
159,233,182491,2,0,B|113:219|113:219|84:224|84:224|40:210,1,121.199990579224,2|8,3:2|1:2,0:0:0:0:
286,59,182741,2,0,B|407:71|407:71|455:185,1,242.399981158448,2|2,3:2|3:2,0:0:0:0:
317,192,183116,1,10,1:2:0:0:
153,94,183241,5,2,0:2:0:0:
153,94,183303,1,0,0:3:0:0:
165,135,183366,1,6,3:2:0:0:
118,120,183428,1,0,0:0:0:0:
118,71,183491,1,0,3:0:0:0:
165,56,183553,1,0,3:0:0:0:
193,95,183616,102,0,P|156:132|138:205,1,121.199990579224,10|0,1:2|3:0,0:0:0:0:
69,363,183866,2,0,L|44:245,1,121.199990579224,2|0,3:2|3:0,0:0:0:0:
204,316,184116,1,8,1:2:0:0:
22,132,184241,5,2,3:2:0:0:
253,32,184366,1,0,3:0:0:0:
137,196,184491,2,0,P|186:226|261:223,1,121.199990579224,2|8,3:2|1:2,0:0:0:0:
445,342,184741,2,0,P|396:312|321:315,1,121.199990579224,2|0,3:2|3:0,0:0:0:0:
260,374,184991,1,2,3:2:0:0:
216,130,185116,1,10,1:2:0:0:
376,187,185241,101,2,0:2:0:0:
376,187,185303,1,0,0:3:0:0:
364,146,185366,1,6,3:2:0:0:
411,161,185428,1,0,0:0:0:0:
411,210,185491,1,0,3:0:0:0:
364,225,185553,1,0,3:0:0:0:
336,186,185616,6,0,P|373:149|391:76,1,121.199990579224,10|0,1:2|3:0,0:0:0:0:
197,301,185866,2,0,B|263:350|263:350|416:300,1,242.399981158448,2|8,3:2|1:2,0:0:0:0:
216,130,186241,1,2,3:2:0:0:
47,362,186366,101,4,1:2:0:0:
94,173,186491,1,2,3:2:0:0:
232,302,186616,1,8,3:0:0:0:
37,372,186741,5,6,1:2:0:0:
90,160,186866,1,0,3:0:0:0:
245,304,186991,1,2,1:2:0:0:
0,254,187116,101,14,1:2:0:0:
424,340,187241,1,6,1:2:0:0:
