osu file format v14

[General]
AudioFilename: audio.mp3
AudioLeadIn: 0
PreviewTime: 14645
Countdown: 0
SampleSet: Normal
StackLeniency: 0.7
Mode: 1
LetterboxInBreaks: 0
WidescreenStoryboard: 0

[Editor]
DistanceSpacing: 1
BeatDivisor: 16
GridSize: 16
TimelineZoom: 2

[Metadata]
Title:il vento freddo
TitleUnicode:冷たい風
Artist:toboso
ArtistUnicode:とぼそ
Creator:GOD82028
Version:Oni
Source:
Tags:JoJo's Bizarre Adventure ジョジョの奇妙な冒険 touhou project 東方project il vento d'oro おてんば恋娘 ZUN anime instrumental arrangement チルノ 東方紅魔郷 ~ the Embodiment of Scarlet Devil. chirno's cirno the cold wind video game Golden 黄金の風
BeatmapID:2332781
BeatmapSetID:1116680

[Difficulty]
HPDrainRate:6
CircleSize:5
OverallDifficulty:5
ApproachRate:5
SliderMultiplier:1.4
SliderTickRate:1

[Events]
//Background and Video events
0,0,"maxresdefault.jpg",0,0
//Break Periods
//Storyboard Layer 0 (Background)
//Storyboard Layer 1 (Fail)
//Storyboard Layer 2 (Pass)
//Storyboard Layer 3 (Foreground)
//Storyboard Layer 4 (Overlay)
//Storyboard Sound Samples

[TimingPoints]
528,441.176470588235,4,1,0,50,1,0
528,-125,4,1,0,50,0,0
7145,-117.647058823529,4,1,0,57,0,0
7586,-111.111111111111,4,1,0,65,0,0
11116,-105.263157894737,4,1,0,73,0,0
14645,-100,4,1,0,80,0,1
28763,-100,4,1,0,65,0,0
35822,-100,4,1,0,73,0,0
42880,-100,4,1,0,80,0,1
56777,-100,4,1,0,80,0,0
57908,-66.6666666666667,4,1,0,70,0,1
57963,-66.6666666666667,4,1,0,70,0,0

[HitObjects]
256,192,528,5,2,0:0:0:0:
256,192,1189,1,0,0:0:0:0:
256,192,1630,1,2,0:0:0:0:
256,192,1851,1,2,0:0:0:0:
256,192,1925,1,2,0:0:0:0:
256,192,1998,1,2,0:0:0:0:
256,192,2072,1,0,0:0:0:0:
256,192,2292,1,0,0:0:0:0:
256,192,3175,1,0,0:0:0:0:
256,192,3395,1,2,0:0:0:0:
256,192,3616,1,0,0:0:0:0:
256,192,3836,1,0,0:0:0:0:
256,192,4057,1,2,0:0:0:0:
256,192,4719,1,0,0:0:0:0:
256,192,5160,1,2,0:0:0:0:
256,192,5380,1,2,0:0:0:0:
256,192,5454,1,2,0:0:0:0:
256,192,5527,1,2,0:0:0:0:
256,192,5601,1,0,0:0:0:0:
256,192,5822,1,0,0:0:0:0:
256,192,7145,1,0,0:0:0:0:
256,192,7586,1,6,0:0:0:0:
272,192,8027,1,0,0:0:0:0:
256,192,8248,1,2,0:0:0:0:
256,192,8689,1,0,0:0:0:0:
256,192,8910,1,2,0:0:0:0:
256,192,9130,1,0,0:0:0:0:
256,192,9351,1,2,0:0:0:0:
256,192,9682,1,2,0:0:0:0:
256,192,9792,1,0,0:0:0:0:
256,192,10013,1,2,0:0:0:0:
256,192,10233,1,0,0:0:0:0:
256,192,10454,1,0,0:0:0:0:
256,192,10675,1,2,0:0:0:0:
256,192,11116,1,2,0:0:0:0:
256,192,11336,1,0,0:0:0:0:
256,192,11447,1,0,0:0:0:0:
256,192,11557,1,0,0:0:0:0:
256,192,11777,1,2,0:0:0:0:
256,192,11998,1,0,0:0:0:0:
256,192,12219,1,2,0:0:0:0:
256,192,12329,1,0,0:0:0:0:
256,192,12439,1,2,0:0:0:0:
256,192,12660,1,0,0:0:0:0:
256,192,12880,1,2,0:0:0:0:
256,192,13322,1,0,0:0:0:0:
256,192,13542,1,2,0:0:0:0:
256,192,13763,1,0,0:0:0:0:
256,192,13983,1,0,0:0:0:0:
256,192,14094,1,0,0:0:0:0:
256,192,14204,1,2,0:0:0:0:
256,192,14314,1,2,0:0:0:0:
256,192,14425,1,0,0:0:0:0:
256,192,14645,1,6,0:0:0:0:
256,192,14866,1,0,0:0:0:0:
256,192,14976,1,0,0:0:0:0:
256,192,15086,1,0,0:0:0:0:
256,192,15307,1,2,0:0:0:0:
256,192,15527,1,0,0:0:0:0:
256,192,15638,1,0,0:0:0:0:
256,192,15748,1,2,0:0:0:0:
256,192,15969,1,2,0:0:0:0:
256,192,16189,1,0,0:0:0:0:
256,192,16410,1,0,0:0:0:0:
256,192,16520,1,0,0:0:0:0:
256,192,16630,1,0,0:0:0:0:
256,192,16851,1,2,0:0:0:0:
256,192,17072,1,0,0:0:0:0:
256,192,17182,1,0,0:0:0:0:
256,192,17292,1,2,0:0:0:0:
256,192,17513,1,0,0:0:0:0:
256,192,17733,1,0,0:0:0:0:
256,192,17954,1,0,0:0:0:0:
256,192,18175,1,2,0:0:0:0:
256,192,18395,1,0,0:0:0:0:
256,192,18505,1,0,0:0:0:0:
256,192,18616,1,0,0:0:0:0:
256,192,18836,1,2,0:0:0:0:
256,192,19057,1,0,0:0:0:0:
256,192,19167,1,2,0:0:0:0:
256,192,19277,1,2,0:0:0:0:
256,192,19498,1,2,0:0:0:0:
256,192,19719,1,0,0:0:0:0:
256,192,19939,1,0,0:0:0:0:
256,192,20160,1,0,0:0:0:0:
256,192,20270,1,0,0:0:0:0:
256,192,20380,1,0,0:0:0:0:
256,192,20601,1,0,0:0:0:0:
256,192,20822,1,2,0:0:0:0:
256,192,21263,1,0,0:0:0:0:
256,192,21373,1,0,0:0:0:0:
256,192,21483,1,0,0:0:0:0:
256,192,21594,1,0,0:0:0:0:
256,192,21704,1,2,0:0:0:0:
256,192,21925,1,0,0:0:0:0:
256,192,22035,1,0,0:0:0:0:
256,192,22145,1,0,0:0:0:0:
256,192,22366,1,2,0:0:0:0:
256,192,22586,1,0,0:0:0:0:
256,192,22807,1,2,0:0:0:0:
256,192,22917,1,0,0:0:0:0:
256,192,23027,1,2,0:0:0:0:
256,192,23248,1,0,0:0:0:0:
256,192,23469,1,2,0:0:0:0:
256,192,23689,1,0,0:0:0:0:
256,192,23800,1,0,0:0:0:0:
256,192,24020,1,0,0:0:0:0:
256,192,24130,1,2,0:0:0:0:
256,192,24351,1,0,0:0:0:0:
256,192,24572,1,0,0:0:0:0:
256,192,24792,1,2,0:0:0:0:
256,192,25233,1,0,0:0:0:0:
256,192,25454,1,0,0:0:0:0:
256,192,25564,1,0,0:0:0:0:
256,192,25675,1,0,0:0:0:0:
256,192,25895,1,2,0:0:0:0:
256,192,26005,1,2,0:0:0:0:
256,192,26116,1,0,0:0:0:0:
256,192,26226,1,0,0:0:0:0:
256,192,26336,1,2,0:0:0:0:
256,192,26557,1,2,0:0:0:0:
256,192,26777,1,0,0:0:0:0:
256,192,26998,1,2,0:0:0:0:
256,192,27329,1,0,0:0:0:0:
256,192,27439,1,0,0:0:0:0:
256,192,27660,1,0,0:0:0:0:
256,192,28101,1,0,0:0:0:0:
256,192,28175,1,0,0:0:0:0:
256,192,28248,1,0,0:0:0:0:
256,192,28322,1,2,0:0:0:0:
256,192,28542,1,2,0:0:0:0:
256,192,28763,1,4,0:0:0:0:
256,192,28983,1,0,0:0:0:0:
256,192,29204,1,0,0:0:0:0:
256,192,29314,1,0,0:0:0:0:
256,192,29535,1,2,0:0:0:0:
256,192,29755,1,2,0:0:0:0:
256,192,29976,1,2,0:0:0:0:
256,192,30197,1,0,0:0:0:0:
256,192,30307,1,0,0:0:0:0:
256,192,30527,1,0,0:0:0:0:
256,192,30748,1,0,0:0:0:0:
256,192,30969,1,0,0:0:0:0:
256,192,31079,1,0,0:0:0:0:
256,192,31300,1,2,0:0:0:0:
256,192,31520,1,2,0:0:0:0:
256,192,31741,1,2,0:0:0:0:
256,192,31851,1,0,0:0:0:0:
256,192,32072,1,0,0:0:0:0:
256,192,32292,1,0,0:0:0:0:
256,192,32513,1,0,0:0:0:0:
256,192,32733,1,0,0:0:0:0:
256,192,32844,1,0,0:0:0:0:
256,192,33064,1,2,0:0:0:0:
256,192,33285,1,2,0:0:0:0:
256,192,33505,1,2,0:0:0:0:
256,192,33726,1,0,0:0:0:0:
256,192,33836,1,0,0:0:0:0:
256,192,34057,1,0,0:0:0:0:
256,192,34277,1,0,0:0:0:0:
256,192,34498,1,0,0:0:0:0:
256,192,34608,1,0,0:0:0:0:
256,192,34829,1,2,0:0:0:0:
256,192,35050,1,2,0:0:0:0:
256,192,35270,1,2,0:0:0:0:
256,192,35380,1,0,0:0:0:0:
256,192,35822,1,4,0:0:0:0:
256,192,36042,1,0,0:0:0:0:
256,192,36263,1,0,0:0:0:0:
256,192,36373,1,0,0:0:0:0:
256,192,36483,1,2,0:0:0:0:
256,192,36594,1,0,0:0:0:0:
256,192,36814,1,2,0:0:0:0:
256,192,37035,1,2,0:0:0:0:
256,192,37255,1,0,0:0:0:0:
256,192,37366,1,0,0:0:0:0:
256,192,37586,1,0,0:0:0:0:
256,192,37807,1,0,0:0:0:0:
256,192,38027,1,2,0:0:0:0:
256,192,38138,1,0,0:0:0:0:
256,192,38248,1,0,0:0:0:0:
256,192,38358,1,2,0:0:0:0:
256,192,38579,1,2,0:0:0:0:
256,192,38800,1,2,0:0:0:0:
256,192,38910,1,0,0:0:0:0:
256,192,39130,1,2,0:0:0:0:
256,192,39351,1,0,0:0:0:0:
256,192,39572,1,0,0:0:0:0:
256,192,39792,1,0,0:0:0:0:
256,192,39902,1,0,0:0:0:0:
256,192,40013,1,2,0:0:0:0:
256,192,40123,1,0,0:0:0:0:
256,192,40344,1,2,0:0:0:0:
256,192,40564,1,2,0:0:0:0:
256,192,40785,1,0,0:0:0:0:
256,192,40895,1,0,0:0:0:0:
256,192,41116,1,0,0:0:0:0:
256,192,41336,1,0,0:0:0:0:
256,192,41557,1,0,0:0:0:0:
256,192,41667,1,0,0:0:0:0:
256,192,41888,1,0,0:0:0:0:
256,192,41998,1,0,0:0:0:0:
256,192,42108,1,2,0:0:0:0:
256,192,42219,1,2,0:0:0:0:
256,192,42329,1,0,0:0:0:0:
256,192,42439,1,2,0:0:0:0:
256,192,42880,1,4,0:0:0:0:
256,192,43101,1,0,0:0:0:0:
256,192,43322,1,0,0:0:0:0:
256,192,43432,1,0,0:0:0:0:
256,192,43542,1,2,0:0:0:0:
256,192,43652,1,2,0:0:0:0:
256,192,43873,1,2,0:0:0:0:
256,192,44094,1,0,0:0:0:0:
256,192,44204,1,2,0:0:0:0:
256,192,44314,1,0,0:0:0:0:
256,192,44425,1,0,0:0:0:0:
256,192,44645,1,0,0:0:0:0:
256,192,44866,1,0,0:0:0:0:
256,192,45086,1,0,0:0:0:0:
256,192,45197,1,0,0:0:0:0:
256,192,45307,1,2,0:0:0:0:
256,192,45417,1,2,0:0:0:0:
256,192,45638,1,2,0:0:0:0:
256,192,45858,1,2,0:0:0:0:
256,192,45969,1,0,0:0:0:0:
256,192,46079,1,0,0:0:0:0:
256,192,46189,1,2,0:0:0:0:
256,192,46410,1,0,0:0:0:0:
256,192,46630,1,0,0:0:0:0:
256,192,46851,1,0,0:0:0:0:
256,192,46961,1,0,0:0:0:0:
256,192,47072,1,2,0:0:0:0:
256,192,47182,1,2,0:0:0:0:
256,192,47402,1,2,0:0:0:0:
256,192,47623,1,0,0:0:0:0:
256,192,47733,1,2,0:0:0:0:
256,192,47844,1,0,0:0:0:0:
256,192,47954,1,0,0:0:0:0:
256,192,48175,1,0,0:0:0:0:
256,192,48395,1,0,0:0:0:0:
256,192,48616,1,0,0:0:0:0:
256,192,48726,1,0,0:0:0:0:
256,192,48836,1,2,0:0:0:0:
256,192,48947,1,2,0:0:0:0:
256,192,49167,1,2,0:0:0:0:
256,192,49388,1,2,0:0:0:0:
256,192,49498,1,0,0:0:0:0:
256,192,49939,1,6,0:0:0:0:
256,192,50160,1,2,0:0:0:0:
256,192,50380,1,2,0:0:0:0:
256,192,50491,1,2,0:0:0:0:
256,192,50601,1,0,0:0:0:0:
256,192,50711,1,0,0:0:0:0:
256,192,50932,1,0,0:0:0:0:
256,192,51152,1,2,0:0:0:0:
256,192,51263,1,0,0:0:0:0:
256,192,51373,1,2,0:0:0:0:
256,192,51483,1,2,0:0:0:0:
256,192,51704,1,2,0:0:0:0:
256,192,51925,1,2,0:0:0:0:
256,192,52145,1,2,0:0:0:0:
256,192,52255,1,2,0:0:0:0:
256,192,52366,1,0,0:0:0:0:
256,192,52476,1,0,0:0:0:0:
256,192,52697,1,0,0:0:0:0:
256,192,52917,1,0,0:0:0:0:
256,192,53027,1,2,0:0:0:0:
256,192,53138,1,2,0:0:0:0:
256,192,53248,1,0,0:0:0:0:
256,192,53469,1,2,0:0:0:0:
256,192,53689,1,2,0:0:0:0:
256,192,53910,1,2,0:0:0:0:
256,192,54020,1,2,0:0:0:0:
256,192,54130,1,0,0:0:0:0:
256,192,54241,1,0,0:0:0:0:
256,192,54461,1,0,0:0:0:0:
256,192,54682,1,2,0:0:0:0:
256,192,54792,1,0,0:0:0:0:
256,192,54902,1,2,0:0:0:0:
256,192,55013,1,2,0:0:0:0:
256,192,55233,1,2,0:0:0:0:
256,192,55454,1,2,0:0:0:0:
256,192,55675,1,2,0:0:0:0:
256,192,55785,1,2,0:0:0:0:
256,192,55895,1,0,0:0:0:0:
256,192,56005,1,0,0:0:0:0:
256,192,56226,1,0,0:0:0:0:
256,192,56447,1,0,0:0:0:0:
256,192,56557,1,2,0:0:0:0:
256,192,56667,1,2,0:0:0:0:
256,192,56777,1,0,0:0:0:0:
256,192,57936,1,4,0:0:0:0:
256,192,58156,12,0,61447,0:0:0:0:
