osu file format v14

[General]
AudioFilename: audio.mp3
AudioLeadIn: 0
PreviewTime: 92630
Countdown: 1
SampleSet: Normal
StackLeniency: 0.7
Mode: 1
LetterboxInBreaks: 0
WidescreenStoryboard: 1

[Editor]
Bookmarks: 2054,14977,22361,29746,37131,49130,53745,63207,77976,85360,101975
DistanceSpacing: 1.5
BeatDivisor: 8
GridSize: 32
TimelineZoom: 2.799999

[Metadata]
Title:Fill it a Try
TitleUnicode:Fill it a Try
Artist:toach
ArtistUnicode:toach
Creator:tasuke912
Version:Edit
Source:太鼓さん次郎
Tags:taikojiro taikosanjirou sample2
BeatmapID:1729490
BeatmapSetID:824580

[Difficulty]
HPDrainRate:5
CircleSize:2
OverallDifficulty:6
ApproachRate:5
SliderMultiplier:1.4
SliderTickRate:1

[Events]
//Background and Video events
0,0,"bg.jpg",0,0
//Break Periods
//Storyboard Layer 0 (Background)
//Storyboard Layer 1 (Fail)
//Storyboard Layer 2 (Pass)
//Storyboard Layer 3 (Foreground)
//Storyboard Sound Samples

[TimingPoints]
208,461.538461538462,4,1,0,70,1,0
44515,230.769230769231,5,1,0,70,1,0
44515,-100,5,1,0,70,0,1
61822,230.769230769231,6,1,0,70,1,1
61822,-100,6,1,0,70,0,1
63207,461.538461538462,4,1,0,70,1,0
63207,-50,4,1,0,70,0,0
63322,-62.5,4,1,0,70,0,0
65053,-68.9655172413793,4,1,0,70,0,0
67014,-76.9230769230769,4,1,0,70,0,0
68745,-86.9565217391304,4,1,0,70,0,0
70591,-100,4,1,0,70,0,0
91130,-66.6666666666667,4,1,0,70,0,0
92745,230.769230769231,5,1,0,70,1,0
92745,-100,5,1,0,70,0,1
110052,230.769230769231,6,1,0,70,1,1
110052,-100,6,1,0,70,0,1
111437,461.538461538462,4,1,0,70,1,0
111437,-50,4,1,0,70,0,0
111667,-66.6666666666667,4,1,0,70,0,0

[HitObjects]
256,192,2054,5,4,0:0:0:0:
256,192,2400,1,4,0:0:0:0:
256,192,2631,1,0,0:0:0:0:
256,192,2688,1,0,0:0:0:0:
256,192,2746,1,2,0:0:0:0:
256,192,2861,1,0,0:0:0:0:
256,192,2977,1,0,0:0:0:0:
256,192,3092,1,2,0:0:0:0:
256,192,3208,1,0,0:0:0:0:
256,192,3438,1,0,0:0:0:0:
256,192,3554,1,2,0:0:0:0:
256,192,3784,1,6,0:0:0:0:
256,192,4246,1,0,0:0:0:0:
256,192,4361,1,2,0:0:0:0:
256,192,4477,1,0,0:0:0:0:
256,192,4592,1,0,0:0:0:0:
256,192,4708,1,0,0:0:0:0:
256,192,4938,1,2,0:0:0:0:
256,192,5054,1,0,0:0:0:0:
256,192,5169,1,0,0:0:0:0:
256,192,5284,1,2,0:0:0:0:
256,192,5515,1,2,0:0:0:0:
256,192,5631,1,2,0:0:0:0:
256,192,5861,1,0,0:0:0:0:
256,192,6092,1,0,0:0:0:0:
256,192,6208,1,2,0:0:0:0:
256,192,6438,1,0,0:0:0:0:
256,192,6554,1,0,0:0:0:0:
256,192,6669,1,2,0:0:0:0:
256,192,6784,1,2,0:0:0:0:
256,192,6900,1,0,0:0:0:0:
256,192,7015,1,0,0:0:0:0:
256,192,7131,1,2,0:0:0:0:
256,192,7246,1,0,0:0:0:0:
256,192,7477,1,6,0:0:0:0:
256,192,7938,1,0,0:0:0:0:
256,192,8054,1,2,0:0:0:0:
256,192,8284,1,0,0:0:0:0:
256,192,8400,1,0,0:0:0:0:
256,192,8631,1,0,0:0:0:0:
256,192,8861,1,0,0:0:0:0:
256,192,8977,1,2,0:0:0:0:
256,192,9208,1,0,0:0:0:0:
256,192,9554,1,0,0:0:0:0:
256,192,9784,1,0,0:0:0:0:
256,192,9900,1,2,0:0:0:0:
256,192,10131,1,0,0:0:0:0:
256,192,10246,1,0,0:0:0:0:
256,192,10477,1,2,0:0:0:0:
256,192,10592,1,0,0:0:0:0:
256,192,10708,1,0,0:0:0:0:
256,192,10823,1,2,0:0:0:0:
256,192,11054,1,2,0:0:0:0:
256,192,11169,1,2,0:0:0:0:
256,192,11400,1,0,0:0:0:0:
256,192,11631,1,0,0:0:0:0:
256,192,11746,1,2,0:0:0:0:
256,192,11977,1,0,0:0:0:0:
256,192,12092,1,0,0:0:0:0:
256,192,12438,1,0,0:0:0:0:
256,192,12669,1,2,0:0:0:0:
256,192,13015,1,0,0:0:0:0:
256,192,13246,1,0,0:0:0:0:
256,192,13477,1,0,0:0:0:0:
256,192,13592,1,2,0:0:0:0:
256,192,13823,1,0,0:0:0:0:
256,192,13938,1,2,0:0:0:0:
256,192,14169,1,2,0:0:0:0:
256,192,14284,1,0,0:0:0:0:
256,192,14400,1,0,0:0:0:0:
256,192,14515,1,2,0:0:0:0:
256,192,14746,1,2,0:0:0:0:
256,192,14861,1,2,0:0:0:0:
256,192,14977,1,0,0:0:0:0:
256,192,15092,1,2,0:0:0:0:
256,192,15208,1,0,0:0:0:0:
256,192,15323,1,2,0:0:0:0:
256,192,15438,1,2,0:0:0:0:
256,192,15554,1,0,0:0:0:0:
256,192,15669,1,0,0:0:0:0:
256,192,15784,1,2,0:0:0:0:
256,192,16015,1,2,0:0:0:0:
256,192,16246,1,0,0:0:0:0:
256,192,16361,1,2,0:0:0:0:
256,192,16477,1,0,0:0:0:0:
256,192,16592,1,0,0:0:0:0:
256,192,16708,1,2,0:0:0:0:
256,192,16823,1,0,0:0:0:0:
256,192,17054,1,2,0:0:0:0:
256,192,17169,1,0,0:0:0:0:
256,192,17400,1,0,0:0:0:0:
256,192,17515,1,2,0:0:0:0:
256,192,17631,1,0,0:0:0:0:
256,192,17746,1,0,0:0:0:0:
256,192,17861,1,2,0:0:0:0:
256,192,18092,1,0,0:0:0:0:
256,192,18208,1,2,0:0:0:0:
256,192,18323,1,0,0:0:0:0:
256,192,18438,1,2,0:0:0:0:
256,192,18554,1,2,0:0:0:0:
256,192,18669,1,0,0:0:0:0:
256,192,18900,1,2,0:0:0:0:
256,192,19015,1,0,0:0:0:0:
256,192,19246,1,0,0:0:0:0:
256,192,19361,1,2,0:0:0:0:
256,192,19477,1,0,0:0:0:0:
256,192,19708,1,2,0:0:0:0:
256,192,19823,1,0,0:0:0:0:
256,192,19938,1,0,0:0:0:0:
256,192,20054,1,2,0:0:0:0:
256,192,20169,1,0,0:0:0:0:
256,192,20284,1,2,0:0:0:0:
256,192,20400,1,2,0:0:0:0:
256,192,20515,1,0,0:0:0:0:
256,192,20746,1,2,0:0:0:0:
256,192,20861,1,0,0:0:0:0:
256,192,21092,1,0,0:0:0:0:
256,192,21208,1,2,0:0:0:0:
256,192,21323,1,2,0:0:0:0:
256,192,21554,1,2,0:0:0:0:
256,192,21669,1,2,0:0:0:0:
256,192,21784,1,0,0:0:0:0:
256,192,21900,1,2,0:0:0:0:
256,192,22015,1,0,0:0:0:0:
256,192,22131,1,2,0:0:0:0:
256,192,22246,1,2,0:0:0:0:
256,192,22361,1,0,0:0:0:0:
256,192,22477,1,2,0:0:0:0:
256,192,22592,1,0,0:0:0:0:
256,192,22708,1,2,0:0:0:0:
256,192,22823,1,2,0:0:0:0:
256,192,22938,1,0,0:0:0:0:
256,192,23054,1,0,0:0:0:0:
256,192,23169,1,2,0:0:0:0:
256,192,23400,1,2,0:0:0:0:
256,192,23631,1,0,0:0:0:0:
256,192,23746,1,2,0:0:0:0:
256,192,23861,1,0,0:0:0:0:
256,192,23977,1,0,0:0:0:0:
256,192,24092,1,2,0:0:0:0:
256,192,24208,1,0,0:0:0:0:
256,192,24438,1,2,0:0:0:0:
256,192,24554,1,0,0:0:0:0:
256,192,24784,1,0,0:0:0:0:
256,192,24900,1,2,0:0:0:0:
256,192,25015,1,0,0:0:0:0:
256,192,25131,1,0,0:0:0:0:
256,192,25246,1,2,0:0:0:0:
256,192,25477,1,0,0:0:0:0:
256,192,25592,1,2,0:0:0:0:
256,192,25823,1,2,0:0:0:0:
256,192,25938,1,2,0:0:0:0:
256,192,26054,1,0,0:0:0:0:
256,192,26284,1,2,0:0:0:0:
256,192,26400,1,0,0:0:0:0:
256,192,26631,1,0,0:0:0:0:
256,192,26746,1,2,0:0:0:0:
256,192,26861,1,0,0:0:0:0:
256,192,26977,1,0,0:0:0:0:
256,192,27092,1,2,0:0:0:0:
256,192,27208,1,2,0:0:0:0:
256,192,27323,1,0,0:0:0:0:
256,192,27438,1,2,0:0:0:0:
256,192,27669,1,2,0:0:0:0:
256,192,27784,1,2,0:0:0:0:
256,192,27900,1,0,0:0:0:0:
256,192,28015,1,0,0:0:0:0:
256,192,28246,1,0,0:0:0:0:
256,192,28361,1,2,0:0:0:0:
256,192,28592,1,2,0:0:0:0:
256,192,28708,1,0,0:0:0:0:
256,192,28823,1,0,0:0:0:0:
256,192,28938,1,2,0:0:0:0:
256,192,29054,1,0,0:0:0:0:
256,192,29169,1,0,0:0:0:0:
256,192,29284,1,2,0:0:0:0:
256,192,29515,1,2,0:0:0:0:
256,192,29631,1,2,0:0:0:0:
256,192,29746,1,0,0:0:0:0:
256,192,29977,1,2,0:0:0:0:
256,192,30092,1,0,0:0:0:0:
256,192,30208,1,2,0:0:0:0:
256,192,30323,1,2,0:0:0:0:
256,192,30438,1,0,0:0:0:0:
256,192,30554,1,0,0:0:0:0:
256,192,30784,1,2,0:0:0:0:
256,192,30900,1,0,0:0:0:0:
256,192,31015,1,0,0:0:0:0:
256,192,31131,1,2,0:0:0:0:
256,192,31246,1,0,0:0:0:0:
256,192,31361,1,0,0:0:0:0:
256,192,31477,1,2,0:0:0:0:
256,192,31592,1,0,0:0:0:0:
256,192,31708,1,0,0:0:0:0:
256,192,31938,1,0,0:0:0:0:
256,192,32054,1,2,0:0:0:0:
256,192,32169,1,2,0:0:0:0:
256,192,32284,1,0,0:0:0:0:
256,192,32400,1,2,0:0:0:0:
256,192,32631,1,2,0:0:0:0:
256,192,32746,1,0,0:0:0:0:
256,192,32861,1,0,0:0:0:0:
256,192,32977,1,2,0:0:0:0:
256,192,33208,1,2,0:0:0:0:
256,192,33323,1,2,0:0:0:0:
256,192,33438,1,0,0:0:0:0:
256,192,33554,1,2,0:0:0:0:
256,192,33784,1,0,0:0:0:0:
256,192,33900,1,2,0:0:0:0:
256,192,34015,1,2,0:0:0:0:
256,192,34131,1,0,0:0:0:0:
256,192,34246,1,2,0:0:0:0:
256,192,34477,1,2,0:0:0:0:
256,192,34708,1,0,0:0:0:0:
256,192,34823,1,2,0:0:0:0:
256,192,34938,1,0,0:0:0:0:
256,192,35054,1,0,0:0:0:0:
256,192,35169,1,2,0:0:0:0:
256,192,35400,1,0,0:0:0:0:
256,192,35631,1,2,0:0:0:0:
256,192,35746,1,0,0:0:0:0:
256,192,35861,1,2,0:0:0:0:
256,192,35977,1,2,0:0:0:0:
256,192,36092,1,0,0:0:0:0:
256,192,36323,1,2,0:0:0:0:
256,192,36438,1,2,0:0:0:0:
256,192,36554,1,0,0:0:0:0:
256,192,36669,1,2,0:0:0:0:
256,192,36900,1,0,0:0:0:0:
256,192,37015,1,0,0:0:0:0:
256,192,37131,1,0,0:0:0:0:
256,192,37361,1,2,0:0:0:0:
256,192,37477,1,0,0:0:0:0:
256,192,37592,1,2,0:0:0:0:
256,192,37708,1,2,0:0:0:0:
256,192,37823,1,0,0:0:0:0:
256,192,37938,1,0,0:0:0:0:
256,192,38169,1,2,0:0:0:0:
256,192,38284,1,0,0:0:0:0:
256,192,38400,1,0,0:0:0:0:
256,192,38515,1,2,0:0:0:0:
256,192,38631,1,0,0:0:0:0:
256,192,38746,1,2,0:0:0:0:
256,192,38861,1,2,0:0:0:0:
256,192,38977,1,0,0:0:0:0:
256,192,39092,1,2,0:0:0:0:
256,192,39208,1,2,0:0:0:0:
256,192,39323,1,0,0:0:0:0:
256,192,39438,1,2,0:0:0:0:
256,192,39669,1,0,0:0:0:0:
256,192,39784,1,2,0:0:0:0:
256,192,40015,1,2,0:0:0:0:
256,192,40246,1,0,0:0:0:0:
256,192,40361,1,2,0:0:0:0:
256,192,40477,1,0,0:0:0:0:
256,192,40592,1,2,0:0:0:0:
256,192,40708,1,2,0:0:0:0:
256,192,40823,1,0,0:0:0:0:
256,192,40938,1,0,0:0:0:0:
256,192,41169,1,0,0:0:0:0:
256,192,41284,1,2,0:0:0:0:
256,192,41515,1,0,0:0:0:0:
256,192,41631,1,2,0:0:0:0:
256,192,41746,1,0,0:0:0:0:
256,192,41861,1,2,0:0:0:0:
256,192,41977,1,0,0:0:0:0:
256,192,42092,1,0,0:0:0:0:
256,192,42208,1,2,0:0:0:0:
256,192,42438,1,2,0:0:0:0:
256,192,42554,1,2,0:0:0:0:
256,192,42669,1,0,0:0:0:0:
256,192,42900,1,2,0:0:0:0:
256,192,43015,1,0,0:0:0:0:
256,192,43246,1,2,0:0:0:0:
256,192,43361,1,0,0:0:0:0:
256,192,43477,1,0,0:0:0:0:
256,192,43592,1,2,0:0:0:0:
256,192,43708,1,0,0:0:0:0:
256,192,43823,1,0,0:0:0:0:
256,192,43938,1,2,0:0:0:0:
256,192,44054,1,0,0:0:0:0:
256,192,44169,1,2,0:0:0:0:
256,192,44284,1,2,0:0:0:0:
256,192,44400,1,2,0:0:0:0:
256,192,44515,1,0,0:0:0:0:
256,192,44745,1,2,0:0:0:0:
256,192,44861,1,0,0:0:0:0:
256,192,44976,1,2,0:0:0:0:
256,192,45034,1,2,0:0:0:0:
256,192,45091,1,2,0:0:0:0:
256,192,45207,1,0,0:0:0:0:
256,192,45265,1,0,0:0:0:0:
256,192,45322,1,0,0:0:0:0:
256,192,45380,1,0,0:0:0:0:
256,192,45438,1,2,0:0:0:0:
256,192,45553,1,2,0:0:0:0:
256,192,45668,1,0,0:0:0:0:
256,192,45784,1,0,0:0:0:0:
256,192,45841,1,0,0:0:0:0:
256,192,45899,1,2,0:0:0:0:
256,192,46015,1,0,0:0:0:0:
256,192,46130,1,2,0:0:0:0:
256,192,46188,1,2,0:0:0:0:
256,192,46245,1,0,0:0:0:0:
256,192,46361,1,2,0:0:0:0:
256,192,46476,1,0,0:0:0:0:
256,192,46591,1,2,0:0:0:0:
256,192,46649,1,2,0:0:0:0:
256,192,46707,1,2,0:0:0:0:
256,192,46765,1,2,0:0:0:0:
256,192,46822,1,0,0:0:0:0:
256,192,46938,1,0,0:0:0:0:
256,192,47053,1,2,0:0:0:0:
256,192,47168,1,0,0:0:0:0:
256,192,47226,1,0,0:0:0:0:
256,192,47284,1,2,0:0:0:0:
256,192,47341,1,2,0:0:0:0:
256,192,47399,1,0,0:0:0:0:
256,192,47515,1,2,0:0:0:0:
256,192,47630,1,0,0:0:0:0:
256,192,47688,1,2,0:0:0:0:
256,192,47745,1,2,0:0:0:0:
256,192,47861,1,2,0:0:0:0:
256,192,47976,1,0,0:0:0:0:
256,192,48091,1,0,0:0:0:0:
256,192,48207,1,2,0:0:0:0:
256,192,48322,1,0,0:0:0:0:
256,192,48380,1,0,0:0:0:0:
256,192,48438,1,2,0:0:0:0:
256,192,48495,1,0,0:0:0:0:
256,192,48553,1,0,0:0:0:0:
256,192,48668,1,2,0:0:0:0:
256,192,48726,1,0,0:0:0:0:
256,192,48784,1,2,0:0:0:0:
256,192,48841,1,2,0:0:0:0:
256,192,48899,1,0,0:0:0:0:
256,192,48957,1,2,0:0:0:0:
256,192,49015,1,2,0:0:0:0:
256,192,49072,1,2,0:0:0:0:
256,192,49130,1,0,0:0:0:0:
256,192,49245,1,0,0:0:0:0:
256,192,49361,1,2,0:0:0:0:
256,192,49476,1,0,0:0:0:0:
256,192,49534,1,2,0:0:0:0:
256,192,49591,1,0,0:0:0:0:
256,192,49649,1,0,0:0:0:0:
256,192,49707,1,2,0:0:0:0:
256,192,49822,1,0,0:0:0:0:
256,192,49938,1,2,0:0:0:0:
256,192,49995,1,2,0:0:0:0:
256,192,50053,1,0,0:0:0:0:
256,192,50168,1,2,0:0:0:0:
256,192,50284,1,0,0:0:0:0:
256,192,50399,1,2,0:0:0:0:
256,192,50457,1,0,0:0:0:0:
256,192,50515,1,2,0:0:0:0:
256,192,50630,1,0,0:0:0:0:
256,192,50745,1,2,0:0:0:0:
256,192,50803,1,2,0:0:0:0:
256,192,50861,1,0,0:0:0:0:
256,192,50918,1,0,0:0:0:0:
256,192,50976,1,2,0:0:0:0:
256,192,51091,1,0,0:0:0:0:
256,192,51207,1,2,0:0:0:0:
256,192,51322,1,2,0:0:0:0:
256,192,51380,1,2,0:0:0:0:
256,192,51438,1,0,0:0:0:0:
256,192,51553,1,0,0:0:0:0:
256,192,51611,1,2,0:0:0:0:
256,192,51668,1,0,0:0:0:0:
256,192,51784,1,2,0:0:0:0:
256,192,51899,1,0,0:0:0:0:
256,192,51957,1,2,0:0:0:0:
256,192,52015,1,2,0:0:0:0:
256,192,52072,1,2,0:0:0:0:
256,192,52130,1,0,0:0:0:0:
256,192,52245,1,2,0:0:0:0:
256,192,52361,1,0,0:0:0:0:
256,192,52418,1,0,0:0:0:0:
256,192,52476,1,2,0:0:0:0:
256,192,52534,1,2,0:0:0:0:
256,192,52591,1,0,0:0:0:0:
256,192,52707,1,2,0:0:0:0:
256,192,52765,1,0,0:0:0:0:
256,192,52822,1,0,0:0:0:0:
256,192,52938,1,2,0:0:0:0:
256,192,53053,1,0,0:0:0:0:
256,192,53111,1,0,0:0:0:0:
256,192,53168,1,2,0:0:0:0:
256,192,53284,1,0,0:0:0:0:
256,192,53341,1,2,0:0:0:0:
256,192,53399,1,2,0:0:0:0:
256,192,53457,1,2,0:0:0:0:
256,192,53515,1,0,0:0:0:0:
256,192,53572,1,0,0:0:0:0:
256,192,53630,1,2,0:0:0:0:
256,192,53688,1,2,0:0:0:0:
256,192,53745,1,0,0:0:0:0:
256,192,53861,1,0,0:0:0:0:
256,192,53976,1,2,0:0:0:0:
256,192,54091,1,0,0:0:0:0:
256,192,54149,1,2,0:0:0:0:
256,192,54207,1,0,0:0:0:0:
256,192,54322,1,2,0:0:0:0:
256,192,54438,1,0,0:0:0:0:
256,192,54495,1,0,0:0:0:0:
256,192,54553,1,0,0:0:0:0:
256,192,54611,1,0,0:0:0:0:
256,192,54668,1,2,0:0:0:0:
256,192,54784,1,2,0:0:0:0:
256,192,54899,1,0,0:0:0:0:
256,192,54957,1,2,0:0:0:0:
256,192,55015,1,2,0:0:0:0:
256,192,55130,1,0,0:0:0:0:
256,192,55245,1,2,0:0:0:0:
256,192,55303,1,0,0:0:0:0:
256,192,55361,1,2,0:0:0:0:
256,192,55476,1,0,0:0:0:0:
256,192,55591,1,2,0:0:0:0:
256,192,55649,1,2,0:0:0:0:
256,192,55707,1,0,0:0:0:0:
256,192,55765,1,0,0:0:0:0:
256,192,55822,1,2,0:0:0:0:
256,192,55880,1,2,0:0:0:0:
256,192,55938,1,2,0:0:0:0:
256,192,55995,1,2,0:0:0:0:
256,192,56053,1,0,0:0:0:0:
256,192,56168,1,2,0:0:0:0:
256,192,56284,1,0,0:0:0:0:
256,192,56399,1,0,0:0:0:0:
256,192,56457,1,0,0:0:0:0:
256,192,56515,1,2,0:0:0:0:
256,192,56630,1,0,0:0:0:0:
256,192,56745,1,2,0:0:0:0:
256,192,56803,1,2,0:0:0:0:
256,192,56861,1,0,0:0:0:0:
256,192,56918,1,0,0:0:0:0:
256,192,56976,1,0,0:0:0:0:
256,192,57091,1,2,0:0:0:0:
256,192,57207,1,0,0:0:0:0:
256,192,57322,1,2,0:0:0:0:
256,192,57380,1,0,0:0:0:0:
256,192,57438,1,2,0:0:0:0:
256,192,57553,1,0,0:0:0:0:
256,192,57668,1,2,0:0:0:0:
256,192,57726,1,2,0:0:0:0:
256,192,57784,1,0,0:0:0:0:
256,192,57841,1,2,0:0:0:0:
256,192,57899,1,0,0:0:0:0:
256,192,57957,1,0,0:0:0:0:
256,192,58015,1,0,0:0:0:0:
256,192,58072,1,0,0:0:0:0:
256,192,58130,1,2,0:0:0:0:
256,192,58188,1,2,0:0:0:0:
256,192,58245,1,2,0:0:0:0:
256,192,58361,1,0,0:0:0:0:
256,192,58476,1,2,0:0:0:0:
256,192,58534,1,2,0:0:0:0:
256,192,58591,1,0,0:0:0:0:
256,192,58707,1,2,0:0:0:0:
256,192,58822,1,0,0:0:0:0:
256,192,58880,1,0,0:0:0:0:
256,192,58938,1,2,0:0:0:0:
256,192,58995,1,2,0:0:0:0:
256,192,59053,1,0,0:0:0:0:
256,192,59168,1,2,0:0:0:0:
256,192,59284,1,0,0:0:0:0:
256,192,59341,1,2,0:0:0:0:
256,192,59399,1,2,0:0:0:0:
256,192,59515,1,0,0:0:0:0:
256,192,59630,1,2,0:0:0:0:
256,192,59688,1,0,0:0:0:0:
256,192,59745,1,2,0:0:0:0:
256,192,59861,1,0,0:0:0:0:
256,192,59976,1,2,0:0:0:0:
256,192,60034,1,2,0:0:0:0:
256,192,60091,1,0,0:0:0:0:
256,192,60149,1,0,0:0:0:0:
256,192,60207,1,2,0:0:0:0:
256,192,60322,1,0,0:0:0:0:
256,192,60438,1,2,0:0:0:0:
256,192,60553,1,2,0:0:0:0:
256,192,60611,1,2,0:0:0:0:
256,192,60668,1,0,0:0:0:0:
256,192,60726,1,2,0:0:0:0:
256,192,60784,1,0,0:0:0:0:
256,192,60899,1,2,0:0:0:0:
256,192,61015,1,2,0:0:0:0:
256,192,61072,1,0,0:0:0:0:
256,192,61130,1,2,0:0:0:0:
256,192,61188,1,2,0:0:0:0:
256,192,61245,1,0,0:0:0:0:
256,192,61303,1,0,0:0:0:0:
256,192,61361,1,2,0:0:0:0:
256,192,61418,1,0,0:0:0:0:
256,192,61476,1,0,0:0:0:0:
256,192,61534,1,0,0:0:0:0:
256,192,61591,1,2,0:0:0:0:
256,192,61707,1,2,0:0:0:0:
256,192,61765,1,2,0:0:0:0:
256,192,61822,1,0,0:0:0:0:
256,192,61937,1,2,0:0:0:0:
256,192,62052,1,0,0:0:0:0:
256,192,62168,1,0,0:0:0:0:
256,192,62225,1,0,0:0:0:0:
256,192,62283,1,2,0:0:0:0:
256,192,62398,1,2,0:0:0:0:
256,192,62514,1,0,0:0:0:0:
256,192,62572,1,2,0:0:0:0:
256,192,62629,1,2,0:0:0:0:
256,192,62687,1,2,0:0:0:0:
256,192,62745,1,0,0:0:0:0:
256,192,62802,1,0,0:0:0:0:
256,192,62860,1,2,0:0:0:0:
256,192,62918,1,2,0:0:0:0:
256,192,62975,1,0,0:0:0:0:
256,192,63033,1,2,0:0:0:0:
256,192,63091,1,2,0:0:0:0:
256,192,63148,1,2,0:0:0:0:
256,192,63206,1,0,0:0:0:0:
256,192,63553,1,0,0:0:0:0:
256,192,63668,1,2,0:0:0:0:
256,192,63899,1,0,0:0:0:0:
256,192,64014,1,0,0:0:0:0:
256,192,64245,1,0,0:0:0:0:
256,192,64591,1,2,0:0:0:0:
256,192,64707,1,0,0:0:0:0:
256,192,65053,1,0,0:0:0:0:
256,192,65399,1,0,0:0:0:0:
256,192,65514,1,2,0:0:0:0:
256,192,65630,1,0,0:0:0:0:
256,192,65745,1,0,0:0:0:0:
256,192,65860,1,2,0:0:0:0:
256,192,66091,1,2,0:0:0:0:
256,192,66207,1,2,0:0:0:0:
256,192,66322,1,0,0:0:0:0:
256,192,66437,1,0,0:0:0:0:
256,192,66553,1,2,0:0:0:0:
256,192,66783,1,2,0:0:0:0:
256,192,66899,1,0,0:0:0:0:
256,192,67360,1,2,0:0:0:0:
256,192,67591,1,0,0:0:0:0:
256,192,67707,1,0,0:0:0:0:
256,192,67937,1,0,0:0:0:0:
256,192,68283,1,2,0:0:0:0:
256,192,68399,1,0,0:0:0:0:
256,192,68514,1,0,0:0:0:0:
256,192,68745,1,2,0:0:0:0:
256,192,69091,1,0,0:0:0:0:
256,192,69207,1,2,0:0:0:0:
256,192,69553,1,0,0:0:0:0:
256,192,69668,1,0,0:0:0:0:
256,192,69783,1,2,0:0:0:0:
256,192,70130,1,2,0:0:0:0:
256,192,70360,1,2,0:0:0:0:
256,192,70591,1,0,0:0:0:0:
256,192,70937,1,0,0:0:0:0:
256,192,71053,1,2,0:0:0:0:
256,192,71283,1,0,0:0:0:0:
256,192,71399,1,0,0:0:0:0:
256,192,71630,1,0,0:0:0:0:
256,192,71976,1,2,0:0:0:0:
256,192,72207,1,2,0:0:0:0:
256,192,72322,1,2,0:0:0:0:
256,192,72437,1,0,0:0:0:0:
256,192,72783,1,0,0:0:0:0:
256,192,72899,1,2,0:0:0:0:
256,192,73014,1,0,0:0:0:0:
256,192,73130,1,0,0:0:0:0:
256,192,73245,1,2,0:0:0:0:
256,192,73476,1,2,0:0:0:0:
256,192,73591,1,2,0:0:0:0:
256,192,73707,1,0,0:0:0:0:
256,192,73822,1,0,0:0:0:0:
256,192,73937,1,2,0:0:0:0:
256,192,74168,1,2,0:0:0:0:
256,192,74283,1,0,0:0:0:0:
256,192,74630,1,0,0:0:0:0:
256,192,74745,1,2,0:0:0:0:
256,192,74860,1,0,0:0:0:0:
256,192,74976,1,0,0:0:0:0:
256,192,75091,1,0,0:0:0:0:
256,192,75322,1,0,0:0:0:0:
256,192,75668,1,2,0:0:0:0:
256,192,75783,1,0,0:0:0:0:
256,192,75899,1,0,0:0:0:0:
256,192,76130,1,2,0:0:0:0:
256,192,76476,1,0,0:0:0:0:
256,192,76591,1,2,0:0:0:0:
256,192,76822,1,0,0:0:0:0:
256,192,76937,1,0,0:0:0:0:
256,192,77053,1,0,0:0:0:0:
256,192,77168,1,2,0:0:0:0:
256,192,77283,1,0,0:0:0:0:
256,192,77399,1,0,0:0:0:0:
256,192,77514,1,2,0:0:0:0:
256,192,77745,1,2,0:0:0:0:
256,192,77860,1,2,0:0:0:0:
256,192,77976,1,0,0:0:0:0:
256,192,78091,1,2,0:0:0:0:
256,192,78207,1,0,0:0:0:0:
256,192,78322,1,2,0:0:0:0:
256,192,78437,1,2,0:0:0:0:
256,192,78553,1,0,0:0:0:0:
256,192,78668,1,0,0:0:0:0:
256,192,78783,1,2,0:0:0:0:
256,192,79014,1,2,0:0:0:0:
256,192,79072,1,2,0:0:0:0:
256,192,79130,1,2,0:0:0:0:
256,192,79245,1,0,0:0:0:0:
256,192,79360,1,2,0:0:0:0:
256,192,79476,1,0,0:0:0:0:
256,192,79591,1,0,0:0:0:0:
256,192,79707,1,2,0:0:0:0:
256,192,79822,1,0,0:0:0:0:
256,192,79937,1,2,0:0:0:0:
256,192,79995,1,2,0:0:0:0:
256,192,80053,1,2,0:0:0:0:
256,192,80168,1,0,0:0:0:0:
256,192,80283,1,2,0:0:0:0:
256,192,80399,1,0,0:0:0:0:
256,192,80514,1,0,0:0:0:0:
256,192,80630,1,2,0:0:0:0:
256,192,80860,1,2,0:0:0:0:
256,192,80976,1,0,0:0:0:0:
256,192,81091,1,2,0:0:0:0:
256,192,81207,1,0,0:0:0:0:
256,192,81322,1,0,0:0:0:0:
256,192,81380,1,0,0:0:0:0:
256,192,81437,1,2,0:0:0:0:
256,192,81553,1,2,0:0:0:0:
256,192,81668,1,0,0:0:0:0:
256,192,81899,1,2,0:0:0:0:
256,192,82014,1,0,0:0:0:0:
256,192,82130,1,2,0:0:0:0:
256,192,82187,1,2,0:0:0:0:
256,192,82245,1,0,0:0:0:0:
256,192,82360,1,0,0:0:0:0:
256,192,82476,1,2,0:0:0:0:
256,192,82707,1,2,0:0:0:0:
256,192,82822,1,0,0:0:0:0:
256,192,83053,1,2,0:0:0:0:
256,192,83168,1,0,0:0:0:0:
256,192,83283,1,2,0:0:0:0:
256,192,83399,1,2,0:0:0:0:
256,192,83514,1,2,0:0:0:0:
256,192,83630,1,0,0:0:0:0:
256,192,83687,1,0,0:0:0:0:
256,192,83745,1,0,0:0:0:0:
256,192,83860,1,2,0:0:0:0:
256,192,84091,1,2,0:0:0:0:
256,192,84207,1,0,0:0:0:0:
256,192,84322,1,2,0:0:0:0:
256,192,84380,1,2,0:0:0:0:
256,192,84437,1,2,0:0:0:0:
256,192,84553,1,2,0:0:0:0:
256,192,84668,1,0,0:0:0:0:
256,192,84783,1,2,0:0:0:0:
256,192,84841,1,2,0:0:0:0:
256,192,84899,1,2,0:0:0:0:
256,192,85014,1,2,0:0:0:0:
256,192,85245,1,2,0:0:0:0:
256,192,85360,1,0,0:0:0:0:
256,192,85707,1,0,0:0:0:0:
256,192,85822,1,2,0:0:0:0:
256,192,85937,1,0,0:0:0:0:
256,192,86053,1,2,0:0:0:0:
256,192,86168,1,2,0:0:0:0:
256,192,86399,1,2,0:0:0:0:
256,192,86630,1,0,0:0:0:0:
256,192,86745,1,2,0:0:0:0:
256,192,86860,1,0,0:0:0:0:
256,192,86918,1,0,0:0:0:0:
256,192,86976,1,2,0:0:0:0:
256,192,87091,1,2,0:0:0:0:
256,192,87207,1,0,0:0:0:0:
256,192,87264,1,2,0:0:0:0:
256,192,87322,1,2,0:0:0:0:
256,192,87437,1,0,0:0:0:0:
256,192,87553,1,2,0:0:0:0:
256,192,87610,1,2,0:0:0:0:
256,192,87668,1,2,0:0:0:0:
256,192,87783,1,0,0:0:0:0:
256,192,87899,1,0,0:0:0:0:
256,192,88014,1,2,0:0:0:0:
256,192,88245,1,2,0:0:0:0:
256,192,88360,1,0,0:0:0:0:
256,192,88476,1,2,0:0:0:0:
256,192,88591,1,0,0:0:0:0:
256,192,88707,1,0,0:0:0:0:
256,192,88764,1,0,0:0:0:0:
256,192,88822,1,2,0:0:0:0:
256,192,88937,1,2,0:0:0:0:
256,192,89053,1,0,0:0:0:0:
256,192,89399,1,0,0:0:0:0:
256,192,89514,1,2,0:0:0:0:
256,192,89745,1,0,0:0:0:0:
256,192,89860,1,0,0:0:0:0:
256,192,90091,1,0,0:0:0:0:
256,192,90322,1,0,0:0:0:0:
256,192,90437,1,2,0:0:0:0:
256,192,90553,1,0,0:0:0:0:
256,192,90668,1,0,0:0:0:0:
256,192,90899,1,0,0:0:0:0:
256,192,91130,1,6,0:0:0:0:
256,192,91360,1,6,0:0:0:0:
256,192,91476,1,6,0:0:0:0:
256,192,91707,1,6,0:0:0:0:
256,192,91937,1,6,0:0:0:0:
256,192,92168,1,6,0:0:0:0:
256,192,92283,1,6,0:0:0:0:
256,192,92514,1,6,0:0:0:0:
256,192,92745,5,4,0:0:0:0:
256,192,92975,1,2,0:0:0:0:
256,192,93091,1,0,0:0:0:0:
256,192,93206,1,2,0:0:0:0:
256,192,93264,1,2,0:0:0:0:
256,192,93321,1,0,0:0:0:0:
256,192,93437,1,2,0:0:0:0:
256,192,93552,1,0,0:0:0:0:
256,192,93668,1,2,0:0:0:0:
256,192,93725,1,2,0:0:0:0:
256,192,93783,1,2,0:0:0:0:
256,192,93898,1,0,0:0:0:0:
256,192,94014,1,0,0:0:0:0:
256,192,94071,1,0,0:0:0:0:
256,192,94129,1,2,0:0:0:0:
256,192,94245,1,2,0:0:0:0:
256,192,94360,1,0,0:0:0:0:
256,192,94418,1,0,0:0:0:0:
256,192,94475,1,2,0:0:0:0:
256,192,94533,1,0,0:0:0:0:
256,192,94591,1,2,0:0:0:0:
256,192,94706,1,2,0:0:0:0:
256,192,94821,1,0,0:0:0:0:
256,192,94879,1,2,0:0:0:0:
256,192,94937,1,0,0:0:0:0:
256,192,95052,1,0,0:0:0:0:
256,192,95168,1,2,0:0:0:0:
256,192,95225,1,0,0:0:0:0:
256,192,95283,1,0,0:0:0:0:
256,192,95398,1,2,0:0:0:0:
256,192,95514,1,0,0:0:0:0:
256,192,95571,1,0,0:0:0:0:
256,192,95629,1,2,0:0:0:0:
256,192,95687,1,2,0:0:0:0:
256,192,95745,1,0,0:0:0:0:
256,192,95860,1,2,0:0:0:0:
256,192,95975,1,0,0:0:0:0:
256,192,96033,1,2,0:0:0:0:
256,192,96091,1,2,0:0:0:0:
256,192,96206,1,0,0:0:0:0:
256,192,96321,1,2,0:0:0:0:
256,192,96379,1,2,0:0:0:0:
256,192,96437,1,0,0:0:0:0:
256,192,96552,1,0,0:0:0:0:
256,192,96610,1,2,0:0:0:0:
256,192,96668,1,0,0:0:0:0:
256,192,96725,1,0,0:0:0:0:
256,192,96783,1,2,0:0:0:0:
256,192,96841,1,2,0:0:0:0:
256,192,96898,1,0,0:0:0:0:
256,192,97014,1,2,0:0:0:0:
256,192,97129,1,0,0:0:0:0:
256,192,97187,1,2,0:0:0:0:
256,192,97245,1,2,0:0:0:0:
256,192,97360,1,0,0:0:0:0:
256,192,97475,1,2,0:0:0:0:
256,192,97533,1,2,0:0:0:0:
256,192,97591,1,0,0:0:0:0:
256,192,97706,1,0,0:0:0:0:
256,192,97821,1,2,0:0:0:0:
256,192,97879,1,2,0:0:0:0:
256,192,97937,1,0,0:0:0:0:
256,192,97995,1,0,0:0:0:0:
256,192,98052,1,2,0:0:0:0:
256,192,98110,1,0,0:0:0:0:
256,192,98168,1,0,0:0:0:0:
256,192,98225,1,0,0:0:0:0:
256,192,98283,1,2,0:0:0:0:
256,192,98341,1,2,0:0:0:0:
256,192,98398,1,2,0:0:0:0:
256,192,98514,1,0,0:0:0:0:
256,192,98629,1,2,0:0:0:0:
256,192,98687,1,0,0:0:0:0:
256,192,98745,1,0,0:0:0:0:
256,192,98860,1,2,0:0:0:0:
256,192,98975,1,0,0:0:0:0:
256,192,99033,1,2,0:0:0:0:
256,192,99091,1,2,0:0:0:0:
256,192,99148,1,2,0:0:0:0:
256,192,99206,1,0,0:0:0:0:
256,192,99264,1,0,0:0:0:0:
256,192,99321,1,2,0:0:0:0:
256,192,99379,1,2,0:0:0:0:
256,192,99437,1,0,0:0:0:0:
256,192,99495,1,2,0:0:0:0:
256,192,99552,1,0,0:0:0:0:
256,192,99668,1,2,0:0:0:0:
256,192,99783,1,2,0:0:0:0:
256,192,99841,1,2,0:0:0:0:
256,192,99898,1,0,0:0:0:0:
256,192,100014,1,2,0:0:0:0:
256,192,100129,1,0,0:0:0:0:
256,192,100187,1,2,0:0:0:0:
256,192,100245,1,2,0:0:0:0:
256,192,100302,1,2,0:0:0:0:
256,192,100360,1,0,0:0:0:0:
256,192,100418,1,0,0:0:0:0:
256,192,100475,1,2,0:0:0:0:
256,192,100533,1,0,0:0:0:0:
256,192,100591,1,0,0:0:0:0:
256,192,100648,1,0,0:0:0:0:
256,192,100706,1,2,0:0:0:0:
256,192,100821,1,0,0:0:0:0:
256,192,100879,1,0,0:0:0:0:
256,192,100937,1,2,0:0:0:0:
256,192,100995,1,2,0:0:0:0:
256,192,101052,1,0,0:0:0:0:
256,192,101168,1,2,0:0:0:0:
256,192,101283,1,0,0:0:0:0:
256,192,101398,1,2,0:0:0:0:
256,192,101456,1,2,0:0:0:0:
256,192,101514,1,0,0:0:0:0:
256,192,101571,1,2,0:0:0:0:
256,192,101629,1,2,0:0:0:0:
256,192,101687,1,2,0:0:0:0:
256,192,101745,1,0,0:0:0:0:
256,192,101802,1,2,0:0:0:0:
256,192,101860,1,0,0:0:0:0:
256,192,101918,1,0,0:0:0:0:
256,192,101975,1,2,0:0:0:0:
256,192,102091,1,2,0:0:0:0:
256,192,102148,1,2,0:0:0:0:
256,192,102206,1,0,0:0:0:0:
256,192,102321,1,6,0:0:0:0:
256,192,102437,1,0,0:0:0:0:
256,192,102552,1,2,0:0:0:0:
256,192,102610,1,0,0:0:0:0:
256,192,102668,1,0,0:0:0:0:
256,192,102783,1,2,0:0:0:0:
256,192,102898,1,0,0:0:0:0:
256,192,102956,1,0,0:0:0:0:
256,192,103014,1,2,0:0:0:0:
256,192,103129,1,0,0:0:0:0:
256,192,103187,1,0,0:0:0:0:
256,192,103245,1,2,0:0:0:0:
256,192,103302,1,2,0:0:0:0:
256,192,103360,1,0,0:0:0:0:
256,192,103475,1,2,0:0:0:0:
256,192,103591,1,0,0:0:0:0:
256,192,103706,1,6,0:0:0:0:
256,192,103821,1,0,0:0:0:0:
256,192,103879,1,0,0:0:0:0:
256,192,103937,1,0,0:0:0:0:
256,192,104052,1,0,0:0:0:0:
256,192,104168,1,2,0:0:0:0:
256,192,104283,1,0,0:0:0:0:
256,192,104398,1,2,0:0:0:0:
256,192,104456,1,2,0:0:0:0:
256,192,104514,1,0,0:0:0:0:
256,192,104629,1,6,0:0:0:0:
256,192,104745,1,0,0:0:0:0:
256,192,104802,1,0,0:0:0:0:
256,192,104860,1,2,0:0:0:0:
256,192,104918,1,0,0:0:0:0:
256,192,104975,1,0,0:0:0:0:
256,192,105091,1,2,0:0:0:0:
256,192,105206,1,0,0:0:0:0:
256,192,105264,1,2,0:0:0:0:
256,192,105321,1,2,0:0:0:0:
256,192,105437,1,2,0:0:0:0:
256,192,105495,1,0,0:0:0:0:
256,192,105552,1,2,0:0:0:0:
256,192,105610,1,2,0:0:0:0:
256,192,105668,1,0,0:0:0:0:
256,192,105783,1,2,0:0:0:0:
256,192,105898,1,0,0:0:0:0:
256,192,106014,1,2,0:0:0:0:
256,192,106071,1,0,0:0:0:0:
256,192,106129,1,0,0:0:0:0:
256,192,106245,1,2,0:0:0:0:
256,192,106360,1,0,0:0:0:0:
256,192,106418,1,2,0:0:0:0:
256,192,106475,1,0,0:0:0:0:
256,192,106533,1,0,0:0:0:0:
256,192,106591,1,2,0:0:0:0:
256,192,106706,1,2,0:0:0:0:
256,192,106764,1,2,0:0:0:0:
256,192,106821,1,0,0:0:0:0:
256,192,106937,1,6,0:0:0:0:
256,192,107052,1,2,0:0:0:0:
256,192,107110,1,0,0:0:0:0:
256,192,107168,1,2,0:0:0:0:
256,192,107225,1,2,0:0:0:0:
256,192,107283,1,0,0:0:0:0:
256,192,107341,1,2,0:0:0:0:
256,192,107398,1,0,0:0:0:0:
256,192,107456,1,0,0:0:0:0:
256,192,107514,1,2,0:0:0:0:
256,192,107629,1,2,0:0:0:0:
256,192,107745,1,0,0:0:0:0:
256,192,107860,1,2,0:0:0:0:
256,192,107918,1,2,0:0:0:0:
256,192,107975,1,0,0:0:0:0:
256,192,108033,1,2,0:0:0:0:
256,192,108091,1,0,0:0:0:0:
256,192,108206,1,6,0:0:0:0:
256,192,108321,1,0,0:0:0:0:
256,192,108379,1,0,0:0:0:0:
256,192,108437,1,2,0:0:0:0:
256,192,108552,1,0,0:0:0:0:
256,192,108610,1,0,0:0:0:0:
256,192,108668,1,0,0:0:0:0:
256,192,108783,1,2,0:0:0:0:
256,192,108898,1,0,0:0:0:0:
256,192,108956,1,0,0:0:0:0:
256,192,109014,1,2,0:0:0:0:
256,192,109071,1,2,0:0:0:0:
256,192,109129,1,0,0:0:0:0:
256,192,109187,1,2,0:0:0:0:
256,192,109245,1,0,0:0:0:0:
256,192,109360,1,0,0:0:0:0:
256,192,109475,1,6,0:0:0:0:
256,192,109591,1,0,0:0:0:0:
256,192,109648,1,2,0:0:0:0:
256,192,109706,1,2,0:0:0:0:
256,192,109821,1,2,0:0:0:0:
256,192,109937,1,0,0:0:0:0:
256,192,110052,1,2,0:0:0:0:
256,192,110109,1,2,0:0:0:0:
256,192,110167,1,0,0:0:0:0:
256,192,110225,1,2,0:0:0:0:
256,192,110282,1,0,0:0:0:0:
256,192,110398,1,2,0:0:0:0:
256,192,110455,1,2,0:0:0:0:
256,192,110513,1,0,0:0:0:0:
256,192,110571,1,2,0:0:0:0:
256,192,110628,1,2,0:0:0:0:
256,192,110686,1,2,0:0:0:0:
256,192,110744,1,0,0:0:0:0:
256,192,110802,1,0,0:0:0:0:
256,192,110859,1,2,0:0:0:0:
256,192,110917,1,2,0:0:0:0:
256,192,110975,1,0,0:0:0:0:
256,192,111032,1,2,0:0:0:0:
256,192,111090,1,0,0:0:0:0:
256,192,111148,1,2,0:0:0:0:
256,192,111205,1,0,0:0:0:0:
256,192,111263,1,0,0:0:0:0:
256,192,111321,1,2,0:0:0:0:
256,192,111378,1,2,0:0:0:0:
256,192,111436,1,0,0:0:0:0:
256,192,111783,1,0,0:0:0:0:
256,192,111898,1,2,0:0:0:0:
256,192,112013,1,0,0:0:0:0:
256,192,112071,1,0,0:0:0:0:
256,192,112129,1,0,0:0:0:0:
256,192,112244,1,2,0:0:0:0:
256,192,112360,1,0,0:0:0:0:
256,192,112475,1,0,0:0:0:0:
256,192,112590,1,2,0:0:0:0:
256,192,112821,1,2,0:0:0:0:
256,192,112937,1,2,0:0:0:0:
256,192,113283,1,0,0:0:0:0:
256,192,113629,1,0,0:0:0:0:
256,192,113744,1,2,0:0:0:0:
256,192,113860,1,0,0:0:0:0:
256,192,113917,1,0,0:0:0:0:
256,192,113975,1,0,0:0:0:0:
256,192,114090,1,2,0:0:0:0:
256,192,114206,1,0,0:0:0:0:
256,192,114321,1,2,0:0:0:0:
256,192,114437,1,0,0:0:0:0:
256,192,114667,1,2,0:0:0:0:
256,192,114783,1,2,0:0:0:0:
256,192,114898,1,2,0:0:0:0:
256,192,115013,1,2,0:0:0:0:
256,192,115129,1,0,0:0:0:0:
256,192,115475,1,0,0:0:0:0:
256,192,115590,1,2,0:0:0:0:
256,192,115706,1,0,0:0:0:0:
256,192,115763,1,0,0:0:0:0:
256,192,115821,1,0,0:0:0:0:
256,192,115937,1,2,0:0:0:0:
256,192,116052,1,0,0:0:0:0:
256,192,116167,1,0,0:0:0:0:
256,192,116225,1,0,0:0:0:0:
256,192,116283,1,2,0:0:0:0:
256,192,116398,1,0,0:0:0:0:
256,192,116513,1,0,0:0:0:0:
256,192,116629,1,2,0:0:0:0:
256,192,116860,1,6,0:0:0:0:
