osu file format v14

[General]
AudioFilename: audio.mp3
AudioLeadIn: 0
PreviewTime: 58957
Countdown: 0
SampleSet: Soft
StackLeniency: 1
Mode: 0
LetterboxInBreaks: 0
WidescreenStoryboard: 0

[Editor]
Bookmarks: 70665
DistanceSpacing: 1
BeatDivisor: 4
GridSize: 4
TimelineZoom: 1

[Metadata]
Title:sarabai sarabai
TitleUnicode:サラバイサラバイ
Artist:toa feat. Hatsune Miku
ArtistUnicode:とあ feat. 初音ミク
Creator:S o h
Version:Easy
Source:
Tags:vocaloid
BeatmapID:1283341
BeatmapSetID:606209

[Difficulty]
HPDrainRate:3
CircleSize:2.4
OverallDifficulty:3
ApproachRate:4
SliderMultiplier:1
SliderTickRate:1

[Events]
//Background and Video events
0,0,"bg.jpg",0,0
//Break Periods
//Storyboard Layer 0 (Background)
//Storyboard Layer 1 (Fail)
//Storyboard Layer 2 (Pass)
//Storyboard Layer 3 (Foreground)
//Storyboard Sound Samples

[TimingPoints]
56,365.853658536585,4,2,1,40,1,0
13226,365.853658536585,7,2,1,60,1,0
15787,365.853658536585,4,2,1,60,1,0
18714,365.853658536585,7,2,1,60,1,0
21275,365.853658536585,4,2,1,60,1,0
47616,-100,5,2,1,50,0,0
59323,-100,5,2,1,80,0,1
82738,365.853658536585,5,2,1,60,1,0
82738,-100,5,2,1,60,0,0

[Colours]
Combo1 : 253,200,245
Combo2 : 176,176,176
Combo3 : 237,99,179

[HitObjects]
282,135,1519,6,0,L|390:125,2,100,2|0|2,0:0|0:0|0:0,0:0:0:0:
104,228,2982,2,0,L|-4:218,2,100,2|0|2,0:0|0:0|0:0,0:0:0:0:
265,109,4446,1,2,0:0:0:0:
305,306,5177,1,2,0:0:0:0:
265,109,5909,1,2,0:0:0:0:
70,155,6641,2,0,P|57:202|69:252,1,100,2|0,0:0|0:0,0:0:0:0:
129,330,7373,5,0,0:0:0:0:
275,194,8104,2,0,L|167:202,1,100
75,208,8836,1,0,0:0:0:0:
251,301,9568,1,0,0:0:0:0:
297,114,10299,1,2,0:0:0:0:
439,254,11031,6,0,L|326:284,1,100,2|0,0:0|0:0,0:0:0:0:
94,292,13226,6,0,P|68:219|95:154,2,150,4|0|8,0:0|0:0|0:0,0:0:0:0:
240,325,14873,2,0,L|396:298,1,150,0|10,0:0|0:0,0:0:0:0:
459,230,15787,6,0,P|471:159|436:81,2,150,0|0|8,0:0|0:0|0:0,0:0:0:0:
345,131,17434,2,0,L|193:147,1,150,2|0,0:0|0:0,0:0:0:0:
128,72,18348,1,8,0:0:0:0:
39,117,18714,6,0,P|18:192|40:266,2,150,4|0|8,0:0|0:0|0:0,0:0:0:0:
171,46,20360,2,0,L|324:64,1,150,0|10,0:0|0:0,0:0:0:0:
374,147,21275,6,0,P|427:162|512:121,2,150,0|0|8,0:0|0:0|0:0,0:0:0:0:
297,17,22921,1,0,0:0:0:0:
181,108,23470,2,8,L|194:211,1,100,10|8,0:0|0:0,0:0:0:0:
206,306,24202,5,4,0:0:0:0:
32,206,24933,1,0,0:0:0:0:
221,141,25665,1,2,0:0:0:0:
62,19,26397,6,0,L|53:120,2,100,2|8|2,0:0|0:0|0:0,0:0:0:0:
114,212,27860,1,0,0:0:0:0:
235,53,28592,2,0,P|269:134|220:231,1,200,0|2,0:0|0:0,0:0:0:0:
400,137,30055,5,2,0:0:0:0:
366,333,30787,1,0,0:0:0:0:
206,212,31519,1,2,0:0:0:0:
405,229,32250,6,0,P|448:209|479:164,2,100,2|8|2,0:0|0:0|0:0,0:0:0:0:
272,85,33714,1,2,0:0:0:0:
225,279,34445,2,0,L|111:288,2,100,2|0|2,0:0|0:0|0:0,0:0:0:0:
186,82,35909,5,4,0:0:0:0:
383,112,36641,1,0,0:0:0:0:
342,308,37372,1,2,0:0:0:0:
145,278,38104,1,2,0:0:0:0:
118,79,38836,2,0,P|46:129|64:238,2,200,0|2|0,0:0|0:0|0:0,0:0:0:0:
205,259,41031,2,0,P|258:262|303:246,1,100,2|8,0:0|0:0,0:0:0:0:
366,169,41762,5,2,0:0:0:0:
315,362,42494,1,0,0:0:0:0:
167,227,43226,2,0,L|196:22,1,200,2|2,0:0|0:0,0:0:0:0:
279,83,44323,1,8,0:0:0:0:
372,48,44689,6,0,L|343:253,1,200,2|2,0:0|0:0,0:0:0:0:
164,335,46153,2,0,P|148:288|158:234,2,100,2|4|2,0:0|0:0|0:0,0:0:0:0:
245,276,47250,1,0,0:0:0:0:
303,356,47616,5,4,0:0:0:0:
236,167,48348,1,0,0:0:0:0:
393,290,49080,2,0,P|440:233|436:156,2,150,2|0|0,0:0|0:0|0:0,0:0:0:0:
296,315,50543,6,0,L|265:109,1,200,2|0,0:0|0:0,0:0:0:0:
85,30,52006,2,0,L|116:236,1,200,2|0,0:0|0:0,0:0:0:0:
256,369,53470,5,0,0:0:0:0:
331,183,54201,1,0,0:0:0:0:
166,296,54933,2,0,P|86:326|22:304,2,150,2|0|0,0:0|0:0|0:0,0:0:0:0:
256,252,56397,6,0,P|239:202|242:153,1,100,2|8,0:0|0:0,0:0:0:0:
339,137,57128,2,0,L|353:250,1,100,2|8,0:0|0:0,0:0:0:0:
358,336,57860,1,0,0:0:0:0:
3,150,59323,6,0,L|16:49,2,100,6|8|2,0:0|0:0|0:0,0:0:0:0:
166,266,60787,2,0,L|179:367,2,100,2|8|2,0:0|0:0|0:0,0:0:0:0:
274,79,62250,5,2,0:0:0:0:
400,233,62982,1,2,0:0:0:0:
209,172,63714,2,0,L|108:188,2,100,2|8|2,0:0|0:0|0:0,0:0:0:0:
396,243,65177,5,4,0:0:0:0:
201,289,65909,1,2,0:0:0:0:
349,155,66641,1,0,0:0:0:0:
396,348,67372,1,2,0:0:0:0:
257,203,68104,6,0,P|208:192|159:203,2,100,2|8|2,0:0|0:0|0:0,0:0:0:0:
377,362,69567,2,0,L|397:157,1,200,0|2,0:0|0:0,0:0:0:0:
235,281,71031,6,0,P|178:271|146:245,2,100,2|0|2,0:0|0:0|0:0,0:0:0:0:
376,138,72494,2,0,P|433:148|465:174,2,100,2|0|2,0:0|0:0|0:0,0:0:0:0:
326,331,73958,5,2,0:0:0:0:
135,270,74689,1,2,0:0:0:0:
329,224,75421,2,0,L|361:20,1,200,2|2,0:0|0:0,0:0:0:0:
441,208,76884,5,4,0:0:0:0:
247,158,77616,1,2,0:0:0:0:
393,22,78348,2,0,P|402:66|383:117,2,100,0|8|2,0:0|0:0|0:0,0:0:0:0:
201,80,79811,5,0,0:0:0:0:
187,279,80543,1,2,0:0:0:0:
18,171,81275,2,0,P|0:220|2:269,1,100,2|12,0:0|0:0,0:0:0:0:
47,356,82006,2,0,L|153:371,1,100,2|12,0:0|0:0,0:0:0:0:
224,307,82738,5,4,0:0:0:0:
154,119,83470,1,2,0:0:0:0:
344,58,84201,1,0,0:0:0:0:
453,225,84933,2,0,L|350:210,1,100,2|8,0:0|0:0,0:0:0:0:
258,239,85665,5,0,0:0:0:0:
432,336,86397,1,2,0:0:0:0:
232,349,87128,1,0,0:0:0:0:
167,157,87860,2,0,P|137:208|134:255,2,100,2|8|4,0:0|0:0|0:0,0:0:0:0:
345,247,89323,5,2,0:0:0:0:
291,54,90055,1,0,0:0:0:0:
138,183,90787,2,0,P|184:206|211:249,1,100,2|8,0:0|0:0,0:0:0:0:
240,341,91519,5,0,0:0:0:0:
300,150,92250,1,2,0:0:0:0:
441,291,92982,1,0,0:0:0:0:
245,331,93714,2,0,L|145:311,2,100,2|8|0,0:0|0:0|0:0,0:0:0:0:
428,250,95177,6,0,P|442:201|428:156,2,100,2|8|0,0:0|0:0|0:0,0:0:0:0:
232,207,96641,2,0,P|218:256|232:301,2,100,2|8|0,0:0|0:0|0:0,0:0:0:0:
296,17,98104,1,2,0:0:0:0:
373,200,98836,6,0,L|474:208,2,100,0|6|2,0:0|0:0|0:0,0:0:0:0:
303,271,99933,2,0,L|244:277,1,50
